  0
SECTION
  2
HEADER
  9
$ACADVER
  1
AC1014
  9
$ACADMAINTVER
 70
     9
  9
$DWGCODEPAGE
  3
ANSI_1252
  9
$INSBASE
 10
286.1746514617411
 20
42.37695996300206
 30
0.0
  9
$EXTMIN
 10
281.3950692441339
 20
29.89658881231517
 30
-0.0000000000000058
  9
$EXTMAX
 10
291.8969308140734
 20
44.7477256808967
 30
0.0000000000000104
  9
$LIMMIN
 10
280.3959999999999
 20
28.89699999999999
  9
$LIMMAX
 10
292.8959999999999
 20
43.74699999999999
  9
$ORTHOMODE
 70
     1
  9
$REGENMODE
 70
     1
  9
$FILLMODE
 70
     1
  9
$QTEXTMODE
 70
     0
  9
$MIRRTEXT
 70
     1
  9
$DRAGMODE
 70
     2
  9
$LTSCALE
 40
1.0
  9
$OSMODE
 70
   295
  9
$ATTMODE
 70
     1
  9
$TEXTSIZE
 40
0.3
  9
$TRACEWID
 40
0.05
  9
$TEXTSTYLE
  7
ROMANC
  9
$CLAYER
  8
0
  9
$CELTYPE
  6
BYLAYER
  9
$CECOLOR
 62
   256
  9
$CELTSCALE
 40
1.0
  9
$DELOBJ
 70
     1
  9
$DISPSILH
 70
     0
  9
$DIMSCALE
 40
1.0
  9
$DIMASZ
 40
0.18
  9
$DIMEXO
 40
0.0625
  9
$DIMDLI
 40
0.38
  9
$DIMRND
 40
0.0
  9
$DIMDLE
 40
0.0
  9
$DIMEXE
 40
0.18
  9
$DIMTP
 40
0.0
  9
$DIMTM
 40
0.0
  9
$DIMTXT
 40
0.18
  9
$DIMCEN
 40
0.09
  9
$DIMTSZ
 40
0.0
  9
$DIMTOL
 70
     0
  9
$DIMLIM
 70
     0
  9
$DIMTIH
 70
     1
  9
$DIMTOH
 70
     1
  9
$DIMSE1
 70
     0
  9
$DIMSE2
 70
     0
  9
$DIMTAD
 70
     0
  9
$DIMZIN
 70
     0
  9
$DIMBLK
  1

  9
$DIMASO
 70
     1
  9
$DIMSHO
 70
     1
  9
$DIMPOST
  1

  9
$DIMAPOST
  1

  9
$DIMALT
 70
     0
  9
$DIMALTD
 70
     2
  9
$DIMALTF
 40
25.4
  9
$DIMLFAC
 40
1.0
  9
$DIMTOFL
 70
     0
  9
$DIMTVP
 40
0.0
  9
$DIMTIX
 70
     0
  9
$DIMSOXD
 70
     0
  9
$DIMSAH
 70
     0
  9
$DIMBLK1
  1

  9
$DIMBLK2
  1

  9
$DIMSTYLE
  2
STANDARD
  9
$DIMCLRD
 70
     0
  9
$DIMCLRE
 70
     0
  9
$DIMCLRT
 70
     0
  9
$DIMTFAC
 40
1.0
  9
$DIMGAP
 40
0.09
  9
$DIMJUST
 70
     0
  9
$DIMSD1
 70
     0
  9
$DIMSD2
 70
     0
  9
$DIMTOLJ
 70
     1
  9
$DIMTZIN
 70
     0
  9
$DIMALTZ
 70
     0
  9
$DIMALTTZ
 70
     0
  9
$DIMFIT
 70
     3
  9
$DIMUPT
 70
     0
  9
$DIMUNIT
 70
     2
  9
$DIMDEC
 70
     2
  9
$DIMTDEC
 70
     2
  9
$DIMALTU
 70
     2
  9
$DIMALTTD
 70
     2
  9
$DIMTXSTY
  7
STANDARD
  9
$DIMAUNIT
 70
     0
  9
$LUNITS
 70
     2
  9
$LUPREC
 70
     4
  9
$SKETCHINC
 40
0.1
  9
$FILLETRAD
 40
0.0
  9
$AUNITS
 70
     0
  9
$AUPREC
 70
     0
  9
$MENU
  1
acad
  9
$ELEVATION
 40
0.0
  9
$PELEVATION
 40
0.0
  9
$THICKNESS
 40
0.0
  9
$LIMCHECK
 70
     0
  9
$BLIPMODE
 70
     0
  9
$CHAMFERA
 40
0.0
  9
$CHAMFERB
 40
0.0
  9
$CHAMFERC
 40
0.0
  9
$CHAMFERD
 40
0.0
  9
$SKPOLY
 70
     0
  9
$TDCREATE
 40
2448315.331741435
  9
$TDUPDATE
 40
2452303.698638113
  9
$TDINDWG
 40
0.1030315394
  9
$TDUSRTIMER
 40
0.1029095023
  9
$USRTIMER
 70
     1
  9
$ANGBASE
 50
0.0
  9
$ANGDIR
 70
     0
  9
$PDMODE
 70
     0
  9
$PDSIZE
 40
0.0
  9
$PLINEWID
 40
0.0
  9
$COORDS
 70
     1
  9
$SPLFRAME
 70
     0
  9
$SPLINETYPE
 70
     6
  9
$SPLINESEGS
 70
     8
  9
$ATTDIA
 70
     0
  9
$ATTREQ
 70
     1
  9
$HANDLING
 70
  4097
  9
$HANDSEED
  5
7BD
  9
$SURFTAB1
 70
     6
  9
$SURFTAB2
 70
     6
  9
$SURFTYPE
 70
     6
  9
$SURFU
 70
     6
  9
$SURFV
 70
     6
  9
$UCSNAME
  2

  9
$UCSORG
 10
0.0
 20
0.0
 30
0.0
  9
$UCSXDIR
 10
1.0
 20
0.0
 30
0.0
  9
$UCSYDIR
 10
0.0
 20
1.0
 30
0.0
  9
$PUCSNAME
  2

  9
$PUCSORG
 10
0.0
 20
0.0
 30
0.0
  9
$PUCSXDIR
 10
1.0
 20
0.0
 30
0.0
  9
$PUCSYDIR
 10
0.0
 20
1.0
 30
0.0
  9
$USERI1
 70
     0
  9
$USERI2
 70
     0
  9
$USERI3
 70
     0
  9
$USERI4
 70
     0
  9
$USERI5
 70
     0
  9
$USERR1
 40
0.0
  9
$USERR2
 40
0.0
  9
$USERR3
 40
0.0
  9
$USERR4
 40
0.0
  9
$USERR5
 40
0.0
  9
$WORLDVIEW
 70
     1
  9
$SHADEDGE
 70
     3
  9
$SHADEDIF
 70
    70
  9
$TILEMODE
 70
     1
  9
$MAXACTVP
 70
    16
  9
$PINSBASE
 10
0.0
 20
0.0
 30
0.0
  9
$PLIMCHECK
 70
     0
  9
$PEXTMIN
 10
0.3341875024984802
 20
0.4535837131396649
 30
-0.0015258207003583
  9
$PEXTMAX
 10
199.6273174580067
 20
286.3335861727313
 30
0.0000000349246037
  9
$PLIMMIN
 10
-2.801048903799753
 20
-1.822119893084443
  9
$PLIMMAX
 10
202.4504644270626
 20
288.4680724023113
  9
$UNITMODE
 70
     0
  9
$VISRETAIN
 70
     0
  9
$PLINEGEN
 70
     0
  9
$PSLTSCALE
 70
     1
  9
$TREEDEPTH
 70
  3020
  9
$PICKSTYLE
 70
     1
  9
$CMLSTYLE
  2
STANDARD
  9
$CMLJUST
 70
     0
  9
$CMLSCALE
 40
1.0
  9
$PROXYGRAPHICS
 70
     1
  9
$MEASUREMENT
 70
     0
  0
ENDSEC
  0
SECTION
  2
CLASSES
  0
CLASS
  1
ACDBDICTIONARYWDFLT
  2
AcDbDictionaryWithDefault
  3
AutoCAD 2000
 90
        0
280
     0
281
     0
  0
CLASS
  1
ACDBPLACEHOLDER
  2
AcDbPlaceHolder
  3
AutoCAD 2000
 90
        0
280
     0
281
     0
  0
CLASS
  1
LAYOUT
  2
AcDbLayout
  3
AutoCAD 2000
 90
        0
280
     0
281
     0
  0
CLASS
  1
LONG_TRANSACTION
  2
AcDbLongTransaction
  3
AutoCAD 2000
 90
        0
280
     0
281
     0
  0
CLASS
  1
LWPOLYLINE
  2
AcDbPolyline
  3
AutoCAD 2000
 90
        0
280
     0
281
     1
  0
CLASS
  1
HATCH
  2
AcDbHatch
  3
AutoCAD 2000
 90
        0
280
     0
281
     1
  0
CLASS
  1
XRECORD
  2
AcDbXrecord
  3
AutoCAD 2000
 90
        0
280
     0
281
     0
  0
CLASS
  1
LONG_TRANSACTION
  2
AcDbLongTransaction
  3
AutoCAD 2000
 90
        0
280
     0
281
     0
  0
CLASS
  1
LWPOLYLINE
  2
AcDbPolyline
  3
AutoCAD 2000
 90
        0
280
     0
281
     1
  0
CLASS
  1
HATCH
  2
AcDbHatch
  3
AutoCAD 2000
 90
        0
280
     0
281
     1
  0
CLASS
  1
XRECORD
  2
AcDbXrecord
  3
AutoCAD 2000
 90
        0
280
     0
281
     0
  0
CLASS
  1
PLOTSETTINGS
  2
AcDbPlotSettings
  3
AutoCAD 2000
 90
        0
280
     0
281
     0
  0
CLASS
  1
LONG_TRANSACTION
  2
AcDbLongTransaction
  3
AutoCAD 2000
 90
        0
280
     0
281
     0
  0
CLASS
  1
LWPOLYLINE
  2
AcDbPolyline
  3
AutoCAD 2000
 90
        0
280
     0
281
     1
  0
CLASS
  1
HATCH
  2
AcDbHatch
  3
AutoCAD 2000
 90
        0
280
     0
281
     1
  0
CLASS
  1
XRECORD
  2
AcDbXrecord
  3
AutoCAD 2000
 90
        0
280
     0
281
     0
  0
CLASS
  1
DICTIONARYVAR
  2
AcDbDictionaryVar
  3
AutoCAD 2000
 90
        0
280
     0
281
     0
  0
CLASS
  1
SORTENTSTABLE
  2
AcDbSortentsTable
  3
AutoCAD 2000
 90
        0
280
     0
281
     0
  0
CLASS
  1
LONG_TRANSACTION
  2
AcDbLongTransaction
  3
AutoCAD 2000
 90
        0
280
     0
281
     0
  0
CLASS
  1
LWPOLYLINE
  2
AcDbPolyline
  3
AutoCAD 2000
 90
        0
280
     0
281
     1
  0
CLASS
  1
HATCH
  2
AcDbHatch
  3
AutoCAD 2000
 90
        0
280
     0
281
     1
  0
CLASS
  1
XRECORD
  2
AcDbXrecord
  3
AutoCAD 2000
 90
        0
280
     0
281
     0
  0
CLASS
  1
LONG_TRANSACTION
  2
AcDbLongTransaction
  3
AutoCAD 2000
 90
        0
280
     0
281
     0
  0
CLASS
  1
LWPOLYLINE
  2
AcDbPolyline
  3
AutoCAD 2000
 90
        0
280
     0
281
     1
  0
CLASS
  1
HATCH
  2
AcDbHatch
  3
AutoCAD 2000
 90
        0
280
     0
281
     1
  0
CLASS
  1
XRECORD
  2
AcDbXrecord
  3
AutoCAD 2000
 90
        0
280
     0
281
     0
  0
CLASS
  1
LONG_TRANSACTION
  2
AcDbLongTransaction
  3
AutoCAD 2000
 90
        0
280
     0
281
     0
  0
CLASS
  1
LWPOLYLINE
  2
AcDbPolyline
  3
AutoCAD 2000
 90
        0
280
     0
281
     1
  0
CLASS
  1
HATCH
  2
AcDbHatch
  3
AutoCAD 2000
 90
        0
280
     0
281
     1
  0
CLASS
  1
XRECORD
  2
AcDbXrecord
  3
AutoCAD 2000
 90
        0
280
     0
281
     0
  0
CLASS
  1
LONG_TRANSACTION
  2
AcDbLongTransaction
  3
AutoCAD 2000
 90
        0
280
     0
281
     0
  0
CLASS
  1
LWPOLYLINE
  2
AcDbPolyline
  3
AutoCAD 2000
 90
        0
280
     0
281
     1
  0
CLASS
  1
HATCH
  2
AcDbHatch
  3
AutoCAD 2000
 90
        0
280
     0
281
     1
  0
CLASS
  1
XRECORD
  2
AcDbXrecord
  3
AutoCAD 2000
 90
        0
280
     0
281
     0
  0
CLASS
  1
LONG_TRANSACTION
  2
AcDbLongTransaction
  3
AutoCAD 2000
 90
        0
280
     0
281
     0
  0
CLASS
  1
LWPOLYLINE
  2
AcDbPolyline
  3
AutoCAD 2000
 90
        0
280
     0
281
     1
  0
CLASS
  1
HATCH
  2
AcDbHatch
  3
AutoCAD 2000
 90
        0
280
     0
281
     1
  0
CLASS
  1
XRECORD
  2
AcDbXrecord
  3
AutoCAD 2000
 90
        0
280
     0
281
     0
  0
CLASS
  1
LONG_TRANSACTION
  2
AcDbLongTransaction
  3
AutoCAD 2000
 90
        0
280
     0
281
     0
  0
CLASS
  1
LWPOLYLINE
  2
AcDbPolyline
  3
AutoCAD 2000
 90
        0
280
     0
281
     1
  0
CLASS
  1
HATCH
  2
AcDbHatch
  3
AutoCAD 2000
 90
        0
280
     0
281
     1
  0
CLASS
  1
XRECORD
  2
AcDbXrecord
  3
AutoCAD 2000
 90
        0
280
     0
281
     0
  0
CLASS
  1
LONG_TRANSACTION
  2
AcDbLongTransaction
  3
AutoCAD 2000
 90
        0
280
     0
281
     0
  0
CLASS
  1
LWPOLYLINE
  2
AcDbPolyline
  3
AutoCAD 2000
 90
        0
280
     0
281
     1
  0
CLASS
  1
HATCH
  2
AcDbHatch
  3
AutoCAD 2000
 90
        0
280
     0
281
     1
  0
CLASS
  1
XRECORD
  2
AcDbXrecord
  3
AutoCAD 2000
 90
        0
280
     0
281
     0
  0
CLASS
  1
LONG_TRANSACTION
  2
AcDbLongTransaction
  3
AutoCAD 2000
 90
        0
280
     0
281
     0
  0
CLASS
  1
LWPOLYLINE
  2
AcDbPolyline
  3
AutoCAD 2000
 90
        0
280
     0
281
     1
  0
CLASS
  1
HATCH
  2
AcDbHatch
  3
AutoCAD 2000
 90
        0
280
     0
281
     1
  0
CLASS
  1
XRECORD
  2
AcDbXrecord
  3
AutoCAD 2000
 90
        0
280
     0
281
     0
  0
ENDSEC
  0
SECTION
  2
TABLES
  0
TABLE
  2
VPORT
  5
8
330
0
100
AcDbSymbolTable
 70
     3
  0
VPORT
  5
78E
330
8
100
AcDbSymbolTableRecord
100
AcDbViewportTableRecord
  2
*ACTIVE
 70
     0
 10
0.0
 20
0.0
 11
1.0
 21
1.0
 12
286.6459999809801
 22
37.32215721863597
 13
0.0
 23
0.0
 14
1.0
 24
1.0
 15
0.0
 25
0.0
 16
0.0
 26
0.0
 36
1.0
 17
0.0
 27
0.0
 37
0.0
 40
15.86116380777299
 41
1.519546027742749
 42
50.0
 43
0.0
 44
0.0
 50
0.0
 51
0.0
 71
     0
 72
   100
 73
     1
 74
     1
 75
     0
 76
     0
 77
     0
 78
     0
  0
ENDTAB
  0
TABLE
  2
LTYPE
  5
5
330
0
100
AcDbSymbolTable
 70
     1
  0
LTYPE
  5
13
330
5
100
AcDbSymbolTableRecord
100
AcDbLinetypeTableRecord
  2
BYBLOCK
 70
     0
  3

 72
    65
 73
     0
 40
0.0
  0
LTYPE
  5
14
330
5
100
AcDbSymbolTableRecord
100
AcDbLinetypeTableRecord
  2
BYLAYER
 70
     0
  3

 72
    65
 73
     0
 40
0.0
  0
LTYPE
  5
15
330
5
100
AcDbSymbolTableRecord
100
AcDbLinetypeTableRecord
  2
CONTINUOUS
 70
     0
  3
Solid line
 72
    65
 73
     0
 40
0.0
  0
ENDTAB
  0
TABLE
  2
LAYER
  5
2
330
0
100
AcDbSymbolTable
 70
     3
  0
LAYER
  5
10
330
2
100
AcDbSymbolTableRecord
100
AcDbLayerTableRecord
  2
0
 70
     0
 62
     7
  6
CONTINUOUS
  0
LAYER
  5
7F
330
2
100
AcDbSymbolTableRecord
100
AcDbLayerTableRecord
  2
DEFPOINTS
 70
     0
 62
     7
  6
CONTINUOUS
  0
LAYER
  5
4D1
330
2
100
AcDbSymbolTableRecord
100
AcDbLayerTableRecord
  2
NO_PRINT
 70
     0
 62
     7
  6
CONTINUOUS
  0
ENDTAB
  0
TABLE
  2
STYLE
  5
3
330
0
100
AcDbSymbolTable
 70
     2
  0
STYLE
  5
11
330
3
100
AcDbSymbolTableRecord
100
AcDbTextStyleTableRecord
  2
STANDARD
 70
     0
 40
0.0
 41
1.0
 50
0.0
 71
     0
 42
0.2
  3
txt
  4

  0
STYLE
  5
28
330
3
100
AcDbSymbolTableRecord
100
AcDbTextStyleTableRecord
  2
ROMANC
 70
     0
 40
0.0
 41
1.0
 50
0.0
 71
     0
 42
0.3
  3
ROMANC
  4

  0
ENDTAB
  0
TABLE
  2
VIEW
  5
6
330
0
100
AcDbSymbolTable
 70
     0
  0
ENDTAB
  0
TABLE
  2
UCS
  5
7
330
0
100
AcDbSymbolTable
 70
     0
  0
ENDTAB
  0
TABLE
  2
APPID
  5
9
330
0
100
AcDbSymbolTable
 70
     3
  0
APPID
  5
12
330
9
100
AcDbSymbolTableRecord
100
AcDbRegAppTableRecord
  2
ACAD
 70
     0
  0
APPID
  5
31D
330
9
100
AcDbSymbolTableRecord
100
AcDbRegAppTableRecord
  2
CONTENTBLOCKDESCRIPTION
 70
     0
  0
APPID
  5
31E
330
9
100
AcDbSymbolTableRecord
100
AcDbRegAppTableRecord
  2
CONTENTBLOCKICON
 70
     0
  0
ENDTAB
  0
TABLE
  2
DIMSTYLE
  5
A
330
0
100
AcDbSymbolTable
 70
     1
  0
DIMSTYLE
105
7A
102
{ACAD_REACTORS
330
6C5
330
6E1
330
6EF
330
6FE
330
70C
102
}
330
A
100
AcDbSymbolTableRecord
100
AcDbDimStyleTableRecord
  2
STANDARD
 70
     0
  3

  4

  5

  6

  7

 40
1.0
 41
0.18
 42
0.0625
 43
0.38
 44
0.18
 45
0.0
 46
0.0
 47
0.0
 48
0.0
140
0.18
141
0.09
142
0.0
143
25.4
144
1.0
145
0.0
146
1.0
147
0.09
 71
     0
 72
     0
 73
     1
 74
     1
 75
     0
 76
     0
 77
     0
 78
     0
170
     0
171
     2
172
     0
173
     0
174
     0
175
     0
176
     0
177
     0
178
     0
270
     2
271
     2
272
     2
273
     2
274
     2
340
11
275
     0
280
     0
281
     0
282
     0
283
     1
284
     0
285
     0
286
     0
287
     3
288
     0
  0
ENDTAB
  0
TABLE
  2
BLOCK_RECORD
  5
1
330
0
100
AcDbSymbolTable
 70
    25
  0
BLOCK_RECORD
  5
1E
102
{ACAD_XDICTIONARY
360
1AC
102
}
330
1
100
AcDbSymbolTableRecord
100
AcDbBlockTableRecord
  2
*MODEL_SPACE
  0
BLOCK_RECORD
  5
1A
102
{ACAD_XDICTIONARY
360
1AA
102
}
330
1
100
AcDbSymbolTableRecord
100
AcDbBlockTableRecord
  2
*PAPER_SPACE
  0
BLOCK_RECORD
  5
23B
330
1
100
AcDbSymbolTableRecord
100
AcDbBlockTableRecord
  2
TIPUS
1001
CONTENTBLOCKDESCRIPTION
1071
        0
1000
Tipus de Seccio
1001
CONTENTBLOCKICON
1071
        0
1004
2800000020000000200000000100080000000000000400000000000000000000000000000000000000000000000080000080000000808000800000008000800080800000C0C0C000C0DCC000F0CAA6000020400000206000002080000020A0000020C0000020E00000400000004020000040400000406000004080000040A0
1004
000040C0000040E00000600000006020000060400000606000006080000060A0000060C0000060E00000800000008020000080400000806000008080000080A0000080C0000080E00000A0000000A0200000A0400000A0600000A0800000A0A00000A0C00000A0E00000C0000000C0200000C0400000C0600000C0800000C0
1004
A00000C0C00000C0E00000E0000000E0200000E0400000E0600000E0800000E0A00000E0C00000E0E00040000000400020004000400040006000400080004000A0004000C0004000E00040200000402020004020400040206000402080004020A0004020C0004020E000404000004040200040404000404060004040800040
1004
40A0004040C0004040E00040600000406020004060400040606000406080004060A0004060C0004060E00040800000408020004080400040806000408080004080A0004080C0004080E00040A0000040A0200040A0400040A0600040A0800040A0A00040A0C00040A0E00040C0000040C0200040C0400040C0600040C08000
1004
40C0A00040C0C00040C0E00040E0000040E0200040E0400040E0600040E0800040E0A00040E0C00040E0E00080000000800020008000400080006000800080008000A0008000C0008000E00080200000802020008020400080206000802080008020A0008020C0008020E00080400000804020008040400080406000804080
1004
008040A0008040C0008040E00080600000806020008060400080606000806080008060A0008060C0008060E00080800000808020008080400080806000808080008080A0008080C0008080E00080A0000080A0200080A0400080A0600080A0800080A0A00080A0C00080A0E00080C0000080C0200080C0400080C0600080C0
1004
800080C0A00080C0C00080C0E00080E0000080E0200080E0400080E0600080E0800080E0A00080E0C00080E0E000C0000000C0002000C0004000C0006000C0008000C000A000C000C000C000E000C0200000C0202000C0204000C0206000C0208000C020A000C020C000C020E000C0400000C0402000C0404000C0406000C0
1004
408000C040A000C040C000C040E000C0600000C0602000C0604000C0606000C0608000C060A000C060C000C060E000C0800000C0802000C0804000C0806000C0808000C080A000C080C000C080E000C0A00000C0A02000C0A04000C0A06000C0A08000C0A0A000C0A0C000C0A0E000C0C00000C0C02000C0C04000C0C06000
1004
C0C08000C0C0A000F0FBFF00A4A0A000808080000000FF0000FF000000FFFF00FF000000FF00FF00FFFF0000FFFFFF0000000000000000000000000000000000000000000000000000000000000000000000000000000000000000000000000000000000000000000000000000000000000000000000000000000000000000
1004
00000000000000000000000000000000000000000000000000000000000000000000000000000000000000000000000000000000000000000000000000000000000000000000000000000000000000000000000000000000000000000000000000000000000000000000000000000000000000000000000000000000000000
1004
00000000000000000000000000000000000000000000000000000000000000000000000000000000000000000000000000000000000000000000000000000000000000000000000000000000000000000000000000000000000000000000000000000000000000000000000000000000000000000000000000000000000000
1004
000000000000000000000000000000000000000000000000000000000000000000000000000000000000000000000000000000000000000000000000000000000000000000000000000000000000000000000000FFFFFF00FF0000FFFF00FFFF00FFFFFFFF00FFFFFFFFFFFFFF00FFFF0000000000FF00FFFF0000FFFF0000
1004
00FFFF0000FFFF000000FFFF000000FF000000000000FF00FFFF0000FFFF000000FFFF0000FFFF000000FFFF000000FF000000000000FFFFFFFF0000FFFF000000FFFF0000FFFF000000FFFF000000FFFF0000000000FFFF00FF00FFFFFFFF0000FFFF0000FFFF000000FFFF0000FF00FF00000000FFFF00FFFFFFFFFFFFFF
1004
FFFF00FFFFFFFF00FFFFFFFFFFFFFFFFFFFFFFFF0000000000000000000000000000000000000000000000000000000000000000000000000000000000000000000000000000000000000000000000000000000000000000000000000000000000000000000000000000000000000000000000000000000000000000000000
1004
00000000000000000000000000000000000000000000000000000000000000000000000000000000000000000000000000000000000000000000000000000000000000000000000000000000000000000000000000000000000000000000000000000000000000000000000000000000000000000000000000000000000000
1004
00000000000000000000000000000000000000000000000000000000000000000000000000000000000000000000000000000000000000000000000000000000000000000000000000000000000000000000000000000000000000000000000000000000000000000000000000000000000000000000000000000000000000
1004
0000000000000000000000000000000000000000000000000000000000000000000000000000000000000000000000000000000000000000
  0
BLOCK_RECORD
  5
240
330
1
100
AcDbSymbolTableRecord
100
AcDbBlockTableRecord
  2
SUPERFICIE
1001
CONTENTBLOCKDESCRIPTION
1071
        0
1000
Supercie lliure de la seccio
1001
CONTENTBLOCKICON
1071
        0
1004
2800000020000000200000000100080000000000000400000000000000000000000000000000000000000000000080000080000000808000800000008000800080800000C0C0C000C0DCC000F0CAA6000020400000206000002080000020A0000020C0000020E00000400000004020000040400000406000004080000040A0
1004
000040C0000040E00000600000006020000060400000606000006080000060A0000060C0000060E00000800000008020000080400000806000008080000080A0000080C0000080E00000A0000000A0200000A0400000A0600000A0800000A0A00000A0C00000A0E00000C0000000C0200000C0400000C0600000C0800000C0
1004
A00000C0C00000C0E00000E0000000E0200000E0400000E0600000E0800000E0A00000E0C00000E0E00040000000400020004000400040006000400080004000A0004000C0004000E00040200000402020004020400040206000402080004020A0004020C0004020E000404000004040200040404000404060004040800040
1004
40A0004040C0004040E00040600000406020004060400040606000406080004060A0004060C0004060E00040800000408020004080400040806000408080004080A0004080C0004080E00040A0000040A0200040A0400040A0600040A0800040A0A00040A0C00040A0E00040C0000040C0200040C0400040C0600040C08000
1004
40C0A00040C0C00040C0E00040E0000040E0200040E0400040E0600040E0800040E0A00040E0C00040E0E00080000000800020008000400080006000800080008000A0008000C0008000E00080200000802020008020400080206000802080008020A0008020C0008020E00080400000804020008040400080406000804080
1004
008040A0008040C0008040E00080600000806020008060400080606000806080008060A0008060C0008060E00080800000808020008080400080806000808080008080A0008080C0008080E00080A0000080A0200080A0400080A0600080A0800080A0A00080A0C00080A0E00080C0000080C0200080C0400080C0600080C0
1004
800080C0A00080C0C00080C0E00080E0000080E0200080E0400080E0600080E0800080E0A00080E0C00080E0E000C0000000C0002000C0004000C0006000C0008000C000A000C000C000C000E000C0200000C0202000C0204000C0206000C0208000C020A000C020C000C020E000C0400000C0402000C0404000C0406000C0
1004
408000C040A000C040C000C040E000C0600000C0602000C0604000C0606000C0608000C060A000C060C000C060E000C0800000C0802000C0804000C0806000C0808000C080A000C080C000C080E000C0A00000C0A02000C0A04000C0A06000C0A08000C0A0A000C0A0C000C0A0E000C0C00000C0C02000C0C04000C0C06000
1004
C0C08000C0C0A000F0FBFF00A4A0A000808080000000FF0000FF000000FFFF00FF000000FF00FF00FFFF0000FFFFFF0000000000000000000000000000000000000000000000000000000000000000000000000000000000000000000000000000000000000000000000000000000000000000000000000000000000000000
1004
00000000000000000000000000000000000000000000000000000000000000000000000000000000000000000000000000000000000000000000000000000000000000000000000000000000000000000000000000000000000000000000000000000000000000000000000000000000000000000000000000000000000000
1004
00000000000000000000000000000000000000000000000000000000000000000000000000000000000000000000000000000000000000000000000000000000000000000000000000000000000000000000000000000000000000000000000000000000000000000000000000000000000000FFFFFFFF0000FFFFFFFFFFFF
1004
FFFF0000FFFFFFFFFFFFFFFF0000FFFFFFFF00000000FF00000000FF00000000FF000000FFFF00000000FF000000FFFF000000000000FF00000000FF00000000FF000000FFFF00000000FF000000FFFF00000000000000FF0000FF000000000000FF00FFFF000000000000FF00FFFF000000000000000000FFFFFF00000000
1004
000000FFFFFF00000000000000FFFF00000000000000000000FFFF0000000000000000FFFF0000000000000000FFFF00000000000000000000FFFF0000000000000000FFFF0000000000000000FFFF00000000000000000000FFFF00000000000000FFFFFF00000000000000FFFFFF000000000000000000FFFF00FF000000
1004
000000FFFF00FF000000000000FF0000FF00000000000000FFFF000000FF00000000FFFF000000FF00000000FF00000000FF000000000000FFFF000000FF00000000FFFF000000FF00000000FF00000000FF00000000FFFFFFFF0000FFFFFFFFFFFFFFFF0000FFFFFFFFFFFFFFFF0000FFFFFFFF0000000000000000000000
1004
00000000000000000000000000000000000000000000000000000000000000000000000000000000000000000000000000000000000000000000000000000000000000000000000000000000000000000000000000000000000000000000000000000000000000000000000000000000000000000000000000000000000000
1004
00000000000000000000000000000000000000000000000000000000000000000000000000000000000000000000000000000000000000000000000000000000000000000000000000000000000000000000000000000000000000000000000000000000000000000000000000000000000000000000000000000000000000
1004
0000000000000000000000000000000000000000000000000000000000000000000000000000000000000000000000000000000000000000
  0
BLOCK_RECORD
  5
245
330
1
100
AcDbSymbolTableRecord
100
AcDbBlockTableRecord
  2
PERIMETRE
1001
CONTENTBLOCKDESCRIPTION
1071
        0
1000
Perimetre de la seccio
1001
CONTENTBLOCKICON
1071
        0
1004
2800000020000000200000000100080000000000000400000000000000000000000000000000000000000000000080000080000000808000800000008000800080800000C0C0C000C0DCC000F0CAA6000020400000206000002080000020A0000020C0000020E00000400000004020000040400000406000004080000040A0
1004
000040C0000040E00000600000006020000060400000606000006080000060A0000060C0000060E00000800000008020000080400000806000008080000080A0000080C0000080E00000A0000000A0200000A0400000A0600000A0800000A0A00000A0C00000A0E00000C0000000C0200000C0400000C0600000C0800000C0
1004
A00000C0C00000C0E00000E0000000E0200000E0400000E0600000E0800000E0A00000E0C00000E0E00040000000400020004000400040006000400080004000A0004000C0004000E00040200000402020004020400040206000402080004020A0004020C0004020E000404000004040200040404000404060004040800040
1004
40A0004040C0004040E00040600000406020004060400040606000406080004060A0004060C0004060E00040800000408020004080400040806000408080004080A0004080C0004080E00040A0000040A0200040A0400040A0600040A0800040A0A00040A0C00040A0E00040C0000040C0200040C0400040C0600040C08000
1004
40C0A00040C0C00040C0E00040E0000040E0200040E0400040E0600040E0800040E0A00040E0C00040E0E00080000000800020008000400080006000800080008000A0008000C0008000E00080200000802020008020400080206000802080008020A0008020C0008020E00080400000804020008040400080406000804080
1004
008040A0008040C0008040E00080600000806020008060400080606000806080008060A0008060C0008060E00080800000808020008080400080806000808080008080A0008080C0008080E00080A0000080A0200080A0400080A0600080A0800080A0A00080A0C00080A0E00080C0000080C0200080C0400080C0600080C0
1004
800080C0A00080C0C00080C0E00080E0000080E0200080E0400080E0600080E0800080E0A00080E0C00080E0E000C0000000C0002000C0004000C0006000C0008000C000A000C000C000C000E000C0200000C0202000C0204000C0206000C0208000C020A000C020C000C020E000C0400000C0402000C0404000C0406000C0
1004
408000C040A000C040C000C040E000C0600000C0602000C0604000C0606000C0608000C060A000C060C000C060E000C0800000C0802000C0804000C0806000C0808000C080A000C080C000C080E000C0A00000C0A02000C0A04000C0A06000C0A08000C0A0A000C0A0C000C0A0E000C0C00000C0C02000C0C04000C0C06000
1004
C0C08000C0C0A000F0FBFF00A4A0A000808080000000FF0000FF000000FFFF00FF000000FF00FF00FFFF0000FFFFFF0000000000000000000000000000000000000000000000000000000000000000000000000000000000000000000000000000000000000000000000000000000000000000000000000000000000000000
1004
00000000000000000000000000000000000000000000000000000000000000000000000000000000000000000000000000000000000000000000000000000000000000000000000000000000000000000000000000000000000000000000000000000000000000000000000000000000000000000000000000000000000000
1004
00000000000000000000000000000000000000000000000000000000000000000000000000000000000000000000000000000000000000000000000000000000000000000000000000000000000000000000000000000000000000000000000000000000000000000000000000000000000000FFFFFFFF0000FFFFFFFFFFFF
1004
FFFF0000FFFFFFFFFFFFFFFF0000FFFFFFFF00000000FF00000000FF00000000FF000000FFFF00000000FF000000FFFF000000000000FF00000000FF00000000FF000000FFFF00000000FF000000FFFF00000000000000FF0000FF000000000000FF00FFFF000000000000FF00FFFF000000000000000000FFFFFF00000000
1004
000000FFFFFF00000000000000FFFF00000000000000000000FFFF0000000000000000FFFF0000000000000000FFFF00000000000000000000FFFF0000000000000000FFFF0000000000000000FFFF00000000000000000000FFFF00000000000000FFFFFF00000000000000FFFFFF000000000000000000FFFF00FF000000
1004
000000FFFF00FF000000000000FF0000FF00000000000000FFFF000000FF00000000FFFF000000FF00000000FF00000000FF000000000000FFFF000000FF00000000FFFF000000FF00000000FF00000000FF00000000FFFFFFFF0000FFFFFFFFFFFFFFFF0000FFFFFFFFFFFFFFFF0000FFFFFFFF0000000000000000000000
1004
00000000000000000000000000000000000000000000000000000000000000000000000000000000000000000000000000000000000000000000000000000000000000000000000000000000000000000000000000000000000000000000000000000000000000000000000000000000000000000000000000000000000000
1004
00000000000000000000000000000000000000000000000000000000000000000000000000000000000000000000000000000000000000000000000000000000000000000000000000000000000000000000000000000000000000000000000000000000000000000000000000000000000000000000000000000000000000
1004
0000000000000000000000000000000000000000000000000000000000000000000000000000000000000000000000000000000000000000
  0
BLOCK_RECORD
  5
24F
330
1
100
AcDbSymbolTableRecord
100
AcDbBlockTableRecord
  2
1
1001
CONTENTBLOCKICON
1071
        0
1004
2800000020000000200000000100080000000000000400000000000000000000000000000000000000000000000080000080000000808000800000008000800080800000C0C0C000C0DCC000F0CAA6000020400000206000002080000020A0000020C0000020E00000400000004020000040400000406000004080000040A0
1004
000040C0000040E00000600000006020000060400000606000006080000060A0000060C0000060E00000800000008020000080400000806000008080000080A0000080C0000080E00000A0000000A0200000A0400000A0600000A0800000A0A00000A0C00000A0E00000C0000000C0200000C0400000C0600000C0800000C0
1004
A00000C0C00000C0E00000E0000000E0200000E0400000E0600000E0800000E0A00000E0C00000E0E00040000000400020004000400040006000400080004000A0004000C0004000E00040200000402020004020400040206000402080004020A0004020C0004020E000404000004040200040404000404060004040800040
1004
40A0004040C0004040E00040600000406020004060400040606000406080004060A0004060C0004060E00040800000408020004080400040806000408080004080A0004080C0004080E00040A0000040A0200040A0400040A0600040A0800040A0A00040A0C00040A0E00040C0000040C0200040C0400040C0600040C08000
1004
40C0A00040C0C00040C0E00040E0000040E0200040E0400040E0600040E0800040E0A00040E0C00040E0E00080000000800020008000400080006000800080008000A0008000C0008000E00080200000802020008020400080206000802080008020A0008020C0008020E00080400000804020008040400080406000804080
1004
008040A0008040C0008040E00080600000806020008060400080606000806080008060A0008060C0008060E00080800000808020008080400080806000808080008080A0008080C0008080E00080A0000080A0200080A0400080A0600080A0800080A0A00080A0C00080A0E00080C0000080C0200080C0400080C0600080C0
1004
800080C0A00080C0C00080C0E00080E0000080E0200080E0400080E0600080E0800080E0A00080E0C00080E0E000C0000000C0002000C0004000C0006000C0008000C000A000C000C000C000E000C0200000C0202000C0204000C0206000C0208000C020A000C020C000C020E000C0400000C0402000C0404000C0406000C0
1004
408000C040A000C040C000C040E000C0600000C0602000C0604000C0606000C0608000C060A000C060C000C060E000C0800000C0802000C0804000C0806000C0808000C080A000C080C000C080E000C0A00000C0A02000C0A04000C0A06000C0A08000C0A0A000C0A0C000C0A0E000C0C00000C0C02000C0C04000C0C06000
1004
C0C08000C0C0A000F0FBFF00A4A0A000808080000000FF0000FF000000FFFF00FF000000FF00FF00FFFF0000FFFFFF0000000000000000000000000000000000000000000000000000000000000000000000000000000000000000000000000000000000000000000000000000000000000000000000000000000000000000
1004
00000000000000000000000000000000000000000000000000000000000000000000000000000000000000000000000000000000000000000000000000000000000000000000000000000000000000000000000000000000000000000000000000000000000000000000000000000000000000000000000000000000000000
1004
00000000000000000000000000000000000000000000000000000000000000000000000000000000000000000000000000000000000000000000000000000000000000000000000000000000000000000000000000000000000000000000000000000000000000000000000000000000000000FFFF0000FFFF00FFFFFFFFFF
1004
FFFFFFFFFF0000FFFFFFFFFFFF00000000000000FFFFFF00FFFF00FFFFFFFFFFFFFFFFFFFF0000FFFFFFFFFF0000000000000000000000000000000000000000000000000000000000000000000000000000000000FFFF00FFFF00FFFFFFFFFFFFFFFFFFFF000000FFFFFFFFFFFF00000000000000FFFF00FFFF00FFFFFFFF
1004
FFFFFFFFFFFFFF0000FFFFFFFFFFFF00000000000000000000000000000000000000000000FFFF0000000000000000000000000000FFFFFFFFFFFFFFFFFFFFFF0000FFFFFFFFFF000000000000000000000000000000FFFFFFFFFFFFFFFFFF000000FFFFFFFFFFFF00000000000000000000000000FFFFFFFFFFFFFFFF00FF
1004
000000FFFFFFFFFFFF00000000000000000000000000000000000000000000000000000000000000000000000000000000000000000000FFFFFF00FFFFFFFF000000FFFFFFFFFFFFFFFFFFFF0000FFFFFFFFFFFF0000FFFFFFFFFFFFFFFFFF000000FFFFFFFFFFFFFFFFFFFFFF00FFFFFFFFFFFF0000000000000000000000
1004
00000000000000000000000000000000000000000000000000000000000000000000000000000000000000000000000000000000000000000000000000000000000000000000000000000000000000000000000000000000000000000000000000000000000000000000000000000000000000000000000000000000000000
1004
00000000000000000000000000000000000000000000000000000000000000000000000000000000000000000000000000000000000000000000000000000000000000000000000000000000000000000000000000000000000000000000000000000000000000000000000000000000000000000000000000000000000000
1004
0000000000000000000000000000000000000000000000000000000000000000000000000000000000000000000000000000000000000000
  0
BLOCK_RECORD
  5
26D
330
1
100
AcDbSymbolTableRecord
100
AcDbBlockTableRecord
  2
CARACTERISTIQUES
1001
CONTENTBLOCKDESCRIPTION
1071
        0
1000
Caracteristiques de la seccio
1001
CONTENTBLOCKICON
1071
        0
1004
2800000020000000200000000100080000000000000400000000000000000000000000000000000000000000000080000080000000808000800000008000800080800000C0C0C000C0DCC000F0CAA6000020400000206000002080000020A0000020C0000020E00000400000004020000040400000406000004080000040A0
1004
000040C0000040E00000600000006020000060400000606000006080000060A0000060C0000060E00000800000008020000080400000806000008080000080A0000080C0000080E00000A0000000A0200000A0400000A0600000A0800000A0A00000A0C00000A0E00000C0000000C0200000C0400000C0600000C0800000C0
1004
A00000C0C00000C0E00000E0000000E0200000E0400000E0600000E0800000E0A00000E0C00000E0E00040000000400020004000400040006000400080004000A0004000C0004000E00040200000402020004020400040206000402080004020A0004020C0004020E000404000004040200040404000404060004040800040
1004
40A0004040C0004040E00040600000406020004060400040606000406080004060A0004060C0004060E00040800000408020004080400040806000408080004080A0004080C0004080E00040A0000040A0200040A0400040A0600040A0800040A0A00040A0C00040A0E00040C0000040C0200040C0400040C0600040C08000
1004
40C0A00040C0C00040C0E00040E0000040E0200040E0400040E0600040E0800040E0A00040E0C00040E0E00080000000800020008000400080006000800080008000A0008000C0008000E00080200000802020008020400080206000802080008020A0008020C0008020E00080400000804020008040400080406000804080
1004
008040A0008040C0008040E00080600000806020008060400080606000806080008060A0008060C0008060E00080800000808020008080400080806000808080008080A0008080C0008080E00080A0000080A0200080A0400080A0600080A0800080A0A00080A0C00080A0E00080C0000080C0200080C0400080C0600080C0
1004
800080C0A00080C0C00080C0E00080E0000080E0200080E0400080E0600080E0800080E0A00080E0C00080E0E000C0000000C0002000C0004000C0006000C0008000C000A000C000C000C000E000C0200000C0202000C0204000C0206000C0208000C020A000C020C000C020E000C0400000C0402000C0404000C0406000C0
1004
408000C040A000C040C000C040E000C0600000C0602000C0604000C0606000C0608000C060A000C060C000C060E000C0800000C0802000C0804000C0806000C0808000C080A000C080C000C080E000C0A00000C0A02000C0A04000C0A06000C0A08000C0A0A000C0A0C000C0A0E000C0C00000C0C02000C0C04000C0C06000
1004
C0C08000C0C0A000F0FBFF00A4A0A000808080000000FF0000FF000000FFFF00FF000000FF00FF00FFFF0000FFFFFF000000000000000000000000000000000000000000000000000000000000000000000000000000000000000000000000FFFFFFFFFFFFFFFFFF0000000000000000000000000000000000000000000000
1004
FFFFFFFFFFFFFFFFFF00000000000000000000000000000000000000000000000000000000000000000000000000000000000000000000000000000000000000000000000000000000000000000000000000000000000000000000000000000000000000000000000000000000000000000000000000000000000000000000
1004
00000000000000000000000000000000000000000000000000000000000000000000000000000000000000000000000000000000000000000000000000000000000000000000000000000000000000000000000000000000000000000000000000000000000000000000000000000000000000000000000000000000000000
1004
00000000000000000000000000000000000000000000000000000000000000000000000000000000000000000000000000000000000000000000000000000000000000000000000000000000000000000000000000000000000000000000000000000000000000000000000000000000000000000000000000000000000000
1004
00000000000000000000000000000000000000000000000000000000000000000000000000000000000000000000000000000000000000000000000000000000000000000000000000000000000000000000000000000000000000000000000000000000000000000000000000000000000000000000000000000000000000
1004
00000000000000000000000000000000000000000000000000000000000000000000000000000000000000000000000000000000000000000000000000000000000000000000000000000000000000000000000000000000000000000000000000000000000000000000000000000000000000000000000000000000000000
1004
00000000000000000000000000000000000000000000000000000000000000000000000000000000000000000000000000000000000000000000000000000000000000000000000000000000000000000000000000000000000000000000FFFFFF0000000000000000000000000000000000000000000000000000000000FF
1004
FFFF0000000000000000000000000000000000000000000000000000000000FFFFFFFFFFFF0000000000000000000000000000000000000000000000000000000000FFFFFF0000000000000000000000000000000000000000000000000000000000FFFFFFFF00000000000000000000000000000000000000000000000000
1004
000000FFFFFFFFFF000000000000000000000000000000000000000000000000000000000000000000000000000000000000000000000000
  0
BLOCK_RECORD
  5
28C
330
1
100
AcDbSymbolTableRecord
100
AcDbBlockTableRecord
  2
PERIMETRO
1001
CONTENTBLOCKICON
1071
        0
1004
2800000020000000200000000100080000000000000400000000000000000000000000000000000000000000000080000080000000808000800000008000800080800000C0C0C000C0DCC000F0CAA6000020400000206000002080000020A0000020C0000020E00000400000004020000040400000406000004080000040A0
1004
000040C0000040E00000600000006020000060400000606000006080000060A0000060C0000060E00000800000008020000080400000806000008080000080A0000080C0000080E00000A0000000A0200000A0400000A0600000A0800000A0A00000A0C00000A0E00000C0000000C0200000C0400000C0600000C0800000C0
1004
A00000C0C00000C0E00000E0000000E0200000E0400000E0600000E0800000E0A00000E0C00000E0E00040000000400020004000400040006000400080004000A0004000C0004000E00040200000402020004020400040206000402080004020A0004020C0004020E000404000004040200040404000404060004040800040
1004
40A0004040C0004040E00040600000406020004060400040606000406080004060A0004060C0004060E00040800000408020004080400040806000408080004080A0004080C0004080E00040A0000040A0200040A0400040A0600040A0800040A0A00040A0C00040A0E00040C0000040C0200040C0400040C0600040C08000
1004
40C0A00040C0C00040C0E00040E0000040E0200040E0400040E0600040E0800040E0A00040E0C00040E0E00080000000800020008000400080006000800080008000A0008000C0008000E00080200000802020008020400080206000802080008020A0008020C0008020E00080400000804020008040400080406000804080
1004
008040A0008040C0008040E00080600000806020008060400080606000806080008060A0008060C0008060E00080800000808020008080400080806000808080008080A0008080C0008080E00080A0000080A0200080A0400080A0600080A0800080A0A00080A0C00080A0E00080C0000080C0200080C0400080C0600080C0
1004
800080C0A00080C0C00080C0E00080E0000080E0200080E0400080E0600080E0800080E0A00080E0C00080E0E000C0000000C0002000C0004000C0006000C0008000C000A000C000C000C000E000C0200000C0202000C0204000C0206000C0208000C020A000C020C000C020E000C0400000C0402000C0404000C0406000C0
1004
408000C040A000C040C000C040E000C0600000C0602000C0604000C0606000C0608000C060A000C060C000C060E000C0800000C0802000C0804000C0806000C0808000C080A000C080C000C080E000C0A00000C0A02000C0A04000C0A06000C0A08000C0A0A000C0A0C000C0A0E000C0C00000C0C02000C0C04000C0C06000
1004
C0C08000C0C0A000F0FBFF00A4A0A000808080000000FF0000FF000000FFFF00FF000000FF00FF00FFFF0000FFFFFF0000000000000000000000000000000000000000000000000000000000000000000000000000000000000000000000000000000000000000000000000000000000000000000000000000000000000000
1004
00000000000000000000000000000000000000000000000000000000000000000000000000000000000000000000000000000000000000000000000000000000000000000000000000000000000000000000000000000000000000000000000000000000000000000000000000000000000000000000000000000000000000
1004
00000000000000000000000000000000000000000000000000000000000000000000000000000000000000000000000000000000000000000000000000000000000000000000000000000000000000000000000000000000000000000000000000000000000000000000000000000000000000FFFFFFFF0000FFFFFFFFFFFF
1004
FFFF0000FFFFFFFFFFFFFFFF0000FFFFFFFF00000000FF00000000FF00000000FF000000FFFF00000000FF000000FFFF000000000000FF00000000FF00000000FF000000FFFF00000000FF000000FFFF00000000000000FF0000FF000000000000FF00FFFF000000000000FF00FFFF000000000000000000FFFFFF00000000
1004
000000FFFFFF00000000000000FFFF00000000000000000000FFFF0000000000000000FFFF0000000000000000FFFF00000000000000000000FFFF0000000000000000FFFF0000000000000000FFFF00000000000000000000FFFF00000000000000FFFFFF00000000000000FFFFFF000000000000000000FFFF00FF000000
1004
000000FFFF00FF000000000000FF0000FF00000000000000FFFF000000FF00000000FFFF000000FF00000000FF00000000FF000000000000FFFF000000FF00000000FFFF000000FF00000000FF00000000FF00000000FFFFFFFF0000FFFFFFFFFFFFFFFF0000FFFFFFFFFFFFFFFF0000FFFFFFFF0000000000000000000000
1004
00000000000000000000000000000000000000000000000000000000000000000000000000000000000000000000000000000000000000000000000000000000000000000000000000000000000000000000000000000000000000000000000000000000000000000000000000000000000000000000000000000000000000
1004
00000000000000000000000000000000000000000000000000000000000000000000000000000000000000000000000000000000000000000000000000000000000000000000000000000000000000000000000000000000000000000000000000000000000000000000000000000000000000000000000000000000000000
1004
0000000000000000000000000000000000000000000000000000000000000000000000000000000000000000000000000000000000000000
  0
BLOCK_RECORD
  5
2AB
330
1
100
AcDbSymbolTableRecord
100
AcDbBlockTableRecord
  2
PERSONA
1001
CONTENTBLOCKICON
1071
        0
1004
2800000020000000200000000100080000000000000400000000000000000000000000000000000000000000000080000080000000808000800000008000800080800000C0C0C000C0DCC000F0CAA6000020400000206000002080000020A0000020C0000020E00000400000004020000040400000406000004080000040A0
1004
000040C0000040E00000600000006020000060400000606000006080000060A0000060C0000060E00000800000008020000080400000806000008080000080A0000080C0000080E00000A0000000A0200000A0400000A0600000A0800000A0A00000A0C00000A0E00000C0000000C0200000C0400000C0600000C0800000C0
1004
A00000C0C00000C0E00000E0000000E0200000E0400000E0600000E0800000E0A00000E0C00000E0E00040000000400020004000400040006000400080004000A0004000C0004000E00040200000402020004020400040206000402080004020A0004020C0004020E000404000004040200040404000404060004040800040
1004
40A0004040C0004040E00040600000406020004060400040606000406080004060A0004060C0004060E00040800000408020004080400040806000408080004080A0004080C0004080E00040A0000040A0200040A0400040A0600040A0800040A0A00040A0C00040A0E00040C0000040C0200040C0400040C0600040C08000
1004
40C0A00040C0C00040C0E00040E0000040E0200040E0400040E0600040E0800040E0A00040E0C00040E0E00080000000800020008000400080006000800080008000A0008000C0008000E00080200000802020008020400080206000802080008020A0008020C0008020E00080400000804020008040400080406000804080
1004
008040A0008040C0008040E00080600000806020008060400080606000806080008060A0008060C0008060E00080800000808020008080400080806000808080008080A0008080C0008080E00080A0000080A0200080A0400080A0600080A0800080A0A00080A0C00080A0E00080C0000080C0200080C0400080C0600080C0
1004
800080C0A00080C0C00080C0E00080E0000080E0200080E0400080E0600080E0800080E0A00080E0C00080E0E000C0000000C0002000C0004000C0006000C0008000C000A000C000C000C000E000C0200000C0202000C0204000C0206000C0208000C020A000C020C000C020E000C0400000C0402000C0404000C0406000C0
1004
408000C040A000C040C000C040E000C0600000C0602000C0604000C0606000C0608000C060A000C060C000C060E000C0800000C0802000C0804000C0806000C0808000C080A000C080C000C080E000C0A00000C0A02000C0A04000C0A06000C0A08000C0A0A000C0A0C000C0A0E000C0C00000C0C02000C0C04000C0C06000
1004
C0C08000C0C0A000F0FBFF00A4A0A000808080000000FF0000FF000000FFFF00FF000000FF00FF00FFFF0000FFFFFF0000000000000000000000000000000000000000000000000000000000000000000000000000000000000000000000000000000000000000000000000000000000000000000000000000000000000000
1004
0000000000000000000000000000000000000000000000000000000000000000000000000000000000000000000000000000000000000000000000000000000000000000000000000000000000000000000000000000000000000000000000000000000000000000000000000000000000000000FFFFFFFFFFFFFFFFFFFFFF
1004
FFFFFFFF00FFFFFFFFFFFFFFFFFF00FF0000000000FFFFFFFFFFFFFFFF0000FFFFFFFFFFFFFFFFFF00FFFFFFFFFFFFFFFF00000000FFFFFFFFFFFFFFFF0000FFFF00FFFFFFFFFFFF00FF00FFFFFFFFFFFF00000000FFFFFFFFFFFFFFFF0000FFFF00FFFFFFFFFFFFFFFFFFFFFFFF00FF000000000000000000000000000000
1004
00000000000000000000000000000000000000000000000000000000000000000000000000000000000000000000000000000000000000000000000000000000000000000000000000000000000000000000000000000000000000000000000000000000000000000000000000000000000000000000000000000000000000
1004
0000000000000000000000000000000000000000000000000000000000FFFFFF000000000000000000000000000000000000000000FFFFFFFFFFFFFFFF0000FFFFFFFF00FFFFFFFFFFFFFFFFFFFFFF00000000000000FFFFFFFFFFFFFF000000FFFFFFFFFFFFFF00FF00FFFFFFFFFF000000000000FFFFFFFFFFFFFFFFFF00
1004
00FFFFFFFFFFFFFF00FFFFFFFFFFFFFF000000000000000000000000000000000000000000000000000000000000000000000000000000000000000000000000000000000000000000000000000000000000000000000000000000000000000000000000000000000000000000000000000000000000000000000000000000
1004
FFFFFF000000000000000000000000000000000000000000FFFFFFFFFFFFFFFF000000FFFFFFFFFFFFFFFFFFFFFFFFFFFF0000000000000000FFFFFFFFFFFFFF000000FFFFFFFFFFFFFFFFFFFFFFFFFFFF00000000000000FFFFFFFFFFFFFFFFFF0000FFFFFFFFFF00FFFFFFFFFFFFFFFF0000000000000000000000000000
1004
00000000000000000000000000000000000000000000000000000000000000000000000000000000000000000000000000000000000000000000000000000000000000000000000000000000000000000000000000000000000000000000000000000000000000000000000000000000000000000000000000000000000000
1004
0000000000000000000000000000000000000000000000000000000000000000000000000000000000000000000000000000000000000000
  0
BLOCK_RECORD
  5
2B8
330
1
100
AcDbSymbolTableRecord
100
AcDbBlockTableRecord
  2
PRUEVA
1001
CONTENTBLOCKICON
1071
        0
1004
2800000020000000200000000100080000000000000400000000000000000000000000000000000000000000000080000080000000808000800000008000800080800000C0C0C000C0DCC000F0CAA6000020400000206000002080000020A0000020C0000020E00000400000004020000040400000406000004080000040A0
1004
000040C0000040E00000600000006020000060400000606000006080000060A0000060C0000060E00000800000008020000080400000806000008080000080A0000080C0000080E00000A0000000A0200000A0400000A0600000A0800000A0A00000A0C00000A0E00000C0000000C0200000C0400000C0600000C0800000C0
1004
A00000C0C00000C0E00000E0000000E0200000E0400000E0600000E0800000E0A00000E0C00000E0E00040000000400020004000400040006000400080004000A0004000C0004000E00040200000402020004020400040206000402080004020A0004020C0004020E000404000004040200040404000404060004040800040
1004
40A0004040C0004040E00040600000406020004060400040606000406080004060A0004060C0004060E00040800000408020004080400040806000408080004080A0004080C0004080E00040A0000040A0200040A0400040A0600040A0800040A0A00040A0C00040A0E00040C0000040C0200040C0400040C0600040C08000
1004
40C0A00040C0C00040C0E00040E0000040E0200040E0400040E0600040E0800040E0A00040E0C00040E0E00080000000800020008000400080006000800080008000A0008000C0008000E00080200000802020008020400080206000802080008020A0008020C0008020E00080400000804020008040400080406000804080
1004
008040A0008040C0008040E00080600000806020008060400080606000806080008060A0008060C0008060E00080800000808020008080400080806000808080008080A0008080C0008080E00080A0000080A0200080A0400080A0600080A0800080A0A00080A0C00080A0E00080C0000080C0200080C0400080C0600080C0
1004
800080C0A00080C0C00080C0E00080E0000080E0200080E0400080E0600080E0800080E0A00080E0C00080E0E000C0000000C0002000C0004000C0006000C0008000C000A000C000C000C000E000C0200000C0202000C0204000C0206000C0208000C020A000C020C000C020E000C0400000C0402000C0404000C0406000C0
1004
408000C040A000C040C000C040E000C0600000C0602000C0604000C0606000C0608000C060A000C060C000C060E000C0800000C0802000C0804000C0806000C0808000C080A000C080C000C080E000C0A00000C0A02000C0A04000C0A06000C0A08000C0A0A000C0A0C000C0A0E000C0C00000C0C02000C0C04000C0C06000
1004
C0C08000C0C0A000F0FBFF00A4A0A000808080000000FF0000FF000000FFFF00FF000000FF00FF00FFFF0000FFFFFF0000000000000000000000000000000000000000000000000000000000000000000000000000000000000000000000000000000000000000000000000000000000000000000000000000000000000000
1004
00000000000000000000000000000000000000000000000000000000000000000000000000000000000000000000000000000000000000000000000000000000000000000000000000000000000000000000000000000000000000000000000000000000000000000000000000000000000000FFFFFFFFFFFFFFFF0000FFFF
1004
FFFFFFFFFFFFFF0000FF00FF0000FFFF0000000000FF0000FFFF0000FF0000FF000000FF00FF0000FFFF00FFFFFF0000FF00000000FF0000FFFF0000FFFF00FF00FF00FF00FF0000FFFF0000FF0000000000000000FF0000FFFF0000FFFF00FFFFFF000000FF00FF00FF000000FFFF000000000000FF0000FFFF0000FFFF00
1004
FF00FF00FF00FFFF0000FF0000FF0000FFFF00000000FF0000FFFF0000FF0000FF000000FF00FFFF0000FF00FFFF0000FFFF000000FFFFFFFFFFFFFFFF0000FFFFFFFFFFFFFFFF0000FFFFFF00FFFFFFFF00000000000000000000000000000000000000000000000000000000000000000000000000000000000000000000
1004
00000000000000000000000000000000000000000000000000000000000000000000000000000000000000000000000000000000000000000000000000000000000000000000000000000000000000000000000000000000000000000000000000000000000000000000000000000000000000000000000000000000000000
1004
00000000000000000000000000000000000000000000FFFFFF00FFFFFFFFFF00FFFFFFFFFFFF00FFFF0000FF0000FFFFFF000000000000FFFF0000FF0000FF0000FF000000FF00FF000000FF000000FF00000000000000FFFF0000FF0000FFFF00FF00FF00FF00FF0000FFFF000000FF00000000000000FFFF0000FF0000FF
1004
FF00FFFFFF000000FF0000FFFF000000FF00000000000000FFFF0000FF0000FFFF00FF00FF00FF00FF00FF00FF000000FF00000000000000FFFF0000FF0000FF0000FF000000FF00FF00FF00FF0000FFFF000000000000FFFFFF00FFFFFFFFFF00FFFFFFFFFFFF00FFFF00FFFFFF0000FF0000000000000000000000000000
1004
00000000000000000000000000000000000000000000000000000000000000000000000000000000000000000000000000000000000000000000000000000000000000000000000000000000000000000000000000000000000000000000000000000000000000000000000000000000000000000000000000000000000000
1004
0000000000000000000000000000000000000000000000000000000000000000000000000000000000000000000000000000000000000000
  0
BLOCK_RECORD
  5
3F8
330
1
100
AcDbSymbolTableRecord
100
AcDbBlockTableRecord
  2
*D8
  0
BLOCK_RECORD
  5
406
330
1
100
AcDbSymbolTableRecord
100
AcDbBlockTableRecord
  2
*D9
  0
BLOCK_RECORD
  5
414
330
1
100
AcDbSymbolTableRecord
100
AcDbBlockTableRecord
  2
*D10
  0
BLOCK_RECORD
  5
47A
330
1
100
AcDbSymbolTableRecord
100
AcDbBlockTableRecord
  2
*D11
  0
BLOCK_RECORD
  5
492
330
1
100
AcDbSymbolTableRecord
100
AcDbBlockTableRecord
  2
*D12
  0
BLOCK_RECORD
  5
4A0
330
1
100
AcDbSymbolTableRecord
100
AcDbBlockTableRecord
  2
*D13
  0
BLOCK_RECORD
  5
544
330
1
100
AcDbSymbolTableRecord
100
AcDbBlockTableRecord
  2
*D14
  0
BLOCK_RECORD
  5
552
330
1
100
AcDbSymbolTableRecord
100
AcDbBlockTableRecord
  2
*D15
  0
BLOCK_RECORD
  5
560
330
1
100
AcDbSymbolTableRecord
100
AcDbBlockTableRecord
  2
*D16
  0
BLOCK_RECORD
  5
578
330
1
100
AcDbSymbolTableRecord
100
AcDbBlockTableRecord
  2
*D17
  0
BLOCK_RECORD
  5
586
330
1
100
AcDbSymbolTableRecord
100
AcDbBlockTableRecord
  2
*D18
  0
BLOCK_RECORD
  5
6C6
330
1
100
AcDbSymbolTableRecord
100
AcDbBlockTableRecord
  2
*D19
  0
BLOCK_RECORD
  5
6D4
330
1
100
AcDbSymbolTableRecord
100
AcDbBlockTableRecord
  2
*D20
  0
BLOCK_RECORD
  5
6E2
330
1
100
AcDbSymbolTableRecord
100
AcDbBlockTableRecord
  2
*D21
  0
BLOCK_RECORD
  5
6F0
330
1
100
AcDbSymbolTableRecord
100
AcDbBlockTableRecord
  2
*D22
  0
BLOCK_RECORD
  5
6FF
330
1
100
AcDbSymbolTableRecord
100
AcDbBlockTableRecord
  2
*D23
  0
BLOCK_RECORD
  5
70D
330
1
100
AcDbSymbolTableRecord
100
AcDbBlockTableRecord
  2
*D24
  0
ENDTAB
  0
ENDSEC
  0
SECTION
  2
BLOCKS
  0
BLOCK
  5
1F
330
1E
100
AcDbEntity
  8
0
100
AcDbBlockBegin
  2
*MODEL_SPACE
 70
     0
 10
0.0
 20
0.0
 30
0.0
  3
*MODEL_SPACE
  1

  0
ENDBLK
  5
20
330
1E
100
AcDbEntity
  8
0
100
AcDbBlockEnd
  0
BLOCK
  5
1B
330
1A
100
AcDbEntity
 67
     1
  8
0
100
AcDbBlockBegin
  2
*PAPER_SPACE
 70
     0
 10
0.0
 20
0.0
 30
0.0
  3
*PAPER_SPACE
  1

  0
ENDBLK
  5
1C
330
1A
100
AcDbEntity
 67
     1
  8
0
100
AcDbBlockEnd
  0
BLOCK
  5
23C
330
23B
100
AcDbEntity
  8
0
100
AcDbBlockBegin
  2
TIPUS
 70
     0
 10
0.0
 20
0.0
 30
0.0
  3
TIPUS
  1

  0
TEXT
  5
293
330
23B
100
AcDbEntity
  8
0
  6
CONTINUOUS
100
AcDbText
 10
286.1177180249413
 20
42.37875471737599
 30
0.0
 40
0.3
  1
NTXXXY
  7
ROMANC
100
AcDbText
  0
ENDBLK
  5
23D
330
23B
100
AcDbEntity
  8
0
100
AcDbBlockEnd
  0
BLOCK
  5
241
330
240
100
AcDbEntity
  8
0
100
AcDbBlockBegin
  2
SUPERFICIE
 70
     0
 10
0.0
 20
0.0
 30
0.0
  3
SUPERFICIE
  1

  0
TEXT
  5
291
330
240
100
AcDbEntity
  8
0
  6
CONTINUOUS
100
AcDbText
 10
285.1576974311999
 20
41.09913197584499
 30
0.0
 40
0.3
  1
XXX
  7
ROMANC
100
AcDbText
  0
ENDBLK
  5
242
330
240
100
AcDbEntity
  8
0
100
AcDbBlockEnd
  0
BLOCK
  5
246
330
245
100
AcDbEntity
  8
0
100
AcDbBlockBegin
  2
PERIMETRE
 70
     0
 10
0.0
 20
0.0
 30
0.0
  3
PERIMETRE
  1

  0
TEXT
  5
248
330
245
100
AcDbEntity
  8
0
  6
CONTINUOUS
100
AcDbText
 10
-0.0273031851410224
 20
0.0018352306916185
 30
0.0
 40
0.3
  1
XXX
  7
ROMANC
100
AcDbText
  0
ENDBLK
  5
247
330
245
100
AcDbEntity
  8
0
100
AcDbBlockEnd
  0
BLOCK
  5
250
330
24F
100
AcDbEntity
  8
0
100
AcDbBlockBegin
  2
1
 70
     2
 10
0.0
 20
0.0
 30
0.0
  3
1
  1

  0
TEXT
  5
252
330
24F
100
AcDbEntity
  8
0
  6
CONTINUOUS
100
AcDbText
 10
0.1822521001187169
 20
0.7599981843347125
 30
0.0
 40
0.3
  1
S =    dm
  7
ROMANC
100
AcDbText
  0
INSERT
  5
253
330
24F
100
AcDbEntity
  8
0
100
AcDbBlockReference
  2
TIPUS
 10
2.38227331020124
 20
2.026069320385408
 30
0.0
  0
TEXT
  5
254
330
24F
100
AcDbEntity
  8
0
  6
CONTINUOUS
100
AcDbText
 10
0.1592521001188629
 20
0.1899981843347476
 30
0.0
 40
0.3
  1
P =    dm
  7
ROMANC
100
AcDbText
  0
TEXT
  5
255
330
24F
100
AcDbEntity
  8
0
  6
CONTINUOUS
100
AcDbText
 10
0.1632521001187115
 20
1.428998184334743
 30
0.0
 40
0.3
  1
ESCALA  1:50
  7
ROMANC
100
AcDbText
  0
INSERT
  5
256
330
24F
100
AcDbEntity
  8
0
100
AcDbBlockReference
  2
PERIMETRE
 10
1.422252716459752
 20
0.2014221004675178
 30
0.0
  0
INSERT
  5
257
330
24F
100
AcDbEntity
  8
0
100
AcDbBlockReference
  2
SUPERFICIE
 10
1.434104793966465
 20
0.7582949294881374
 30
0.0
  0
TEXT
  5
258
330
24F
100
AcDbEntity
  8
0
  6
CONTINUOUS
100
AcDbText
 10
0.1632521001187115
 20
2.041998184334743
 30
0.0
 40
0.3
  1
TIPUS   
  7
ROMANC
100
AcDbText
  0
ATTDEF
  5
259
330
24F
100
AcDbEntity
  8
0
100
AcDbText
 10
3.579335975109017
 20
0.1777253642765615
 30
0.0
 40
0.2
  1
x
100
AcDbAttributeDefinition
  3
tipus
  2
TIPUS
 70
     0
  0
ATTDEF
  5
25A
330
24F
100
AcDbEntity
  8
0
100
AcDbText
 10
3.733413387943357
 20
0.734598228220662
 30
0.0
 40
0.2
  1
x
100
AcDbAttributeDefinition
  3
tipus
  2
TIPUS
 70
     0
  0
TEXT
  5
25B
330
24F
100
AcDbEntity
  8
0
  6
CONTINUOUS
100
AcDbText
 10
3.10297712188418
 20
1.019094372221033
 30
0.0
 40
0.1
  1
2
  7
ROMANC
100
AcDbText
  0
ATTDEF
  5
25C
330
24F
100
AcDbEntity
  8
0
100
AcDbText
 10
4.480096065531991
 20
2.049766056576372
 30
0.0
 40
0.2
  1
x
100
AcDbAttributeDefinition
  3
tipus
  2
TIPUS
 70
     0
  0
ENDBLK
  5
251
330
24F
100
AcDbEntity
  8
0
100
AcDbBlockEnd
  0
BLOCK
  5
26E
330
26D
100
AcDbEntity
  8
0
100
AcDbBlockBegin
  2
CARACTERISTIQUES
 70
     2
 10
0.0
 20
0.0
 30
0.0
  3
CARACTERISTIQUES
  1

  0
ATTDEF
  5
309
330
26D
100
AcDbEntity
  8
0
100
AcDbText
 10
286.2722613402651
 20
41.75273550800127
 30
0.0
 40
0.3
  1
1:50
  7
ROMANC
100
AcDbAttributeDefinition
  3
Escala
  2
1:50
 70
     0
  0
ATTDEF
  5
30A
330
26D
100
AcDbEntity
  8
0
100
AcDbText
 10
286.2281292928555
 20
42.38557741488182
 30
0.0
 40
0.3
  1
NTXXXY
  7
ROMANC
100
AcDbAttributeDefinition
  3
Tipus de Seccio
  2
NTXXY
 70
     0
  0
ATTDEF
  5
30B
330
26D
100
AcDbEntity
  8
0
100
AcDbText
 10
285.02615359101
 20
41.10070262236148
 30
0.0
 40
0.3
  1
XXX
  7
ROMANC
100
AcDbAttributeDefinition
  3
Superficie de la seccio
  2
XXX
 70
     0
  0
ATTDEF
  5
30C
330
26D
100
AcDbEntity
  8
0
100
AcDbText
 10
285.049954865421
 20
40.52964709849685
 30
0.0
 40
0.3
  1
XX
  7
ROMANC
100
AcDbAttributeDefinition
  3
Perimetre de la Seccio
  2
XX
 70
     0
  0
ATTDEF
  5
30D
330
26D
100
AcDbEntity
  8
0
100
AcDbText
 10
287.7675284271763
 20
30.62335152191192
 30
0.0
 40
0.3
  1
Xxxxxxxxxxxx
  7
ROMANC
 72
     2
 11
291.1675284271763
 21
30.62335152191192
 31
0.0
100
AcDbAttributeDefinition
  3
Ubicaciò
  2
Xxxxxxxxxxxx
 70
     0
  0
ENDBLK
  5
26F
330
26D
100
AcDbEntity
  8
0
100
AcDbBlockEnd
  0
BLOCK
  5
28D
330
28C
100
AcDbEntity
  8
0
100
AcDbBlockBegin
  2
PERIMETRO
 70
     0
 10
0.0
 20
0.0
 30
0.0
  3
PERIMETRO
  1

  0
TEXT
  5
28F
330
28C
100
AcDbEntity
  8
0
  6
CONTINUOUS
100
AcDbText
 10
285.1576974311999
 20
40.54225914682437
 30
0.0
 40
0.3
  1
XXX
  7
ROMANC
100
AcDbText
  0
ENDBLK
  5
28E
330
28C
100
AcDbEntity
  8
0
100
AcDbBlockEnd
  0
BLOCK
  5
2AC
330
2AB
100
AcDbEntity
  8
0
100
AcDbBlockBegin
  2
PERSONA
 70
     2
 10
0.0
 20
0.0
 30
0.0
  3
PERSONA
  1

  0
ATTDEF
  5
2AE
330
2AB
100
AcDbEntity
  8
0
100
AcDbText
 10
0.3477492763984173
 20
1.891334330655126
 30
0.0
 40
0.2
  1
val:nombre
  7
ROMANC
100
AcDbAttributeDefinition
  3
sol_nombre
  2
IDEN_NOMBRE
 70
     0
  0
ATTDEF
  5
2AF
330
2AB
100
AcDbEntity
  8
0
100
AcDbText
 10
0.2447312480355777
 20
1.208599186397186
 30
0.0
 40
0.2
  1
val_apellido
  7
ROMANC
100
AcDbAttributeDefinition
  3
sol_apellido
  2
IDEN_APELLIDO
 70
     0
  0
ATTDEF
  5
2B0
330
2AB
100
AcDbEntity
  8
0
100
AcDbText
 10
0.3651607346860146
 20
0.342229907808246
 30
0.0
 40
0.2
  1
val_2apellido
  7
ROMANC
100
AcDbAttributeDefinition
  3
sol_2apellido
  2
IDEN_2APELLIDO
 70
     0
  0
ENDBLK
  5
2AD
330
2AB
100
AcDbEntity
  8
0
100
AcDbBlockEnd
  0
BLOCK
  5
2B9
330
2B8
100
AcDbEntity
  8
0
100
AcDbBlockBegin
  2
PRUEVA
 70
     2
 10
0.0
 20
0.0
 30
0.0
  3
PRUEVA
  1

  0
ATTDEF
  5
2BB
330
2B8
100
AcDbEntity
  8
0
100
AcDbText
 10
-0.0238012744110847
 20
0.107073217119698
 30
0.0
 40
0.2
  1
val1
  7
ROMANC
100
AcDbAttributeDefinition
  3
sol1
  2
IDEN1
 70
     0
  0
ATTDEF
  5
2BC
330
2B8
100
AcDbEntity
  8
0
100
AcDbText
 10
-0.0000000000000568
 20
-0.3093217193975377
 30
0.0
 40
0.2
  1
val2
  7
ROMANC
100
AcDbAttributeDefinition
  3
sol2
  2
IDEN2
 70
     0
  0
ENDBLK
  5
2BA
330
2B8
100
AcDbEntity
  8
0
100
AcDbBlockEnd
  0
BLOCK
  5
403
330
3F8
100
AcDbEntity
  8
0
100
AcDbBlockBegin
  2
*D8
 70
     1
 10
0.0
 20
0.0
 30
0.0
  3
*D8
  1

  0
LINE
  5
457
330
3F8
100
AcDbEntity
  8
0
 62
     0
100
AcDbLine
 10
284.1130293079131
 20
38.60593885855282
 30
0.0
 11
284.1130293079131
 21
39.06156168336643
 31
0.0
  0
LINE
  5
458
330
3F8
100
AcDbEntity
  8
0
 62
     0
100
AcDbLine
 10
288.8130293079131
 20
38.60593885855282
 30
0.0
 11
288.8130293079131
 21
39.06156168336643
 31
0.0
  0
LINE
  5
459
330
3F8
100
AcDbEntity
  8
0
 62
     0
100
AcDbLine
 10
284.2930293079131
 20
38.88156168336642
 30
0.0
 11
286.1180293079129
 21
38.88156168336642
 31
0.0
  0
LINE
  5
45A
330
3F8
100
AcDbEntity
  8
0
 62
     0
100
AcDbLine
 10
288.633029307913
 20
38.88156168336642
 30
0.0
 11
286.8080293079131
 21
38.88156168336642
 31
0.0
  0
SOLID
  5
45B
330
3F8
100
AcDbEntity
  8
0
 62
     0
100
AcDbTrace
 10
284.2930293079131
 20
38.91156168336642
 30
0.0
 11
284.2930293079131
 21
38.85156168336642
 31
0.0
 12
284.1130293079131
 22
38.88156168336642
 32
0.0
 13
284.1130293079131
 23
38.88156168336642
 33
0.0
  0
SOLID
  5
45C
330
3F8
100
AcDbEntity
  8
0
 62
     0
100
AcDbTrace
 10
288.633029307913
 20
38.91156168336642
 30
0.0
 11
288.633029307913
 21
38.85156168336642
 31
0.0
 12
288.8130293079131
 22
38.88156168336642
 32
0.0
 13
288.8130293079131
 23
38.88156168336642
 33
0.0
  0
MTEXT
  5
45D
330
3F8
100
AcDbEntity
  8
0
 62
     0
100
AcDbMText
 10
286.463029307913
 20
38.88156168336642
 30
0.0
 40
0.18
 41
0.0
 71
     5
 72
     1
  1
\A1;4.70
1001
ACAD
1000
MTEXTBEGIN
1070
    73
1070
     1
1070
    44
1040
1.0
1070
    74
1070
     0
1000
MTEXTEND
1000
MTEXTBEGIN
1070
    73
1070
     1
1070
    44
1040
1.0
1070
    74
1070
     0
1000
MTEXTEND
1000
MTEXTBEGIN
1070
    73
1070
     1
1070
    44
1040
1.0
1070
    74
1070
     0
1000
MTEXTEND
1000
MTEXTBEGIN
1070
    73
1070
     1
1070
    44
1040
1.0
1070
    74
1070
     0
1000
MTEXTEND
  0
POINT
  5
45E
330
3F8
100
AcDbEntity
  8
DEFPOINTS
 62
     0
100
AcDbPoint
 10
284.1130293079131
 20
38.54343885855284
 30
0.0
  0
POINT
  5
45F
330
3F8
100
AcDbEntity
  8
DEFPOINTS
 62
     0
100
AcDbPoint
 10
288.8130293079131
 20
38.54343885855284
 30
0.0
  0
POINT
  5
460
330
3F8
100
AcDbEntity
  8
DEFPOINTS
 62
     0
100
AcDbPoint
 10
288.8130293079131
 20
38.88156168336642
 30
0.0
  0
ENDBLK
  5
404
330
3F8
100
AcDbEntity
  8
0
100
AcDbBlockEnd
  0
BLOCK
  5
411
330
406
100
AcDbEntity
  8
0
100
AcDbBlockBegin
  2
*D9
 70
     1
 10
0.0
 20
0.0
 30
0.0
  3
*D9
  1

  0
LINE
  5
461
330
406
100
AcDbEntity
  8
0
 62
     0
100
AcDbLine
 10
284.0505293079131
 20
38.54343885855284
 30
0.0
 11
283.4769128764881
 21
38.54343885855284
 31
0.0
  0
LINE
  5
462
330
406
100
AcDbEntity
  8
0
 62
     0
100
AcDbLine
 10
284.0505293079131
 20
33.64343885855284
 30
0.0
 11
283.4769128764881
 21
33.64343885855284
 31
0.0
  0
LINE
  5
463
330
406
100
AcDbEntity
  8
0
 62
     0
100
AcDbLine
 10
283.6569128764882
 20
38.36343885855285
 30
0.0
 11
283.6569128764882
 21
36.27343885855285
 31
0.0
  0
LINE
  5
464
330
406
100
AcDbEntity
  8
0
 62
     0
100
AcDbLine
 10
283.6569128764882
 20
33.82343885855284
 30
0.0
 11
283.6569128764882
 21
35.91343885855285
 31
0.0
  0
SOLID
  5
465
330
406
100
AcDbEntity
  8
0
 62
     0
100
AcDbTrace
 10
283.6269128764882
 20
38.36343885855285
 30
0.0
 11
283.6869128764881
 21
38.36343885855285
 31
0.0
 12
283.6569128764882
 22
38.54343885855284
 32
0.0
 13
283.6569128764882
 23
38.54343885855284
 33
0.0
  0
SOLID
  5
466
330
406
100
AcDbEntity
  8
0
 62
     0
100
AcDbTrace
 10
283.6269128764882
 20
33.82343885855284
 30
0.0
 11
283.6869128764881
 21
33.82343885855284
 31
0.0
 12
283.6569128764882
 22
33.64343885855284
 32
0.0
 13
283.6569128764882
 23
33.64343885855284
 33
0.0
  0
MTEXT
  5
467
330
406
100
AcDbEntity
  8
0
 62
     0
100
AcDbMText
 10
283.6569128764882
 20
36.0934388585529
 30
0.0
 40
0.18
 41
0.0
 71
     5
 72
     1
  1
\A1;4.90
1001
ACAD
1000
MTEXTBEGIN
1070
    73
1070
     1
1070
    44
1040
1.0
1070
    74
1070
     0
1000
MTEXTEND
1000
MTEXTBEGIN
1070
    73
1070
     1
1070
    44
1040
1.0
1070
    74
1070
     0
1000
MTEXTEND
1000
MTEXTBEGIN
1070
    73
1070
     1
1070
    44
1040
1.0
1070
    74
1070
     0
1000
MTEXTEND
1000
MTEXTBEGIN
1070
    73
1070
     1
1070
    44
1040
1.0
1070
    74
1070
     0
1000
MTEXTEND
  0
POINT
  5
468
330
406
100
AcDbEntity
  8
DEFPOINTS
 62
     0
100
AcDbPoint
 10
284.1130293079131
 20
38.54343885855284
 30
0.0
  0
POINT
  5
469
330
406
100
AcDbEntity
  8
DEFPOINTS
 62
     0
100
AcDbPoint
 10
284.1130293079131
 20
33.64343885855284
 30
0.0
  0
POINT
  5
46A
330
406
100
AcDbEntity
  8
DEFPOINTS
 62
     0
100
AcDbPoint
 10
283.6569128764882
 20
33.64343885855284
 30
0.0
  0
ENDBLK
  5
412
330
406
100
AcDbEntity
  8
0
100
AcDbBlockEnd
  0
BLOCK
  5
41F
330
414
100
AcDbEntity
  8
0
100
AcDbBlockBegin
  2
*D10
 70
     1
 10
0.0
 20
0.0
 30
0.0
  3
*D10
  1

  0
LINE
  5
44D
330
414
100
AcDbEntity
  8
0
 62
     0
100
AcDbLine
 10
284.1130293079131
 20
33.58093885855284
 30
0.0
 11
284.1130293079131
 21
33.06768293023646
 31
0.0
  0
LINE
  5
44E
330
414
100
AcDbEntity
  8
0
 62
     0
100
AcDbLine
 10
287.863029307913
 20
33.58093885855284
 30
0.0
 11
287.863029307913
 21
33.06768293023646
 31
0.0
  0
LINE
  5
44F
330
414
100
AcDbEntity
  8
0
 62
     0
100
AcDbLine
 10
284.2930293079131
 20
33.24768293023645
 30
0.0
 11
285.6280293079131
 21
33.24768293023645
 31
0.0
  0
LINE
  5
450
330
414
100
AcDbEntity
  8
0
 62
     0
100
AcDbLine
 10
287.6830293079131
 20
33.24768293023645
 30
0.0
 11
286.3480293079131
 21
33.24768293023645
 31
0.0
  0
SOLID
  5
451
330
414
100
AcDbEntity
  8
0
 62
     0
100
AcDbTrace
 10
284.2930293079131
 20
33.27768293023646
 30
0.0
 11
284.2930293079131
 21
33.21768293023647
 31
0.0
 12
284.1130293079131
 22
33.24768293023645
 32
0.0
 13
284.1130293079131
 23
33.24768293023645
 33
0.0
  0
SOLID
  5
452
330
414
100
AcDbEntity
  8
0
 62
     0
100
AcDbTrace
 10
287.6830293079131
 20
33.27768293023646
 30
0.0
 11
287.6830293079131
 21
33.21768293023647
 31
0.0
 12
287.863029307913
 22
33.24768293023645
 32
0.0
 13
287.863029307913
 23
33.24768293023645
 33
0.0
  0
MTEXT
  5
453
330
414
100
AcDbEntity
  8
0
 62
     0
100
AcDbMText
 10
285.9880293079131
 20
33.24768293023645
 30
0.0
 40
0.18
 41
0.0
 71
     5
 72
     1
  1
\A1;3.75
1001
ACAD
1000
MTEXTBEGIN
1070
    73
1070
     1
1070
    44
1040
1.0
1070
    74
1070
     0
1000
MTEXTEND
1000
MTEXTBEGIN
1070
    73
1070
     1
1070
    44
1040
1.0
1070
    74
1070
     0
1000
MTEXTEND
1000
MTEXTBEGIN
1070
    73
1070
     1
1070
    44
1040
1.0
1070
    74
1070
     0
1000
MTEXTEND
1000
MTEXTBEGIN
1070
    73
1070
     1
1070
    44
1040
1.0
1070
    74
1070
     0
1000
MTEXTEND
  0
POINT
  5
454
330
414
100
AcDbEntity
  8
DEFPOINTS
 62
     0
100
AcDbPoint
 10
284.1130293079131
 20
33.64343885855284
 30
0.0
  0
POINT
  5
455
330
414
100
AcDbEntity
  8
DEFPOINTS
 62
     0
100
AcDbPoint
 10
287.863029307913
 20
33.64343885855284
 30
0.0
  0
POINT
  5
456
330
414
100
AcDbEntity
  8
DEFPOINTS
 62
     0
100
AcDbPoint
 10
287.863029307913
 20
33.24768293023645
 30
0.0
  0
ENDBLK
  5
420
330
414
100
AcDbEntity
  8
0
100
AcDbBlockEnd
  0
BLOCK
  5
485
330
47A
100
AcDbEntity
  8
0
100
AcDbBlockBegin
  2
*D11
 70
     1
 10
0.0
 20
0.0
 30
0.0
  3
*D11
  1

  0
LINE
  5
487
330
47A
100
AcDbEntity
  8
0
 62
     0
100
AcDbLine
 10
287.863029307913
 20
33.82593885855284
 30
0.0
 11
287.863029307913
 21
34.15067359140019
 31
0.0
  0
LINE
  5
488
330
47A
100
AcDbEntity
  8
0
 62
     0
100
AcDbLine
 10
288.0130293079131
 20
33.82593885855284
 30
0.0
 11
288.0130293079131
 21
34.15067359140019
 31
0.0
  0
LINE
  5
489
330
47A
100
AcDbEntity
  8
0
 62
     0
100
AcDbLine
 10
288.193029307913
 20
33.97067359140019
 30
0.0
 11
288.3730293079131
 21
33.97067359140019
 31
0.0
  0
LINE
  5
48A
330
47A
100
AcDbEntity
  8
0
 62
     0
100
AcDbLine
 10
287.6830293079131
 20
33.97067359140019
 30
0.0
 11
287.5030293079131
 21
33.97067359140019
 31
0.0
  0
SOLID
  5
48B
330
47A
100
AcDbEntity
  8
0
 62
     0
100
AcDbTrace
 10
288.193029307913
 20
34.00067359140019
 30
0.0
 11
288.193029307913
 21
33.94067359140019
 31
0.0
 12
288.0130293079131
 22
33.97067359140019
 32
0.0
 13
288.0130293079131
 23
33.97067359140019
 33
0.0
  0
SOLID
  5
48C
330
47A
100
AcDbEntity
  8
0
 62
     0
100
AcDbTrace
 10
287.6830293079131
 20
34.00067359140019
 30
0.0
 11
287.6830293079131
 21
33.94067359140019
 31
0.0
 12
287.863029307913
 22
33.97067359140019
 32
0.0
 13
287.863029307913
 23
33.97067359140019
 33
0.0
  0
MTEXT
  5
48D
330
47A
100
AcDbEntity
  8
0
 62
     0
100
AcDbMText
 10
287.1880293079131
 20
33.97067359140019
 30
0.0
 40
0.18
 41
0.0
 71
     5
 72
     1
  1
\A1;0.15
1001
ACAD
1000
MTEXTBEGIN
1070
    73
1070
     1
1070
    44
1040
1.0
1070
    74
1070
     0
1000
MTEXTEND
1000
MTEXTBEGIN
1070
    73
1070
     1
1070
    44
1040
1.0
1070
    74
1070
     0
1000
MTEXTEND
1000
MTEXTBEGIN
1070
    73
1070
     1
1070
    44
1040
1.0
1070
    74
1070
     0
1000
MTEXTEND
1000
MTEXTBEGIN
1070
    73
1070
     1
1070
    44
1040
1.0
1070
    74
1070
     0
1000
MTEXTEND
  0
POINT
  5
48E
330
47A
100
AcDbEntity
  8
DEFPOINTS
 62
     0
100
AcDbPoint
 10
287.863029307913
 20
33.76343885855284
 30
0.0
  0
POINT
  5
48F
330
47A
100
AcDbEntity
  8
DEFPOINTS
 62
     0
100
AcDbPoint
 10
288.0130293079131
 20
33.76343885855284
 30
0.0
  0
POINT
  5
490
330
47A
100
AcDbEntity
  8
DEFPOINTS
 62
     0
100
AcDbPoint
 10
288.0130293079131
 20
33.97067359140019
 30
0.0
  0
ENDBLK
  5
486
330
47A
100
AcDbEntity
  8
0
100
AcDbBlockEnd
  0
BLOCK
  5
49D
330
492
100
AcDbEntity
  8
0
100
AcDbBlockBegin
  2
*D12
 70
     1
 10
0.0
 20
0.0
 30
0.0
  3
*D12
  1

  0
LINE
  5
493
330
492
100
AcDbEntity
  8
0
 62
     0
100
AcDbLine
 10
288.0130293079131
 20
33.58093885855284
 30
0.0
 11
288.0130293079131
 21
33.06768293023646
 31
0.0
  0
LINE
  5
494
330
492
100
AcDbEntity
  8
0
 62
     0
100
AcDbLine
 10
288.8130293079131
 20
33.58093885855284
 30
0.0
 11
288.8130293079131
 21
33.06768293023646
 31
0.0
  0
LINE
  5
495
330
492
100
AcDbEntity
  8
0
 62
     0
100
AcDbLine
 10
287.833029307913
 20
33.24768293023645
 30
0.0
 11
287.6530293079131
 21
33.24768293023645
 31
0.0
  0
LINE
  5
496
330
492
100
AcDbEntity
  8
0
 62
     0
100
AcDbLine
 10
288.9930293079131
 20
33.24768293023645
 30
0.0
 11
289.1730293079131
 21
33.24768293023645
 31
0.0
  0
SOLID
  5
497
330
492
100
AcDbEntity
  8
0
 62
     0
100
AcDbTrace
 10
287.833029307913
 20
33.27768293023646
 30
0.0
 11
287.833029307913
 21
33.21768293023647
 31
0.0
 12
288.0130293079131
 22
33.24768293023645
 32
0.0
 13
288.0130293079131
 23
33.24768293023645
 33
0.0
  0
SOLID
  5
498
330
492
100
AcDbEntity
  8
0
 62
     0
100
AcDbTrace
 10
288.9930293079131
 20
33.27768293023646
 30
0.0
 11
288.9930293079131
 21
33.21768293023647
 31
0.0
 12
288.8130293079131
 22
33.24768293023645
 32
0.0
 13
288.8130293079131
 23
33.24768293023645
 33
0.0
  0
MTEXT
  5
499
330
492
100
AcDbEntity
  8
0
 62
     0
100
AcDbMText
 10
288.4130293079131
 20
33.24768293023645
 30
0.0
 40
0.18
 41
0.0
 71
     5
 72
     1
  1
\A1;0.80
1001
ACAD
1000
MTEXTBEGIN
1070
    73
1070
     1
1070
    44
1040
1.0
1070
    74
1070
     0
1000
MTEXTEND
1000
MTEXTBEGIN
1070
    73
1070
     1
1070
    44
1040
1.0
1070
    74
1070
     0
1000
MTEXTEND
1000
MTEXTBEGIN
1070
    73
1070
     1
1070
    44
1040
1.0
1070
    74
1070
     0
1000
MTEXTEND
1000
MTEXTBEGIN
1070
    73
1070
     1
1070
    44
1040
1.0
1070
    74
1070
     0
1000
MTEXTEND
  0
POINT
  5
49A
330
492
100
AcDbEntity
  8
DEFPOINTS
 62
     0
100
AcDbPoint
 10
288.0130293079131
 20
33.64343885855284
 30
0.0
  0
POINT
  5
49B
330
492
100
AcDbEntity
  8
DEFPOINTS
 62
     0
100
AcDbPoint
 10
288.8130293079131
 20
33.64343885855284
 30
0.0
  0
POINT
  5
49C
330
492
100
AcDbEntity
  8
DEFPOINTS
 62
     0
100
AcDbPoint
 10
288.8130293079131
 20
33.24768293023645
 30
0.0
  0
ENDBLK
  5
49E
330
492
100
AcDbEntity
  8
0
100
AcDbBlockEnd
  0
BLOCK
  5
4AC
330
4A0
100
AcDbEntity
  8
0
100
AcDbBlockBegin
  2
*D13
 70
     1
 10
0.0
 20
0.0
 30
0.0
  3
*D13
  1

  0
LINE
  5
4C4
330
4A0
100
AcDbEntity
  8
0
 62
     0
100
AcDbLine
 10
287.9255293079131
 20
33.76343885855284
 30
0.0
 11
288.5549170220763
 21
33.76343885855284
 31
0.0
  0
LINE
  5
4C5
330
4A0
100
AcDbEntity
  8
0
 62
     0
100
AcDbLine
 10
287.9255293079131
 20
33.64343885855284
 30
0.0
 11
288.5549170220763
 21
33.64343885855284
 31
0.0
  0
LINE
  5
4C6
330
4A0
100
AcDbEntity
  8
0
 62
     0
100
AcDbLine
 10
288.3749170220763
 20
33.46343885855285
 30
0.0
 11
288.3749170220763
 21
33.28343885855284
 31
0.0
  0
LINE
  5
4C7
330
4A0
100
AcDbEntity
  8
0
 62
     0
100
AcDbLine
 10
288.3749170220763
 20
33.94343885855284
 30
0.0
 11
288.3749170220763
 21
34.12343885855284
 31
0.0
  0
LINE
  5
4C8
330
4A0
100
AcDbEntity
  8
0
 62
     0
100
AcDbLine
 10
288.3749170220763
 20
34.12343885855284
 30
0.0
 11
288.5549170220763
 21
34.12343885855284
 31
0.0
  0
SOLID
  5
4C9
330
4A0
100
AcDbEntity
  8
0
 62
     0
100
AcDbTrace
 10
288.3449170220761
 20
33.46343885855285
 30
0.0
 11
288.4049170220762
 21
33.46343885855285
 31
0.0
 12
288.3749170220763
 22
33.64343885855284
 32
0.0
 13
288.3749170220763
 23
33.64343885855284
 33
0.0
  0
SOLID
  5
4CA
330
4A0
100
AcDbEntity
  8
0
 62
     0
100
AcDbTrace
 10
288.3449170220761
 20
33.94343885855284
 30
0.0
 11
288.4049170220762
 21
33.94343885855284
 31
0.0
 12
288.3749170220763
 22
33.76343885855284
 32
0.0
 13
288.3749170220763
 23
33.76343885855284
 33
0.0
  0
MTEXT
  5
4CB
330
4A0
100
AcDbEntity
  8
0
 62
     0
100
AcDbMText
 10
288.8699170220763
 20
34.12343885855289
 30
0.0
 40
0.18
 41
0.0
 71
     5
 72
     1
  1
\A1;0.12
1001
ACAD
1000
MTEXTBEGIN
1070
    73
1070
     1
1070
    44
1040
1.0
1070
    74
1070
     0
1000
MTEXTEND
1000
MTEXTBEGIN
1070
    73
1070
     1
1070
    44
1040
1.0
1070
    74
1070
     0
1000
MTEXTEND
1000
MTEXTBEGIN
1070
    73
1070
     1
1070
    44
1040
1.0
1070
    74
1070
     0
1000
MTEXTEND
1000
MTEXTBEGIN
1070
    73
1070
     1
1070
    44
1040
1.0
1070
    74
1070
     0
1000
MTEXTEND
  0
POINT
  5
4CC
330
4A0
100
AcDbEntity
  8
DEFPOINTS
 62
     0
100
AcDbPoint
 10
287.863029307913
 20
33.76343885855284
 30
0.0
  0
POINT
  5
4CD
330
4A0
100
AcDbEntity
  8
DEFPOINTS
 62
     0
100
AcDbPoint
 10
287.863029307913
 20
33.64343885855284
 30
0.0
  0
POINT
  5
4CE
330
4A0
100
AcDbEntity
  8
DEFPOINTS
 62
     0
100
AcDbPoint
 10
288.3749170220763
 20
33.64343885855284
 30
0.0
  0
ENDBLK
  5
4AD
330
4A0
100
AcDbEntity
  8
0
100
AcDbBlockEnd
  0
BLOCK
  5
54F
330
544
100
AcDbEntity
  8
0
100
AcDbBlockBegin
  2
*D14
 70
     1
 10
0.0
 20
0.0
 30
0.0
  3
*D14
  1

  0
LINE
  5
610
330
544
100
AcDbEntity
  8
0
 62
     0
100
AcDbLine
 10
284.4029107356923
 20
38.2823605416882
 30
0.0
 11
284.4029107356923
 21
38.76358088626204
 31
0.0
  0
LINE
  5
611
330
544
100
AcDbEntity
  8
0
 62
     0
100
AcDbLine
 10
288.6029107356923
 20
38.2823605416882
 30
0.0
 11
288.6029107356923
 21
38.76358088626204
 31
0.0
  0
LINE
  5
612
330
544
100
AcDbEntity
  8
0
 62
     0
100
AcDbLine
 10
284.5829107356923
 20
38.58358088626204
 30
0.0
 11
286.1579107356923
 21
38.58358088626204
 31
0.0
  0
LINE
  5
613
330
544
100
AcDbEntity
  8
0
 62
     0
100
AcDbLine
 10
288.4229107356923
 20
38.58358088626204
 30
0.0
 11
286.8479107356924
 21
38.58358088626204
 31
0.0
  0
SOLID
  5
614
330
544
100
AcDbEntity
  8
0
 62
     0
100
AcDbTrace
 10
284.5829107356923
 20
38.61358088626204
 30
0.0
 11
284.5829107356923
 21
38.55358088626203
 31
0.0
 12
284.4029107356923
 22
38.58358088626204
 32
0.0
 13
284.4029107356923
 23
38.58358088626204
 33
0.0
  0
SOLID
  5
615
330
544
100
AcDbEntity
  8
0
 62
     0
100
AcDbTrace
 10
288.4229107356923
 20
38.61358088626204
 30
0.0
 11
288.4229107356923
 21
38.55358088626203
 31
0.0
 12
288.6029107356923
 22
38.58358088626204
 32
0.0
 13
288.6029107356923
 23
38.58358088626204
 33
0.0
  0
MTEXT
  5
616
330
544
100
AcDbEntity
  8
0
 62
     0
100
AcDbMText
 10
286.5029107356923
 20
38.58358088626204
 30
0.0
 40
0.18
 41
0.0
 71
     5
 72
     1
  1
\A1;4.20
1001
ACAD
1000
MTEXTBEGIN
1070
    73
1070
     1
1070
    44
1040
1.0
1070
    74
1070
     0
1000
MTEXTEND
1000
MTEXTBEGIN
1070
    73
1070
     1
1070
    44
1040
1.0
1070
    74
1070
     0
1000
MTEXTEND
1000
MTEXTBEGIN
1070
    73
1070
     1
1070
    44
1040
1.0
1070
    74
1070
     0
1000
MTEXTEND
  0
POINT
  5
617
330
544
100
AcDbEntity
  8
DEFPOINTS
 62
     0
100
AcDbPoint
 10
284.4029107356923
 20
38.2198605416882
 30
0.0
  0
POINT
  5
618
330
544
100
AcDbEntity
  8
DEFPOINTS
 62
     0
100
AcDbPoint
 10
288.6029107356923
 20
38.2198605416882
 30
0.0
  0
POINT
  5
619
330
544
100
AcDbEntity
  8
DEFPOINTS
 62
     0
100
AcDbPoint
 10
288.6029107356923
 20
38.58358088626204
 30
0.0
  0
ENDBLK
  5
550
330
544
100
AcDbEntity
  8
0
100
AcDbBlockEnd
  0
BLOCK
  5
55D
330
552
100
AcDbEntity
  8
0
100
AcDbBlockBegin
  2
*D15
 70
     1
 10
0.0
 20
0.0
 30
0.0
  3
*D15
  1

  0
LINE
  5
61A
330
552
100
AcDbEntity
  8
0
 62
     0
100
AcDbLine
 10
284.3404107356923
 20
38.2198605416882
 30
0.0
 11
283.7959544523398
 21
38.2198605416882
 31
0.0
  0
LINE
  5
61B
330
552
100
AcDbEntity
  8
0
 62
     0
100
AcDbLine
 10
284.3404107356923
 20
36.9198605416882
 30
0.0
 11
283.7959544523398
 21
36.9198605416882
 31
0.0
  0
LINE
  5
61C
330
552
100
AcDbEntity
  8
0
 62
     0
100
AcDbLine
 10
283.9759544523401
 20
38.0398605416882
 30
0.0
 11
283.9759544523401
 21
37.7498605416882
 31
0.0
  0
LINE
  5
61D
330
552
100
AcDbEntity
  8
0
 62
     0
100
AcDbLine
 10
283.9759544523401
 20
37.09986054168821
 30
0.0
 11
283.9759544523401
 21
37.38986054168821
 31
0.0
  0
SOLID
  5
61E
330
552
100
AcDbEntity
  8
0
 62
     0
100
AcDbTrace
 10
283.9459544523401
 20
38.0398605416882
 30
0.0
 11
284.0059544523398
 21
38.0398605416882
 31
0.0
 12
283.9759544523401
 22
38.2198605416882
 32
0.0
 13
283.9759544523401
 23
38.2198605416882
 33
0.0
  0
SOLID
  5
61F
330
552
100
AcDbEntity
  8
0
 62
     0
100
AcDbTrace
 10
283.9459544523401
 20
37.09986054168821
 30
0.0
 11
284.0059544523398
 21
37.09986054168821
 31
0.0
 12
283.9759544523401
 22
36.9198605416882
 32
0.0
 13
283.9759544523401
 23
36.9198605416882
 33
0.0
  0
MTEXT
  5
620
330
552
100
AcDbEntity
  8
0
 62
     0
100
AcDbMText
 10
283.9759544523401
 20
37.56986054168825
 30
0.0
 40
0.18
 41
0.0
 71
     5
 72
     1
  1
\A1;1.30
1001
ACAD
1000
MTEXTBEGIN
1070
    73
1070
     1
1070
    44
1040
1.0
1070
    74
1070
     0
1000
MTEXTEND
1000
MTEXTBEGIN
1070
    73
1070
     1
1070
    44
1040
1.0
1070
    74
1070
     0
1000
MTEXTEND
1000
MTEXTBEGIN
1070
    73
1070
     1
1070
    44
1040
1.0
1070
    74
1070
     0
1000
MTEXTEND
  0
POINT
  5
621
330
552
100
AcDbEntity
  8
DEFPOINTS
 62
     0
100
AcDbPoint
 10
284.4029107356923
 20
38.2198605416882
 30
0.0
  0
POINT
  5
622
330
552
100
AcDbEntity
  8
DEFPOINTS
 62
     0
100
AcDbPoint
 10
284.4029107356923
 20
36.9198605416882
 30
0.0
  0
POINT
  5
623
330
552
100
AcDbEntity
  8
DEFPOINTS
 62
     0
100
AcDbPoint
 10
283.9759544523401
 20
36.9198605416882
 30
0.0
  0
ENDBLK
  5
55E
330
552
100
AcDbEntity
  8
0
100
AcDbBlockEnd
  0
BLOCK
  5
56B
330
560
100
AcDbEntity
  8
0
100
AcDbBlockBegin
  2
*D16
 70
     1
 10
0.0
 20
0.0
 30
0.0
  3
*D16
  1

  0
LINE
  5
5FC
330
560
100
AcDbEntity
  8
0
 62
     0
100
AcDbLine
 10
286.3029107356922
 20
36.8573605416882
 30
0.0
 11
286.3029107356922
 21
36.41679468922449
 31
0.0
  0
LINE
  5
5FD
330
560
100
AcDbEntity
  8
0
 62
     0
100
AcDbLine
 10
286.7029107356923
 20
36.8573605416882
 30
0.0
 11
286.7029107356923
 21
36.41679468922449
 31
0.0
  0
LINE
  5
5FE
330
560
100
AcDbEntity
  8
0
 62
     0
100
AcDbLine
 10
286.8829107356923
 20
36.59679468922447
 30
0.0
 11
287.0629107356923
 21
36.59679468922447
 31
0.0
  0
LINE
  5
5FF
330
560
100
AcDbEntity
  8
0
 62
     0
100
AcDbLine
 10
286.1229107356923
 20
36.59679468922447
 30
0.0
 11
285.9429107356923
 21
36.59679468922447
 31
0.0
  0
SOLID
  5
600
330
560
100
AcDbEntity
  8
0
 62
     0
100
AcDbTrace
 10
286.8829107356923
 20
36.62679468922449
 30
0.0
 11
286.8829107356923
 21
36.56679468922449
 31
0.0
 12
286.7029107356923
 22
36.59679468922447
 32
0.0
 13
286.7029107356923
 23
36.59679468922447
 33
0.0
  0
SOLID
  5
601
330
560
100
AcDbEntity
  8
0
 62
     0
100
AcDbTrace
 10
286.1229107356923
 20
36.62679468922449
 30
0.0
 11
286.1229107356923
 21
36.56679468922449
 31
0.0
 12
286.3029107356922
 22
36.59679468922447
 32
0.0
 13
286.3029107356922
 23
36.59679468922447
 33
0.0
  0
MTEXT
  5
602
330
560
100
AcDbEntity
  8
0
 62
     0
100
AcDbMText
 10
285.6129107356924
 20
36.59679468922447
 30
0.0
 40
0.18
 41
0.0
 71
     5
 72
     1
  1
\A1;0.40
1001
ACAD
1000
MTEXTBEGIN
1070
    73
1070
     1
1070
    44
1040
1.0
1070
    74
1070
     0
1000
MTEXTEND
1000
MTEXTBEGIN
1070
    73
1070
     1
1070
    44
1040
1.0
1070
    74
1070
     0
1000
MTEXTEND
1000
MTEXTBEGIN
1070
    73
1070
     1
1070
    44
1040
1.0
1070
    74
1070
     0
1000
MTEXTEND
  0
POINT
  5
603
330
560
100
AcDbEntity
  8
DEFPOINTS
 62
     0
100
AcDbPoint
 10
286.3029107356922
 20
36.9198605416882
 30
0.0
  0
POINT
  5
604
330
560
100
AcDbEntity
  8
DEFPOINTS
 62
     0
100
AcDbPoint
 10
286.7029107356923
 20
36.9198605416882
 30
0.0
  0
POINT
  5
605
330
560
100
AcDbEntity
  8
DEFPOINTS
 62
     0
100
AcDbPoint
 10
286.7029107356923
 20
36.59679468922447
 30
0.0
  0
ENDBLK
  5
56C
330
560
100
AcDbEntity
  8
0
100
AcDbBlockEnd
  0
BLOCK
  5
583
330
578
100
AcDbEntity
  8
0
100
AcDbBlockBegin
  2
*D17
 70
     1
 10
0.0
 20
0.0
 30
0.0
  3
*D17
  1

  0
LINE
  5
5F2
330
578
100
AcDbEntity
  8
0
 62
     0
100
AcDbLine
 10
286.7654107356923
 20
37.06986054168821
 30
0.0
 11
287.1022310337501
 21
37.06986054168821
 31
0.0
  0
LINE
  5
5F3
330
578
100
AcDbEntity
  8
0
 62
     0
100
AcDbLine
 10
286.7654107356923
 20
38.2198605416882
 30
0.0
 11
287.1022310337501
 21
38.2198605416882
 31
0.0
  0
LINE
  5
5F4
330
578
100
AcDbEntity
  8
0
 62
     0
100
AcDbLine
 10
286.9222310337501
 20
37.2498605416882
 30
0.0
 11
286.9222310337501
 21
37.46486054168821
 31
0.0
  0
LINE
  5
5F5
330
578
100
AcDbEntity
  8
0
 62
     0
100
AcDbLine
 10
286.9222310337501
 20
38.0398605416882
 30
0.0
 11
286.9222310337501
 21
37.8248605416882
 31
0.0
  0
SOLID
  5
5F6
330
578
100
AcDbEntity
  8
0
 62
     0
100
AcDbTrace
 10
286.8922310337503
 20
37.2498605416882
 30
0.0
 11
286.9522310337503
 21
37.2498605416882
 31
0.0
 12
286.9222310337501
 22
37.06986054168821
 32
0.0
 13
286.9222310337501
 23
37.06986054168821
 33
0.0
  0
SOLID
  5
5F7
330
578
100
AcDbEntity
  8
0
 62
     0
100
AcDbTrace
 10
286.8922310337503
 20
38.0398605416882
 30
0.0
 11
286.9522310337503
 21
38.0398605416882
 31
0.0
 12
286.9222310337501
 22
38.2198605416882
 32
0.0
 13
286.9222310337501
 23
38.2198605416882
 33
0.0
  0
MTEXT
  5
5F8
330
578
100
AcDbEntity
  8
0
 62
     0
100
AcDbMText
 10
286.9222310337501
 20
37.64486054168825
 30
0.0
 40
0.18
 41
0.0
 71
     5
 72
     1
  1
\A1;1.15
1001
ACAD
1000
MTEXTBEGIN
1070
    73
1070
     1
1070
    44
1040
1.0
1070
    74
1070
     0
1000
MTEXTEND
1000
MTEXTBEGIN
1070
    73
1070
     1
1070
    44
1040
1.0
1070
    74
1070
     0
1000
MTEXTEND
1000
MTEXTBEGIN
1070
    73
1070
     1
1070
    44
1040
1.0
1070
    74
1070
     0
1000
MTEXTEND
  0
POINT
  5
5F9
330
578
100
AcDbEntity
  8
DEFPOINTS
 62
     0
100
AcDbPoint
 10
286.7029107356923
 20
37.06986054168821
 30
0.0
  0
POINT
  5
5FA
330
578
100
AcDbEntity
  8
DEFPOINTS
 62
     0
100
AcDbPoint
 10
286.7029107356923
 20
38.2198605416882
 30
0.0
  0
POINT
  5
5FB
330
578
100
AcDbEntity
  8
DEFPOINTS
 62
     0
100
AcDbPoint
 10
286.9222310337501
 20
38.2198605416882
 30
0.0
  0
ENDBLK
  5
584
330
578
100
AcDbEntity
  8
0
100
AcDbBlockEnd
  0
BLOCK
  5
592
330
586
100
AcDbEntity
  8
0
100
AcDbBlockBegin
  2
*D18
 70
     1
 10
0.0
 20
0.0
 30
0.0
  3
*D18
  1

  0
LINE
  5
606
330
586
100
AcDbEntity
  8
0
 62
     0
100
AcDbLine
 10
286.7654107356923
 20
37.06986054168821
 30
0.0
 11
287.1022310337501
 21
37.06986054168821
 31
0.0
  0
LINE
  5
607
330
586
100
AcDbEntity
  8
0
 62
     0
100
AcDbLine
 10
286.7654107356923
 20
36.9198605416882
 30
0.0
 11
287.1022310337501
 21
36.9198605416882
 31
0.0
  0
LINE
  5
608
330
586
100
AcDbEntity
  8
0
 62
     0
100
AcDbLine
 10
286.9222310337501
 20
37.2498605416882
 30
0.0
 11
286.9222310337501
 21
37.4298605416882
 31
0.0
  0
LINE
  5
609
330
586
100
AcDbEntity
  8
0
 62
     0
100
AcDbLine
 10
286.9222310337501
 20
36.73986054168821
 30
0.0
 11
286.9222310337501
 21
36.5598605416882
 31
0.0
  0
SOLID
  5
60A
330
586
100
AcDbEntity
  8
0
 62
     0
100
AcDbTrace
 10
286.8922310337503
 20
37.2498605416882
 30
0.0
 11
286.9522310337503
 21
37.2498605416882
 31
0.0
 12
286.9222310337501
 22
37.06986054168821
 32
0.0
 13
286.9222310337501
 23
37.06986054168821
 33
0.0
  0
SOLID
  5
60B
330
586
100
AcDbEntity
  8
0
 62
     0
100
AcDbTrace
 10
286.8922310337503
 20
36.73986054168821
 30
0.0
 11
286.9522310337503
 21
36.73986054168821
 31
0.0
 12
286.9222310337501
 22
36.9198605416882
 32
0.0
 13
286.9222310337501
 23
36.9198605416882
 33
0.0
  0
MTEXT
  5
60C
330
586
100
AcDbEntity
  8
0
 62
     0
100
AcDbMText
 10
286.9222310337501
 20
36.99486054168825
 30
0.0
 40
0.18
 41
0.0
 71
     5
 72
     1
  1
\A1;0.15
1001
ACAD
1000
MTEXTBEGIN
1070
    73
1070
     1
1070
    44
1040
1.0
1070
    74
1070
     0
1000
MTEXTEND
1000
MTEXTBEGIN
1070
    73
1070
     1
1070
    44
1040
1.0
1070
    74
1070
     0
1000
MTEXTEND
1000
MTEXTBEGIN
1070
    73
1070
     1
1070
    44
1040
1.0
1070
    74
1070
     0
1000
MTEXTEND
  0
POINT
  5
60D
330
586
100
AcDbEntity
  8
DEFPOINTS
 62
     0
100
AcDbPoint
 10
286.7029107356923
 20
37.06986054168821
 30
0.0
  0
POINT
  5
60E
330
586
100
AcDbEntity
  8
DEFPOINTS
 62
     0
100
AcDbPoint
 10
286.7029107356923
 20
36.9198605416882
 30
0.0
  0
POINT
  5
60F
330
586
100
AcDbEntity
  8
DEFPOINTS
 62
     0
100
AcDbPoint
 10
286.9222310337501
 20
36.9198605416882
 30
0.0
  0
ENDBLK
  5
593
330
586
100
AcDbEntity
  8
0
100
AcDbBlockEnd
  0
BLOCK
  5
6D1
330
6C6
100
AcDbEntity
  8
0
100
AcDbBlockBegin
  2
*D19
 70
     1
 10
0.0
 20
0.0
 30
0.0
  3
*D19
  1

  0
LINE
  5
6C7
330
6C6
100
AcDbEntity
  8
0
 62
     0
100
AcDbLine
 10
284.9512298758664
 20
37.34134145089303
 30
0.0
 11
284.9512298758664
 21
37.75989762285703
 31
0.0
  0
LINE
  5
6C8
330
6C6
100
AcDbEntity
  8
0
 62
     0
100
AcDbLine
 10
288.0512298758665
 20
37.34134145089303
 30
0.0
 11
288.0512298758665
 21
37.75989762285703
 31
0.0
  0
LINE
  5
6C9
330
6C6
100
AcDbEntity
  8
0
 62
     0
100
AcDbLine
 10
285.1312298758664
 20
37.57989762285705
 30
0.0
 11
286.1862298758665
 21
37.57989762285705
 31
0.0
  0
LINE
  5
6CA
330
6C6
100
AcDbEntity
  8
0
 62
     0
100
AcDbLine
 10
287.8712298758665
 20
37.57989762285705
 30
0.0
 11
286.8162298758665
 21
37.57989762285705
 31
0.0
  0
SOLID
  5
6CB
330
6C6
100
AcDbEntity
  8
0
 62
     0
100
AcDbTrace
 10
285.1312298758664
 20
37.60989762285705
 30
0.0
 11
285.1312298758664
 21
37.54989762285704
 31
0.0
 12
284.9512298758664
 22
37.57989762285705
 32
0.0
 13
284.9512298758664
 23
37.57989762285705
 33
0.0
  0
SOLID
  5
6CC
330
6C6
100
AcDbEntity
  8
0
 62
     0
100
AcDbTrace
 10
287.8712298758665
 20
37.60989762285705
 30
0.0
 11
287.8712298758665
 21
37.54989762285704
 31
0.0
 12
288.0512298758665
 22
37.57989762285705
 32
0.0
 13
288.0512298758665
 23
37.57989762285705
 33
0.0
  0
MTEXT
  5
6CD
330
6C6
100
AcDbEntity
  8
0
 62
     0
100
AcDbMText
 10
286.5012298758665
 20
37.57989762285705
 30
0.0
 40
0.18
 41
0.0
 71
     5
 72
     1
  1
\A1;3.10
1001
ACAD
1000
MTEXTBEGIN
1070
    73
1070
     1
1070
    44
1040
1.0
1070
    74
1070
     0
1000
MTEXTEND
1000
MTEXTBEGIN
1070
    73
1070
     1
1070
    44
1040
1.0
1070
    74
1070
     0
1000
MTEXTEND
  0
POINT
  5
6CE
330
6C6
100
AcDbEntity
  8
DEFPOINTS
 62
     0
100
AcDbPoint
 10
284.9512298758664
 20
37.27884145089303
 30
0.0
  0
POINT
  5
6CF
330
6C6
100
AcDbEntity
  8
DEFPOINTS
 62
     0
100
AcDbPoint
 10
288.0512298758665
 20
37.27884145089303
 30
0.0
  0
POINT
  5
6D0
330
6C6
100
AcDbEntity
  8
DEFPOINTS
 62
     0
100
AcDbPoint
 10
288.0512298758665
 20
37.57989762285705
 30
0.0
  0
ENDBLK
  5
6D2
330
6C6
100
AcDbEntity
  8
0
100
AcDbBlockEnd
  0
BLOCK
  5
6DF
330
6D4
100
AcDbEntity
  8
0
100
AcDbBlockBegin
  2
*D20
 70
     1
 10
0.0
 20
0.0
 30
0.0
  3
*D20
  1

  0
LINE
  5
6D5
330
6D4
100
AcDbEntity
  8
0
 62
     0
100
AcDbLine
 10
284.8887298758664
 20
37.27884145089303
 30
0.0
 11
284.1807548644244
 21
37.27884145089303
 31
0.0
  0
LINE
  5
6D6
330
6D4
100
AcDbEntity
  8
0
 62
     0
100
AcDbLine
 10
284.8887298758664
 20
33.77884145089303
 30
0.0
 11
284.1807548644244
 21
33.77884145089303
 31
0.0
  0
LINE
  5
6D7
330
6D4
100
AcDbEntity
  8
0
 62
     0
100
AcDbLine
 10
284.3607548644243
 20
37.09884145089303
 30
0.0
 11
284.3607548644243
 21
35.70884145089303
 31
0.0
  0
LINE
  5
6D8
330
6D4
100
AcDbEntity
  8
0
 62
     0
100
AcDbLine
 10
284.3607548644243
 20
33.95884145089303
 30
0.0
 11
284.3607548644243
 21
35.34884145089303
 31
0.0
  0
SOLID
  5
6D9
330
6D4
100
AcDbEntity
  8
0
 62
     0
100
AcDbTrace
 10
284.3307548644243
 20
37.09884145089303
 30
0.0
 11
284.3907548644243
 21
37.09884145089303
 31
0.0
 12
284.3607548644243
 22
37.27884145089303
 32
0.0
 13
284.3607548644243
 23
37.27884145089303
 33
0.0
  0
SOLID
  5
6DA
330
6D4
100
AcDbEntity
  8
0
 62
     0
100
AcDbTrace
 10
284.3307548644243
 20
33.95884145089303
 30
0.0
 11
284.3907548644243
 21
33.95884145089303
 31
0.0
 12
284.3607548644243
 22
33.77884145089303
 32
0.0
 13
284.3607548644243
 23
33.77884145089303
 33
0.0
  0
MTEXT
  5
6DB
330
6D4
100
AcDbEntity
  8
0
 62
     0
100
AcDbMText
 10
284.3607548644243
 20
35.52884145089307
 30
0.0
 40
0.18
 41
0.0
 71
     5
 72
     1
  1
\A1;3.50
1001
ACAD
1000
MTEXTBEGIN
1070
    73
1070
     1
1070
    44
1040
1.0
1070
    74
1070
     0
1000
MTEXTEND
1000
MTEXTBEGIN
1070
    73
1070
     1
1070
    44
1040
1.0
1070
    74
1070
     0
1000
MTEXTEND
  0
POINT
  5
6DC
330
6D4
100
AcDbEntity
  8
DEFPOINTS
 62
     0
100
AcDbPoint
 10
284.9512298758664
 20
37.27884145089303
 30
0.0
  0
POINT
  5
6DD
330
6D4
100
AcDbEntity
  8
DEFPOINTS
 62
     0
100
AcDbPoint
 10
284.9512298758664
 20
33.77884145089303
 30
0.0
  0
POINT
  5
6DE
330
6D4
100
AcDbEntity
  8
DEFPOINTS
 62
     0
100
AcDbPoint
 10
284.3607548644243
 20
33.77884145089303
 30
0.0
  0
ENDBLK
  5
6E0
330
6D4
100
AcDbEntity
  8
0
100
AcDbBlockEnd
  0
BLOCK
  5
6ED
330
6E2
100
AcDbEntity
  8
0
100
AcDbBlockBegin
  2
*D21
 70
     1
 10
0.0
 20
0.0
 30
0.0
  3
*D21
  1

  0
LINE
  5
755
330
6E2
100
AcDbEntity
  8
0
 62
     0
100
AcDbLine
 10
288.1137298758665
 20
37.27884145089303
 30
0.0
 11
288.9455143065818
 21
37.27884145089303
 31
0.0
  0
LINE
  5
756
330
6E2
100
AcDbEntity
  8
0
 62
     0
100
AcDbLine
 10
288.1137298758665
 20
33.77884145089303
 30
0.0
 11
288.9455143065818
 21
33.77884145089303
 31
0.0
  0
LINE
  5
757
330
6E2
100
AcDbEntity
  8
0
 62
     0
100
AcDbLine
 10
288.7655143065819
 20
37.09884145089303
 30
0.0
 11
288.7655143065819
 21
35.70884145089302
 31
0.0
  0
LINE
  5
758
330
6E2
100
AcDbEntity
  8
0
 62
     0
100
AcDbLine
 10
288.7655143065819
 20
33.95884145089303
 30
0.0
 11
288.7655143065819
 21
35.34884145089302
 31
0.0
  0
SOLID
  5
759
330
6E2
100
AcDbEntity
  8
0
 62
     0
100
AcDbTrace
 10
288.7355143065819
 20
37.09884145089303
 30
0.0
 11
288.7955143065818
 21
37.09884145089303
 31
0.0
 12
288.7655143065819
 22
37.27884145089303
 32
0.0
 13
288.7655143065819
 23
37.27884145089303
 33
0.0
  0
SOLID
  5
75A
330
6E2
100
AcDbEntity
  8
0
 62
     0
100
AcDbTrace
 10
288.7355143065819
 20
33.95884145089303
 30
0.0
 11
288.7955143065818
 21
33.95884145089303
 31
0.0
 12
288.7655143065819
 22
33.77884145089303
 32
0.0
 13
288.7655143065819
 23
33.77884145089303
 33
0.0
  0
MTEXT
  5
75B
330
6E2
100
AcDbEntity
  8
0
 62
     0
100
AcDbMText
 10
288.7655143065819
 20
35.52884145089307
 30
0.0
 40
0.18
 41
0.0
 71
     5
 72
     1
  1
\A1;3.50
1001
ACAD
1000
MTEXTBEGIN
1070
    73
1070
     1
1070
    44
1040
1.0
1070
    74
1070
     0
1000
MTEXTEND
  0
POINT
  5
75C
330
6E2
100
AcDbEntity
  8
DEFPOINTS
 62
     0
100
AcDbPoint
 10
288.0512298758665
 20
37.27884145089303
 30
0.0
  0
POINT
  5
75D
330
6E2
100
AcDbEntity
  8
DEFPOINTS
 62
     0
100
AcDbPoint
 10
288.0512298758665
 20
33.77884145089303
 30
0.0
  0
POINT
  5
75E
330
6E2
100
AcDbEntity
  8
DEFPOINTS
 62
     0
100
AcDbPoint
 10
288.7655143065819
 20
33.77884145089303
 30
0.0
  0
ENDBLK
  5
6EE
330
6E2
100
AcDbEntity
  8
0
100
AcDbBlockEnd
  0
BLOCK
  5
6FC
330
6F0
100
AcDbEntity
  8
0
100
AcDbBlockBegin
  2
*D22
 70
     1
 10
0.0
 20
0.0
 30
0.0
  3
*D22
  1

  0
LINE
  5
6F1
330
6F0
100
AcDbEntity
  8
0
 62
     0
100
AcDbLine
 10
288.3988498295431
 20
33.77884145089303
 30
0.0
 11
288.2813498295432
 21
33.77884145089303
 31
0.0
  0
LINE
  5
6F2
330
6F0
100
AcDbEntity
  8
0
 62
     0
100
AcDbLine
 10
286.7637298758665
 20
33.62884145089303
 30
0.0
 11
288.6413498295431
 21
33.62884145089303
 31
0.0
  0
LINE
  5
6F3
330
6F0
100
AcDbEntity
  8
0
 62
     0
100
AcDbLine
 10
288.4613498295431
 20
33.95884145089303
 30
0.0
 11
288.4613498295431
 21
34.13884145089303
 31
0.0
  0
LINE
  5
6F4
330
6F0
100
AcDbEntity
  8
0
 62
     0
100
AcDbLine
 10
288.4613498295431
 20
33.44884145089302
 30
0.0
 11
288.4613498295431
 21
33.26884145089302
 31
0.0
  0
LINE
  5
6F5
330
6F0
100
AcDbEntity
  8
0
 62
     0
100
AcDbLine
 10
288.4613498295431
 20
33.26884145089302
 30
0.0
 11
288.2813498295432
 21
33.26884145089302
 31
0.0
  0
SOLID
  5
6F6
330
6F0
100
AcDbEntity
  8
0
 62
     0
100
AcDbTrace
 10
288.4313498295432
 20
33.95884145089303
 30
0.0
 11
288.4913498295432
 21
33.95884145089303
 31
0.0
 12
288.4613498295431
 22
33.77884145089303
 32
0.0
 13
288.4613498295431
 23
33.77884145089303
 33
0.0
  0
SOLID
  5
6F7
330
6F0
100
AcDbEntity
  8
0
 62
     0
100
AcDbTrace
 10
288.4313498295432
 20
33.44884145089302
 30
0.0
 11
288.4913498295432
 21
33.44884145089302
 31
0.0
 12
288.4613498295431
 22
33.62884145089303
 32
0.0
 13
288.4613498295431
 23
33.62884145089303
 33
0.0
  0
MTEXT
  5
6F8
330
6F0
100
AcDbEntity
  8
0
 62
     0
100
AcDbMText
 10
287.9663498295431
 20
33.26884145089307
 30
0.0
 40
0.18
 41
0.0
 71
     5
 72
     1
  1
\A1;0.15
1001
ACAD
1000
MTEXTBEGIN
1070
    73
1070
     1
1070
    44
1040
1.0
1070
    74
1070
     0
1000
MTEXTEND
1000
MTEXTBEGIN
1070
    73
1070
     1
1070
    44
1040
1.0
1070
    74
1070
     0
1000
MTEXTEND
  0
POINT
  5
6F9
330
6F0
100
AcDbEntity
  8
DEFPOINTS
 62
     0
100
AcDbPoint
 10
288.4613498295431
 20
33.77884145089303
 30
0.0
  0
POINT
  5
6FA
330
6F0
100
AcDbEntity
  8
DEFPOINTS
 62
     0
100
AcDbPoint
 10
286.7012298758664
 20
33.62884145089303
 30
0.0
  0
POINT
  5
6FB
330
6F0
100
AcDbEntity
  8
DEFPOINTS
 62
     0
100
AcDbPoint
 10
288.4613498295431
 20
33.62884145089303
 30
0.0
  0
ENDBLK
  5
6FD
330
6F0
100
AcDbEntity
  8
0
100
AcDbBlockEnd
  0
BLOCK
  5
70A
330
6FF
100
AcDbEntity
  8
0
100
AcDbBlockBegin
  2
*D23
 70
     1
 10
0.0
 20
0.0
 30
0.0
  3
*D23
  1

  0
LINE
  5
700
330
6FF
100
AcDbEntity
  8
0
 62
     0
100
AcDbLine
 10
284.8887298758664
 20
37.27884145089303
 30
0.0
 11
284.3377154597798
 21
37.27884145089303
 31
0.0
  0
LINE
  5
701
330
6FF
100
AcDbEntity
  8
0
 62
     0
100
AcDbLine
 10
286.2387298758665
 20
33.62884145089303
 30
0.0
 11
284.3377154597798
 21
33.62884145089303
 31
0.0
  0
LINE
  5
702
330
6FF
100
AcDbEntity
  8
0
 62
     0
100
AcDbLine
 10
284.5177154597798
 20
37.09884145089303
 30
0.0
 11
284.5177154597798
 21
35.63384145089303
 31
0.0
  0
LINE
  5
703
330
6FF
100
AcDbEntity
  8
0
 62
     0
100
AcDbLine
 10
284.5177154597798
 20
33.80884145089302
 30
0.0
 11
284.5177154597798
 21
35.27384145089303
 31
0.0
  0
SOLID
  5
704
330
6FF
100
AcDbEntity
  8
0
 62
     0
100
AcDbTrace
 10
284.4877154597799
 20
37.09884145089303
 30
0.0
 11
284.5477154597799
 21
37.09884145089303
 31
0.0
 12
284.5177154597798
 22
37.27884145089303
 32
0.0
 13
284.5177154597798
 23
37.27884145089303
 33
0.0
  0
SOLID
  5
705
330
6FF
100
AcDbEntity
  8
0
 62
     0
100
AcDbTrace
 10
284.4877154597799
 20
33.80884145089302
 30
0.0
 11
284.5477154597799
 21
33.80884145089302
 31
0.0
 12
284.5177154597798
 22
33.62884145089303
 32
0.0
 13
284.5177154597798
 23
33.62884145089303
 33
0.0
  0
MTEXT
  5
706
330
6FF
100
AcDbEntity
  8
0
 62
     0
100
AcDbMText
 10
284.5177154597798
 20
35.45384145089306
 30
0.0
 40
0.18
 41
0.0
 71
     5
 72
     1
  1
\A1;3.65
1001
ACAD
1000
MTEXTBEGIN
1070
    73
1070
     1
1070
    44
1040
1.0
1070
    74
1070
     0
1000
MTEXTEND
1000
MTEXTBEGIN
1070
    73
1070
     1
1070
    44
1040
1.0
1070
    74
1070
     0
1000
MTEXTEND
  0
POINT
  5
707
330
6FF
100
AcDbEntity
  8
DEFPOINTS
 62
     0
100
AcDbPoint
 10
284.9512298758664
 20
37.27884145089303
 30
0.0
  0
POINT
  5
708
330
6FF
100
AcDbEntity
  8
DEFPOINTS
 62
     0
100
AcDbPoint
 10
286.3012298758665
 20
33.62884145089303
 30
0.0
  0
POINT
  5
709
330
6FF
100
AcDbEntity
  8
DEFPOINTS
 62
     0
100
AcDbPoint
 10
284.5177154597798
 20
33.62884145089303
 30
0.0
  0
ENDBLK
  5
70B
330
6FF
100
AcDbEntity
  8
0
100
AcDbBlockEnd
  0
BLOCK
  5
718
330
70D
100
AcDbEntity
  8
0
100
AcDbBlockBegin
  2
*D24
 70
     1
 10
0.0
 20
0.0
 30
0.0
  3
*D24
  1

  0
LINE
  5
70E
330
70D
100
AcDbEntity
  8
0
 62
     0
100
AcDbLine
 10
286.3012298758665
 20
33.84134145089303
 30
0.0
 11
286.3012298758665
 21
34.25901624660088
 31
0.0
  0
LINE
  5
70F
330
70D
100
AcDbEntity
  8
0
 62
     0
100
AcDbLine
 10
286.7012298758664
 20
33.84134145089303
 30
0.0
 11
286.7012298758664
 21
34.25901624660088
 31
0.0
  0
LINE
  5
710
330
70D
100
AcDbEntity
  8
0
 62
     0
100
AcDbLine
 10
286.1212298758665
 20
34.07901624660087
 30
0.0
 11
285.9412298758665
 21
34.07901624660087
 31
0.0
  0
LINE
  5
711
330
70D
100
AcDbEntity
  8
0
 62
     0
100
AcDbLine
 10
286.8812298758665
 20
34.07901624660087
 30
0.0
 11
287.0612298758664
 21
34.07901624660087
 31
0.0
  0
SOLID
  5
712
330
70D
100
AcDbEntity
  8
0
 62
     0
100
AcDbTrace
 10
286.1212298758665
 20
34.10901624660088
 30
0.0
 11
286.1212298758665
 21
34.04901624660087
 31
0.0
 12
286.3012298758665
 22
34.07901624660087
 32
0.0
 13
286.3012298758665
 23
34.07901624660087
 33
0.0
  0
SOLID
  5
713
330
70D
100
AcDbEntity
  8
0
 62
     0
100
AcDbTrace
 10
286.8812298758665
 20
34.10901624660088
 30
0.0
 11
286.8812298758665
 21
34.04901624660087
 31
0.0
 12
286.7012298758664
 22
34.07901624660087
 32
0.0
 13
286.7012298758664
 23
34.07901624660087
 33
0.0
  0
MTEXT
  5
714
330
70D
100
AcDbEntity
  8
0
 62
     0
100
AcDbMText
 10
287.3912298758664
 20
34.07901624660087
 30
0.0
 40
0.18
 41
0.0
 71
     5
 72
     1
  1
\A1;0.40
1001
ACAD
1000
MTEXTBEGIN
1070
    73
1070
     1
1070
    44
1040
1.0
1070
    74
1070
     0
1000
MTEXTEND
1000
MTEXTBEGIN
1070
    73
1070
     1
1070
    44
1040
1.0
1070
    74
1070
     0
1000
MTEXTEND
  0
POINT
  5
715
330
70D
100
AcDbEntity
  8
DEFPOINTS
 62
     0
100
AcDbPoint
 10
286.3012298758665
 20
33.77884145089303
 30
0.0
  0
POINT
  5
716
330
70D
100
AcDbEntity
  8
DEFPOINTS
 62
     0
100
AcDbPoint
 10
286.7012298758664
 20
33.77884145089303
 30
0.0
  0
POINT
  5
717
330
70D
100
AcDbEntity
  8
DEFPOINTS
 62
     0
100
AcDbPoint
 10
286.7012298758664
 20
34.07901624660087
 30
0.0
  0
ENDBLK
  5
719
330
70D
100
AcDbEntity
  8
0
100
AcDbBlockEnd
  0
ENDSEC
  0
SECTION
  2
ENTITIES
  0
TEXT
  5
2C
330
1E
100
AcDbEntity
  8
0
  6
CONTINUOUS
100
AcDbText
 10
287.2611609646593
 20
41.35809618788629
 30
0.0
 40
0.1
  1
2
  7
ROMANC
100
AcDbText
  0
TEXT
  5
2D
330
1E
100
AcDbEntity
  8
0
  6
CONTINUOUS
100
AcDbText
 10
284.3929576664518
 20
41.768
 30
0.0
 40
0.3
  1
ESCALA  
  7
ROMANC
100
AcDbText
  0
LWPOLYLINE
  5
2E
330
1E
100
AcDbEntity
  8
NO_PRINT
  6
CONTINUOUS
100
AcDbPolyline
 90
        4
 70
     1
 43
0.0
 10
281.3959999999998
 20
44.747
 10
291.8959999999998
 20
44.747
 10
291.8959999999998
 20
29.897
 10
281.3959999999998
 20
29.897
  0
TEXT
  5
34
330
1E
100
AcDbEntity
  8
0
  6
CONTINUOUS
100
AcDbText
 10
284.3929576664518
 20
42.381
 30
0.0
 40
0.3
  1
TIPUS   
  7
ROMANC
100
AcDbText
  0
TEXT
  5
3C
330
1E
100
AcDbEntity
  8
0
  6
CONTINUOUS
100
AcDbText
 10
284.4119576664516
 20
41.09899999999997
 30
0.0
 40
0.3
  1
S =    dm
  7
ROMANC
100
AcDbText
  0
TEXT
  5
3D
330
1E
100
AcDbEntity
  8
0
  6
CONTINUOUS
100
AcDbText
 10
284.3889576664518
 20
40.529
 30
0.0
 40
0.3
  1
P =    dm
  7
ROMANC
100
AcDbText
  0
INSERT
  5
30E
330
1E
100
AcDbEntity
  8
0
100
AcDbBlockReference
 66
     1
  2
CARACTERISTIQUES
 10
0.4669576664520039
 20
0.0
 30
0.0
  0
ATTRIB
  5
310
330
30E
100
AcDbEntity
  8
0
100
AcDbText
 10
286.7392190067171
 20
41.75273550800127
 30
0.0
 40
0.3
  1
1:50
  7
ROMANC
100
AcDbAttribute
  2
1:50
 70
     0
  0
ATTRIB
  5
311
330
30E
100
AcDbEntity
  8
0
100
AcDbText
 10
286.6950869593074
 20
42.38557741488182
 30
0.0
 40
0.3
  1
NT1091A
  7
ROMANC
100
AcDbAttribute
  2
NTXXY
 70
     0
  0
ATTRIB
  5
312
330
30E
100
AcDbEntity
  8
0
100
AcDbText
 10
285.493111257462
 20
41.10070262236148
 30
0.0
 40
0.3
  1
1091
  7
ROMANC
100
AcDbAttribute
  2
XXX
 70
     0
  0
ATTRIB
  5
313
330
30E
100
AcDbEntity
  8
0
100
AcDbText
 10
285.516912531873
 20
40.52964709849685
 30
0.0
 40
0.3
  1
135
  7
ROMANC
100
AcDbAttribute
  2
XX
 70
     0
  0
ATTRIB
  5
314
330
30E
100
AcDbEntity
  8
0
100
AcDbText
 10
291.6344860936283
 20
30.62335152191192
 30
0.0
 40
0.3
  1

  7
ROMANC
 72
     2
 11
291.6344860936283
 21
30.62335152191192
 31
0.0
100
AcDbAttribute
  2
Xxxxxxxxxxxx
 70
     0
  0
SEQEND
  5
30F
330
30E
100
AcDbEntity
  8
0
  0
LWPOLYLINE
  5
6BD
330
1E
100
AcDbEntity
  8
0
100
AcDbPolyline
 90
        8
 70
     1
 43
0.0
 10
286.3012298758665
 20
33.77884145089303
 10
286.3012298758665
 20
33.62884145089303
 10
286.7012298758664
 20
33.62884145089303
 10
286.7012298758664
 20
33.77884145089303
 10
288.0512298758665
 20
33.77884145089303
 10
288.0512298758665
 20
37.27884145089303
 10
284.9512298758664
 20
37.27884145089303
 10
284.9512298758664
 20
33.77884145089303
  0
DIMENSION
  5
6C5
330
1E
100
AcDbEntity
  8
0
100
AcDbDimension
  2
*D19
 10
288.0512298758665
 20
37.57989762285705
 30
0.0
 11
286.5012298758665
 21
37.57989762285705
 31
0.0
 70
    32
  3
STANDARD
100
AcDbAlignedDimension
 13
284.9512298758664
 23
37.27884145089303
 33
0.0
 14
288.0512298758665
 24
37.27884145089303
 34
0.0
100
AcDbRotatedDimension
  0
DIMENSION
  5
6E1
330
1E
100
AcDbEntity
  8
0
100
AcDbDimension
  2
*D21
 10
288.7655143065819
 20
33.77884145089303
 30
0.0
 11
288.7655143065819
 21
35.52884145089307
 31
0.0
 70
   160
  3
STANDARD
100
AcDbAlignedDimension
 13
288.0512298758665
 23
37.27884145089303
 33
0.0
 14
288.0512298758665
 24
33.77884145089303
 34
0.0
 50
90.0
100
AcDbRotatedDimension
  0
DIMENSION
  5
6EF
330
1E
100
AcDbEntity
  8
0
100
AcDbDimension
  2
*D22
 10
288.4613498295431
 20
33.62884145089303
 30
0.0
 11
287.9663498295431
 21
33.26884145089307
 31
0.0
 70
    32
  3
STANDARD
100
AcDbAlignedDimension
 13
288.4613498295431
 23
33.77884145089303
 33
0.0
 14
286.7012298758664
 24
33.62884145089303
 34
0.0
 50
90.0
100
AcDbRotatedDimension
  0
DIMENSION
  5
6FE
330
1E
100
AcDbEntity
  8
0
100
AcDbDimension
  2
*D23
 10
284.5177154597798
 20
33.62884145089303
 30
0.0
 11
284.5177154597798
 21
35.45384145089306
 31
0.0
 70
    32
  3
STANDARD
100
AcDbAlignedDimension
 13
284.9512298758664
 23
37.27884145089303
 33
0.0
 14
286.3012298758665
 24
33.62884145089303
 34
0.0
 50
90.0
100
AcDbRotatedDimension
  0
DIMENSION
  5
70C
330
1E
100
AcDbEntity
  8
0
100
AcDbDimension
  2
*D24
 10
286.7012298758664
 20
34.07901624660087
 30
0.0
 11
287.3912298758664
 21
34.07901624660087
 31
0.0
 70
    32
  3
STANDARD
100
AcDbAlignedDimension
 13
286.3012298758665
 23
33.77884145089303
 33
0.0
 14
286.7012298758664
 24
33.77884145089303
 34
0.0
100
AcDbRotatedDimension
  0
LWPOLYLINE
  5
71A
330
1E
100
AcDbEntity
  8
0
100
AcDbPolyline
 90
        8
 70
     1
 43
0.0
 10
286.2912298758665
 20
33.76884145089302
 10
286.2912298758665
 20
33.61884145089303
 10
286.7112298758665
 20
33.61884145089303
 10
286.7112298758665
 20
33.76884145089302
 10
288.0612298758665
 20
33.76884145089302
 10
288.0612298758665
 20
37.28884145089303
 10
284.9412298758664
 20
37.28884145089303
 10
284.9412298758664
 20
33.76884145089302
  0
LWPOLYLINE
  5
71B
330
1E
100
AcDbEntity
  8
0
100
AcDbPolyline
 90
        8
 70
     1
 43
0.0
 10
286.2812298758665
 20
33.75884145089303
 10
286.2812298758665
 20
33.60884145089304
 10
286.7212298758665
 20
33.60884145089304
 10
286.7212298758665
 20
33.75884145089303
 10
288.0712298758664
 20
33.75884145089303
 10
288.0712298758664
 20
37.29884145089302
 10
284.9312298758665
 20
37.29884145089302
 10
284.9312298758665
 20
33.75884145089303
  0
VIEWPORT
  5
1D9
330
1A
100
AcDbEntity
 67
     1
  8
0
100
AcDbViewport
 10
99.82470776163149
 20
143.3229762546135
 30
0.0
 40
488.1619999471468
 41
307.1270234485288
 68
     1
 69
     1
1001
ACAD
1000
MVIEW
1002
{
1070
    16
1010
0.0
1020
0.0
1030
0.0
1010
0.0
1020
0.0
1030
1.0
1040
0.0
1040
307.1270234485288
1040
99.82470776163149
1040
143.3229762546135
1040
50.0
1040
0.0
1040
0.0
1070
     0
1070
   100
1070
     1
1070
     1
1070
     0
1070
     0
1070
     0
1070
     0
1040
0.0
1040
0.0
1040
0.0
1040
10.0
1040
10.0
1040
10.0
1040
10.0
1070
     0
1002
{
1002
}
1002
}
  0
VIEWPORT
  5
1DB
330
1A
100
AcDbEntity
 67
     1
  8
0
100
AcDbViewport
 10
99.980751991272
 20
143.3935842514036
 30
0.0
 40
199.2902839821538
 41
285.8513345476648
 68
     2
 69
     2
1001
ACAD
1000
MVIEW
1002
{
1070
    16
1010
0.0
1020
0.0
1030
0.0
1010
0.0
1020
0.0
1030
1.0
1040
0.0
1040
15.3945017187523
1040
286.6488322780006
1040
37.31916769001134
1040
50.0
1040
0.0
1040
0.0
1070
     0
1070
   100
1070
     1
1070
     1
1070
     0
1070
     0
1070
     0
1070
     0
1040
0.0
1040
0.0
1040
0.0
1040
1.0
1040
1.0
1040
0.0
1040
0.0
1070
     0
1002
{
1002
}
1002
}
  0
ENDSEC
  0
SECTION
  2
OBJECTS
  0
DICTIONARY
  5
C
330
0
100
AcDbDictionary
  3
ACAD_GROUP
350
D
  3
ACAD_LAYOUT
350
19
  3
ACAD_MLINESTYLE
350
16
  3
ACAD_PLOTSETTINGS
350
18
  3
ACAD_PLOTSTYLENAME
350
330
  3
ACDBHEADERROUNDTRIPXREC
350
78F
1001
ACAD
1000
TREAT_AS_HARD
1070
     0
  0
DICTIONARY
  5
1AC
330
1E
100
AcDbDictionary
280
     1
  3
ACAD_SORTENTS
360
27D
  3
ACAD_LAYOUTSELFREF
360
7B0
1001
ACAD
1000
TREAT_AS_HARD
1070
     1
  0
DICTIONARY
  5
1AA
330
1A
100
AcDbDictionary
280
     1
  3
ACAD_LAYOUTSELFREF
360
7AF
1001
ACAD
1000
TREAT_AS_HARD
1070
     1
  0
DICTIONARY
  5
D
102
{ACAD_REACTORS
330
C
102
}
330
C
100
AcDbDictionary
1001
ACAD
1000
TREAT_AS_HARD
1070
     0
  0
DICTIONARY
  5
19
102
{ACAD_REACTORS
330
C
102
}
330
C
100
AcDbDictionary
1001
ACAD
1000
TREAT_AS_HARD
1070
     0
  0
DICTIONARY
  5
16
102
{ACAD_REACTORS
330
C
102
}
330
C
100
AcDbDictionary
  3
STANDARD
350
17
1001
ACAD
1000
TREAT_AS_HARD
1070
     0
  0
DICTIONARY
  5
18
102
{ACAD_REACTORS
330
C
102
}
330
C
100
AcDbDictionary
  3
SECCIONS
350
20A
1001
ACAD
1000
TREAT_AS_HARD
1070
     0
  0
ACDBDICTIONARYWDFLT
  5
330
102
{ACAD_REACTORS
330
C
102
}
330
C
100
AcDbDictionary
281
     1
  3
Normal
350
331
100
AcDbDictionaryWithDefault
340
331
  0
DICTIONARY
  5
78F
102
{ACAD_REACTORS
330
C
102
}
330
C
100
AcDbDictionary
  3
TSTACKALIGN
350
790
  3
TSTACKSIZE
350
791
  3
HYPERLINKBASE
350
792
  3
STYLESHEET
350
793
  3
LAYOUTDICT
350
794
  3
PLOTSETDICT
350
795
  3
PLOTSTYLNAMDICT
350
796
  3
LWETCUNION
350
797
  3
INSUNITS
350
798
  3
CEPSNTYPE
350
799
  3
FINGERPRINTGUID
350
79A
  3
VERSIONGUID
350
79B
  3
PSVPSCALE
350
79C
  3
PUCSORTHOREF
350
79D
  3
PUCSORTHOVIEW
350
79E
  3
PUCSBASE
350
79F
  3
PUCSORGTOP
350
7A0
  3
PUCSORGBOTTOM
350
7A1
  3
PUCSORGLEFT
350
7A2
  3
PUCSORGRIGHT
350
7A3
  3
PUCSORGFRONT
350
7A4
  3
PUCSORGBACK
350
7A5
  3
UCSORTHOREF
350
7A6
  3
UCSORTHOVIEW
350
7A7
  3
UCSBASE
350
7A8
  3
UCSORGTOP
350
7A9
  3
UCSORGBOTTOM
350
7AA
  3
UCSORGLEFT
350
7AB
  3
UCSORGRIGHT
350
7AC
  3
UCSORGFRONT
350
7AD
  3
UCSORGBACK
350
7AE
  0
SORTENTSTABLE
  5
27D
102
{ACAD_REACTORS
330
1AC
102
}
330
1AC
100
AcDbSortentsTable
330
1E
331
3C
  5
244
331
34
  5
23F
331
2D
  5
3C
331
3D
  5
249
331
2E
  5
3D
331
2C
  5
34
  0
XRECORD
  5
7B0
102
{ACAD_REACTORS
330
1AC
102
}
330
1AC
100
AcDbXrecord
340
1E
  0
XRECORD
  5
7AF
102
{ACAD_REACTORS
330
1AA
102
}
330
1AA
100
AcDbXrecord
340
1A
  0
MLINESTYLE
  5
17
102
{ACAD_REACTORS
330
16
102
}
330
16
100
AcDbMlineStyle
  2
STANDARD
 70
     0
  3

 62
   256
 51
90.0
 52
90.0
 71
     2
 49
0.5
 62
   256
  6
BYLAYER
 49
-0.5
 62
   256
  6
BYLAYER
  0
PLOTSETTINGS
  5
20A
102
{ACAD_REACTORS
330
18
102
}
330
18
100
AcDbPlotSettings
  1
seccions
  2
\\SERVIDOR1\LS8100PS
  4
A4
  6

 40
5.365749835968013
 41
5.4080810546875
 42
5.154083251953125
 43
5.154083251953125
 44
209.9733276367186
 45
296.9683227539062
 46
0.0
 47
0.0
 48
281.3959999999998
 49
29.897
140
291.8959999999998
141
44.747
142
1.0
143
0.0526438507570551
 70
  1712
 72
     1
 73
     0
 74
     4
  7
T:\CFG ACAD2000\Plot Styles\xvr.ctb
 75
     0
147
18.99557090940928
148
-281.3959999999998
149
-29.897
  0
ACDBPLACEHOLDER
  5
331
102
{ACAD_REACTORS
330
330
102
}
330
330
100
AcDbPlaceHolder
280
     0
  0
XRECORD
  5
790
102
{ACAD_REACTORS
330
78F
102
}
330
78F
100
AcDbXrecord
 90
        1
  0
XRECORD
  5
791
102
{ACAD_REACTORS
330
78F
102
}
330
78F
100
AcDbXrecord
 90
       70
  0
XRECORD
  5
792
102
{ACAD_REACTORS
330
78F
102
}
330
78F
100
AcDbXrecord
  1

  0
XRECORD
  5
793
102
{ACAD_REACTORS
330
78F
102
}
330
78F
100
AcDbXrecord
  1
Blanc i negre.ctb
  0
XRECORD
  5
794
102
{ACAD_REACTORS
330
78F
102
}
330
78F
100
AcDbXrecord
340
19
  0
XRECORD
  5
795
102
{ACAD_REACTORS
330
78F
102
}
330
78F
100
AcDbXrecord
340
18
  0
XRECORD
  5
796
102
{ACAD_REACTORS
330
78F
102
}
330
78F
100
AcDbXrecord
340
330
  0
XRECORD
  5
797
102
{ACAD_REACTORS
330
78F
102
}
330
78F
100
AcDbXrecord
 90
    10781
  0
XRECORD
  5
798
102
{ACAD_REACTORS
330
78F
102
}
330
78F
100
AcDbXrecord
 90
        0
  0
XRECORD
  5
799
102
{ACAD_REACTORS
330
78F
102
}
330
78F
100
AcDbXrecord
 90
        0
  0
XRECORD
  5
79A
102
{ACAD_REACTORS
330
78F
102
}
330
78F
100
AcDbXrecord
  1
{061240B0-03E4-11D5-A6AC-0008C769B1B5}
  0
XRECORD
  5
79B
102
{ACAD_REACTORS
330
78F
102
}
330
78F
100
AcDbXrecord
  1
{9A47E12A-5B4F-4F1A-A1C3-0E36F2C7E318}
  0
XRECORD
  5
79C
102
{ACAD_REACTORS
330
78F
102
}
330
78F
100
AcDbXrecord
 40
0.0
  0
XRECORD
  5
79D
102
{ACAD_REACTORS
330
78F
102
}
330
78F
100
AcDbXrecord
340
0
  0
XRECORD
  5
79E
102
{ACAD_REACTORS
330
78F
102
}
330
78F
100
AcDbXrecord
 70
     0
  0
XRECORD
  5
79F
102
{ACAD_REACTORS
330
78F
102
}
330
78F
100
AcDbXrecord
340
0
  0
XRECORD
  5
7A0
102
{ACAD_REACTORS
330
78F
102
}
330
78F
100
AcDbXrecord
 10
0.0
 20
0.0
 30
0.0
  0
XRECORD
  5
7A1
102
{ACAD_REACTORS
330
78F
102
}
330
78F
100
AcDbXrecord
 10
0.0
 20
0.0
 30
0.0
  0
XRECORD
  5
7A2
102
{ACAD_REACTORS
330
78F
102
}
330
78F
100
AcDbXrecord
 10
0.0
 20
0.0
 30
0.0
  0
XRECORD
  5
7A3
102
{ACAD_REACTORS
330
78F
102
}
330
78F
100
AcDbXrecord
 10
0.0
 20
0.0
 30
0.0
  0
XRECORD
  5
7A4
102
{ACAD_REACTORS
330
78F
102
}
330
78F
100
AcDbXrecord
 10
0.0
 20
0.0
 30
0.0
  0
XRECORD
  5
7A5
102
{ACAD_REACTORS
330
78F
102
}
330
78F
100
AcDbXrecord
 10
0.0
 20
0.0
 30
0.0
  0
XRECORD
  5
7A6
102
{ACAD_REACTORS
330
78F
102
}
330
78F
100
AcDbXrecord
340
0
  0
XRECORD
  5
7A7
102
{ACAD_REACTORS
330
78F
102
}
330
78F
100
AcDbXrecord
 70
     0
  0
XRECORD
  5
7A8
102
{ACAD_REACTORS
330
78F
102
}
330
78F
100
AcDbXrecord
340
0
  0
XRECORD
  5
7A9
102
{ACAD_REACTORS
330
78F
102
}
330
78F
100
AcDbXrecord
 10
0.0
 20
0.0
 30
0.0
  0
XRECORD
  5
7AA
102
{ACAD_REACTORS
330
78F
102
}
330
78F
100
AcDbXrecord
 10
0.0
 20
0.0
 30
0.0
  0
XRECORD
  5
7AB
102
{ACAD_REACTORS
330
78F
102
}
330
78F
100
AcDbXrecord
 10
0.0
 20
0.0
 30
0.0
  0
XRECORD
  5
7AC
102
{ACAD_REACTORS
330
78F
102
}
330
78F
100
AcDbXrecord
 10
0.0
 20
0.0
 30
0.0
  0
XRECORD
  5
7AD
102
{ACAD_REACTORS
330
78F
102
}
330
78F
100
AcDbXrecord
 10
0.0
 20
0.0
 30
0.0
  0
XRECORD
  5
7AE
102
{ACAD_REACTORS
330
78F
102
}
330
78F
100
AcDbXrecord
 10
0.0
 20
0.0
 30
0.0
  0
ENDSEC
  0
EOF
