  0
SECTION
  2
HEADER
  9
$ACADVER
  1
AC1014
  9
$ACADMAINTVER
 70
     9
  9
$DWGCODEPAGE
  3
ANSI_1252
  9
$INSBASE
 10
0.0
 20
0.0
 30
0.0
  9
$EXTMIN
 10
281.392823571098
 20
29.87855602414174
 30
-0.0015258207003583
  9
$EXTMAX
 10
291.9030770006393
 20
44.76571695060203
 30
0.0000000349246037
  9
$LIMMIN
 10
0.0
 20
0.0
  9
$LIMMAX
 10
420.0
 20
297.0
  9
$ORTHOMODE
 70
     1
  9
$REGENMODE
 70
     1
  9
$FILLMODE
 70
     1
  9
$QTEXTMODE
 70
     0
  9
$MIRRTEXT
 70
     1
  9
$DRAGMODE
 70
     2
  9
$LTSCALE
 40
1.0
  9
$OSMODE
 70
    33
  9
$ATTMODE
 70
     1
  9
$TEXTSIZE
 40
2.5
  9
$TRACEWID
 40
1.0
  9
$TEXTSTYLE
  7
STANDARD
  9
$CLAYER
  8
0
  9
$CELTYPE
  6
BYLAYER
  9
$CECOLOR
 62
   256
  9
$CELTSCALE
 40
1.0
  9
$DELOBJ
 70
     1
  9
$DISPSILH
 70
     0
  9
$DIMSCALE
 40
1.0
  9
$DIMASZ
 40
0.07
  9
$DIMEXO
 40
0.0625
  9
$DIMDLI
 40
0.38
  9
$DIMRND
 40
0.0
  9
$DIMDLE
 40
0.0
  9
$DIMEXE
 40
0.085
  9
$DIMTP
 40
0.0
  9
$DIMTM
 40
0.0
  9
$DIMTXT
 40
0.085
  9
$DIMCEN
 40
0.09
  9
$DIMTSZ
 40
0.0
  9
$DIMTOL
 70
     0
  9
$DIMLIM
 70
     0
  9
$DIMTIH
 70
     1
  9
$DIMTOH
 70
     1
  9
$DIMSE1
 70
     0
  9
$DIMSE2
 70
     0
  9
$DIMTAD
 70
     0
  9
$DIMZIN
 70
     0
  9
$DIMBLK
  1
OBLIQUE
  9
$DIMASO
 70
     1
  9
$DIMSHO
 70
     1
  9
$DIMPOST
  1

  9
$DIMAPOST
  1

  9
$DIMALT
 70
     0
  9
$DIMALTD
 70
     2
  9
$DIMALTF
 40
25.4
  9
$DIMLFAC
 40
1.0
  9
$DIMTOFL
 70
     0
  9
$DIMTVP
 40
0.0
  9
$DIMTIX
 70
     0
  9
$DIMSOXD
 70
     0
  9
$DIMSAH
 70
     0
  9
$DIMBLK1
  1

  9
$DIMBLK2
  1

  9
$DIMSTYLE
  2
STANDARD
  9
$DIMCLRD
 70
     0
  9
$DIMCLRE
 70
     0
  9
$DIMCLRT
 70
     0
  9
$DIMTFAC
 40
1.0
  9
$DIMGAP
 40
0.09
  9
$DIMJUST
 70
     0
  9
$DIMSD1
 70
     0
  9
$DIMSD2
 70
     0
  9
$DIMTOLJ
 70
     1
  9
$DIMTZIN
 70
     0
  9
$DIMALTZ
 70
     0
  9
$DIMALTTZ
 70
     0
  9
$DIMFIT
 70
     5
  9
$DIMUPT
 70
     0
  9
$DIMUNIT
 70
     2
  9
$DIMDEC
 70
     2
  9
$DIMTDEC
 70
     2
  9
$DIMALTU
 70
     2
  9
$DIMALTTD
 70
     2
  9
$DIMTXSTY
  7
STANDARD
  9
$DIMAUNIT
 70
     0
  9
$LUNITS
 70
     2
  9
$LUPREC
 70
     4
  9
$SKETCHINC
 40
1.0
  9
$FILLETRAD
 40
10.0
  9
$AUNITS
 70
     0
  9
$AUPREC
 70
     0
  9
$MENU
  1
acad
  9
$ELEVATION
 40
0.0
  9
$PELEVATION
 40
0.0
  9
$THICKNESS
 40
0.0
  9
$LIMCHECK
 70
     0
  9
$BLIPMODE
 70
     0
  9
$CHAMFERA
 40
10.0
  9
$CHAMFERB
 40
10.0
  9
$CHAMFERC
 40
0.0
  9
$CHAMFERD
 40
0.0
  9
$SKPOLY
 70
     0
  9
$TDCREATE
 40
2452538.457544166
  9
$TDUPDATE
 40
2452543.578684085
  9
$TDINDWG
 40
0.0200214236
  9
$TDUSRTIMER
 40
0.0200208796
  9
$USRTIMER
 70
     1
  9
$ANGBASE
 50
0.0
  9
$ANGDIR
 70
     0
  9
$PDMODE
 70
     0
  9
$PDSIZE
 40
0.0
  9
$PLINEWID
 40
0.0
  9
$COORDS
 70
     1
  9
$SPLFRAME
 70
     0
  9
$SPLINETYPE
 70
     6
  9
$SPLINESEGS
 70
     8
  9
$ATTDIA
 70
     0
  9
$ATTREQ
 70
     1
  9
$HANDLING
 70
 10241
  9
$HANDSEED
  5
736
  9
$SURFTAB1
 70
     6
  9
$SURFTAB2
 70
     6
  9
$SURFTYPE
 70
     6
  9
$SURFU
 70
     6
  9
$SURFV
 70
     6
  9
$UCSNAME
  2

  9
$UCSORG
 10
0.0
 20
0.0
 30
0.0
  9
$UCSXDIR
 10
1.0
 20
0.0
 30
0.0
  9
$UCSYDIR
 10
0.0
 20
1.0
 30
0.0
  9
$PUCSNAME
  2

  9
$PUCSORG
 10
0.0
 20
0.0
 30
0.0
  9
$PUCSXDIR
 10
1.0
 20
0.0
 30
0.0
  9
$PUCSYDIR
 10
0.0
 20
1.0
 30
0.0
  9
$USERI1
 70
     0
  9
$USERI2
 70
     0
  9
$USERI3
 70
     0
  9
$USERI4
 70
     0
  9
$USERI5
 70
     0
  9
$USERR1
 40
0.0
  9
$USERR2
 40
0.0
  9
$USERR3
 40
0.0
  9
$USERR4
 40
0.0
  9
$USERR5
 40
0.0
  9
$WORLDVIEW
 70
     1
  9
$SHADEDGE
 70
     3
  9
$SHADEDIF
 70
    70
  9
$TILEMODE
 70
     1
  9
$MAXACTVP
 70
    48
  9
$PINSBASE
 10
0.0
 20
0.0
 30
0.0
  9
$PLIMCHECK
 70
     0
  9
$PEXTMIN
 10
1.000000000000000E+20
 20
1.000000000000000E+20
 30
1.000000000000000E+20
  9
$PEXTMAX
 10
-1.000000000000000E+20
 20
-1.000000000000000E+20
 30
-1.000000000000000E+20
  9
$PLIMMIN
 10
0.0
 20
0.0
  9
$PLIMMAX
 10
420.0
 20
297.0
  9
$UNITMODE
 70
     0
  9
$VISRETAIN
 70
     1
  9
$PLINEGEN
 70
     0
  9
$PSLTSCALE
 70
     1
  9
$TREEDEPTH
 70
  3020
  9
$PICKSTYLE
 70
     1
  9
$CMLSTYLE
  2
STANDARD
  9
$CMLJUST
 70
     0
  9
$CMLSCALE
 40
1.0
  9
$PROXYGRAPHICS
 70
     1
  9
$MEASUREMENT
 70
     0
  0
ENDSEC
  0
SECTION
  2
CLASSES
  0
CLASS
  1
ACDBDICTIONARYWDFLT
  2
AcDbDictionaryWithDefault
  3
AutoCAD 2000
 90
        0
280
     0
281
     0
  0
CLASS
  1
ACDBPLACEHOLDER
  2
AcDbPlaceHolder
  3
AutoCAD 2000
 90
        0
280
     0
281
     0
  0
CLASS
  1
LAYOUT
  2
AcDbLayout
  3
AutoCAD 2000
 90
        0
280
     0
281
     0
  0
CLASS
  1
LONG_TRANSACTION
  2
AcDbLongTransaction
  3
AutoCAD 2000
 90
        0
280
     0
281
     0
  0
CLASS
  1
LWPOLYLINE
  2
AcDbPolyline
  3
AutoCAD 2000
 90
        0
280
     0
281
     1
  0
CLASS
  1
HATCH
  2
AcDbHatch
  3
AutoCAD 2000
 90
        0
280
     0
281
     1
  0
CLASS
  1
XRECORD
  2
AcDbXrecord
  3
AutoCAD 2000
 90
        0
280
     0
281
     0
  0
ENDSEC
  0
SECTION
  2
TABLES
  0
TABLE
  2
VPORT
  5
4B7
330
0
100
AcDbSymbolTable
 70
     2
  0
VPORT
  5
710
330
4B7
100
AcDbSymbolTableRecord
100
AcDbViewportTableRecord
  2
*ACTIVE
 70
     0
 10
0.0
 20
0.0
 11
1.0
 21
1.0
 12
286.6479502858686
 22
37.32213648737189
 13
0.0
 23
0.0
 14
10.0
 24
10.0
 15
10.0
 25
10.0
 16
0.0
 26
0.0
 36
1.0
 17
0.0
 27
0.0
 37
0.0
 40
15.00182455362173
 41
1.508997429305912
 42
50.0
 43
0.0
 44
0.0
 50
0.0
 51
0.0
 71
     0
 72
   100
 73
     1
 74
     1
 75
     0
 76
     0
 77
     0
 78
     0
  0
ENDTAB
  0
TABLE
  2
LTYPE
  5
4B4
330
0
100
AcDbSymbolTable
 70
     1
  0
LTYPE
  5
4C2
330
4B4
100
AcDbSymbolTableRecord
100
AcDbLinetypeTableRecord
  2
BYBLOCK
 70
     0
  3

 72
    65
 73
     0
 40
0.0
  0
LTYPE
  5
4C3
330
4B4
100
AcDbSymbolTableRecord
100
AcDbLinetypeTableRecord
  2
BYLAYER
 70
     0
  3

 72
    65
 73
     0
 40
0.0
  0
LTYPE
  5
4C4
330
4B4
100
AcDbSymbolTableRecord
100
AcDbLinetypeTableRecord
  2
CONTINUOUS
 70
     0
  3
Solid line
 72
    65
 73
     0
 40
0.0
  0
ENDTAB
  0
TABLE
  2
LAYER
  5
4B1
330
0
100
AcDbSymbolTable
 70
     4
  0
LAYER
  5
4BF
330
4B1
100
AcDbSymbolTableRecord
100
AcDbLayerTableRecord
  2
0
 70
     0
 62
     7
  6
CONTINUOUS
  0
LAYER
  5
4D2
330
4B1
100
AcDbSymbolTableRecord
100
AcDbLayerTableRecord
  2
1
 70
     0
 62
     7
  6
CONTINUOUS
  0
LAYER
  5
4D3
330
4B1
100
AcDbSymbolTableRecord
100
AcDbLayerTableRecord
  2
DEFPOINTS
 70
     0
 62
     7
  6
CONTINUOUS
  0
LAYER
  5
4D4
330
4B1
100
AcDbSymbolTableRecord
100
AcDbLayerTableRecord
  2
NO_PRINT
 70
     0
 62
     7
  6
CONTINUOUS
  0
ENDTAB
  0
TABLE
  2
STYLE
  5
4B2
330
0
100
AcDbSymbolTable
 70
     1
  0
STYLE
  5
4C0
330
4B2
100
AcDbSymbolTableRecord
100
AcDbTextStyleTableRecord
  2
STANDARD
 70
     0
 40
0.0
 41
1.0
 50
0.0
 71
     0
 42
2.5
  3
txt.shx
  4

  0
ENDTAB
  0
TABLE
  2
VIEW
  5
4B5
330
0
100
AcDbSymbolTable
 70
     0
  0
ENDTAB
  0
TABLE
  2
UCS
  5
4B6
330
0
100
AcDbSymbolTable
 70
     0
  0
ENDTAB
  0
TABLE
  2
APPID
  5
4B8
330
0
100
AcDbSymbolTable
 70
     1
  0
APPID
  5
4C1
330
4B8
100
AcDbSymbolTableRecord
100
AcDbRegAppTableRecord
  2
ACAD
 70
     0
  0
ENDTAB
  0
TABLE
  2
DIMSTYLE
  5
4B9
330
0
100
AcDbSymbolTable
 70
     1
  0
DIMSTYLE
105
4D5
102
{ACAD_REACTORS
330
5C4
330
5D2
330
5E0
330
5EE
330
5FC
330
60A
330
617
102
}
330
4B9
100
AcDbSymbolTableRecord
100
AcDbDimStyleTableRecord
  2
STANDARD
 70
     0
  3

  4

  5
OBLIQUE
  6

  7

 40
1.0
 41
0.07
 42
0.0625
 43
0.38
 44
0.085
 45
0.0
 46
0.0
 47
0.0
 48
0.0
140
0.085
141
0.09
142
0.0
143
25.4
144
1.0
145
0.0
146
1.0
147
0.09
 71
     0
 72
     0
 73
     1
 74
     1
 75
     0
 76
     0
 77
     0
 78
     0
170
     0
171
     2
172
     0
173
     0
174
     0
175
     0
176
     0
177
     0
178
     0
270
     2
271
     2
272
     2
273
     2
274
     2
340
4C0
275
     0
280
     0
281
     0
282
     0
283
     1
284
     0
285
     0
286
     0
287
     5
288
     0
  0
ENDTAB
  0
TABLE
  2
BLOCK_RECORD
  5
4B0
330
0
100
AcDbSymbolTable
 70
    26
  0
BLOCK_RECORD
  5
4CD
102
{ACAD_XDICTIONARY
360
734
102
}
330
4B0
100
AcDbSymbolTableRecord
100
AcDbBlockTableRecord
  2
*MODEL_SPACE
  0
BLOCK_RECORD
  5
4C9
102
{ACAD_XDICTIONARY
360
732
102
}
330
4B0
100
AcDbSymbolTableRecord
100
AcDbBlockTableRecord
  2
*PAPER_SPACE
  0
BLOCK_RECORD
  5
4D7
330
4B0
100
AcDbSymbolTableRecord
100
AcDbBlockTableRecord
  2
$MODEL_SPACE
  0
BLOCK_RECORD
  5
4DA
330
4B0
100
AcDbSymbolTableRecord
100
AcDbBlockTableRecord
  2
$PAPER_SPACE
  0
BLOCK_RECORD
  5
4DD
330
4B0
100
AcDbSymbolTableRecord
100
AcDbBlockTableRecord
  2
_OBLIQUE
  0
BLOCK_RECORD
  5
4E1
330
4B0
100
AcDbSymbolTableRecord
100
AcDbBlockTableRecord
  2
*D3
  0
BLOCK_RECORD
  5
4EF
330
4B0
100
AcDbSymbolTableRecord
100
AcDbBlockTableRecord
  2
*D4
  0
BLOCK_RECORD
  5
4FD
330
4B0
100
AcDbSymbolTableRecord
100
AcDbBlockTableRecord
  2
*D5
  0
BLOCK_RECORD
  5
50A
330
4B0
100
AcDbSymbolTableRecord
100
AcDbBlockTableRecord
  2
*D6
  0
BLOCK_RECORD
  5
517
330
4B0
100
AcDbSymbolTableRecord
100
AcDbBlockTableRecord
  2
*D7
  0
BLOCK_RECORD
  5
524
330
4B0
100
AcDbSymbolTableRecord
100
AcDbBlockTableRecord
  2
*D8
  0
BLOCK_RECORD
  5
531
330
4B0
100
AcDbSymbolTableRecord
100
AcDbBlockTableRecord
  2
*D9
  0
BLOCK_RECORD
  5
53E
330
4B0
100
AcDbSymbolTableRecord
100
AcDbBlockTableRecord
  2
*D10
  0
BLOCK_RECORD
  5
54B
330
4B0
100
AcDbSymbolTableRecord
100
AcDbBlockTableRecord
  2
*D11
  0
BLOCK_RECORD
  5
558
330
4B0
100
AcDbSymbolTableRecord
100
AcDbBlockTableRecord
  2
*D12
  0
BLOCK_RECORD
  5
565
330
4B0
100
AcDbSymbolTableRecord
100
AcDbBlockTableRecord
  2
*D13
  0
BLOCK_RECORD
  5
572
330
4B0
100
AcDbSymbolTableRecord
100
AcDbBlockTableRecord
  2
*D14
  0
BLOCK_RECORD
  5
57F
330
4B0
100
AcDbSymbolTableRecord
100
AcDbBlockTableRecord
  2
*D15
  0
BLOCK_RECORD
  5
58C
330
4B0
100
AcDbSymbolTableRecord
100
AcDbBlockTableRecord
  2
*D16
  0
BLOCK_RECORD
  5
599
330
4B0
100
AcDbSymbolTableRecord
100
AcDbBlockTableRecord
  2
*D17
  0
BLOCK_RECORD
  5
5A5
330
4B0
100
AcDbSymbolTableRecord
100
AcDbBlockTableRecord
  2
*D18
  0
BLOCK_RECORD
  5
5C5
330
4B0
100
AcDbSymbolTableRecord
100
AcDbBlockTableRecord
  2
*D19
  0
BLOCK_RECORD
  5
5D3
330
4B0
100
AcDbSymbolTableRecord
100
AcDbBlockTableRecord
  2
*D20
  0
BLOCK_RECORD
  5
5E1
330
4B0
100
AcDbSymbolTableRecord
100
AcDbBlockTableRecord
  2
*D21
  0
BLOCK_RECORD
  5
5EF
330
4B0
100
AcDbSymbolTableRecord
100
AcDbBlockTableRecord
  2
*D22
  0
BLOCK_RECORD
  5
5FD
330
4B0
100
AcDbSymbolTableRecord
100
AcDbBlockTableRecord
  2
*D23
  0
BLOCK_RECORD
  5
60B
330
4B0
100
AcDbSymbolTableRecord
100
AcDbBlockTableRecord
  2
*D24
  0
BLOCK_RECORD
  5
618
330
4B0
100
AcDbSymbolTableRecord
100
AcDbBlockTableRecord
  2
*D25
  0
ENDTAB
  0
ENDSEC
  0
SECTION
  2
BLOCKS
  0
BLOCK
  5
4CE
330
4CD
100
AcDbEntity
  8
0
100
AcDbBlockBegin
  2
*MODEL_SPACE
 70
     0
 10
0.0
 20
0.0
 30
0.0
  3
*MODEL_SPACE
  1

  0
ENDBLK
  5
4CF
330
4CD
100
AcDbEntity
  8
0
100
AcDbBlockEnd
  0
BLOCK
  5
4CA
330
4C9
100
AcDbEntity
 67
     1
  8
0
100
AcDbBlockBegin
  2
*PAPER_SPACE
 70
     0
 10
0.0
 20
0.0
 30
0.0
  3
*PAPER_SPACE
  1

  0
ENDBLK
  5
4CB
330
4C9
100
AcDbEntity
 67
     1
  8
0
100
AcDbBlockEnd
  0
BLOCK
  5
4D8
330
4D7
100
AcDbEntity
  8
0
100
AcDbBlockBegin
  2
$MODEL_SPACE
 70
     0
 10
0.0
 20
0.0
 30
0.0
  3
$MODEL_SPACE
  1

  0
ENDBLK
  5
4D9
330
4D7
100
AcDbEntity
  8
0
100
AcDbBlockEnd
  0
BLOCK
  5
4DB
330
4DA
100
AcDbEntity
  8
0
100
AcDbBlockBegin
  2
$PAPER_SPACE
 70
     0
 10
0.0
 20
0.0
 30
0.0
  3
$PAPER_SPACE
  1

  0
ENDBLK
  5
4DC
330
4DA
100
AcDbEntity
  8
0
100
AcDbBlockEnd
  0
BLOCK
  5
4DE
330
4DD
100
AcDbEntity
  8
0
100
AcDbBlockBegin
  2
_OBLIQUE
 70
     0
 10
0.0
 20
0.0
 30
0.0
  3
_OBLIQUE
  1

  0
LINE
  5
4DF
330
4DD
100
AcDbEntity
  8
0
 62
     0
100
AcDbLine
 10
-0.5
 20
-0.5
 30
0.0
 11
0.5
 21
0.5
 31
0.0
  0
ENDBLK
  5
4E0
330
4DD
100
AcDbEntity
  8
0
100
AcDbBlockEnd
  0
BLOCK
  5
4E2
330
4E1
100
AcDbEntity
  8
0
100
AcDbBlockBegin
  2
*D3
 70
     1
 10
0.0
 20
0.0
 30
0.0
  3
*D3
  1

  0
LINE
  5
4E3
330
4E1
100
AcDbEntity
  8
0
 62
     0
100
AcDbLine
 10
287.9121730430327
 20
37.3918227657284
 30
0.0
 11
287.9121730430327
 21
38.69007706713715
 31
0.0
  0
LINE
  5
4E4
330
4E1
100
AcDbEntity
  8
0
 62
     0
100
AcDbLine
 10
288.7121730430326
 20
37.3918227657284
 30
0.0
 11
288.7121730430326
 21
38.69007706713715
 31
0.0
  0
LINE
  5
4E5
330
4E1
100
AcDbEntity
  8
0
 62
     0
100
AcDbLine
 10
287.9121730430327
 20
37.44007706713715
 30
0.0
 11
287.1621730430326
 21
37.44007706713715
 31
0.0
  0
LINE
  5
4E6
330
4E1
100
AcDbEntity
  8
0
 62
     0
100
AcDbLine
 10
288.7121730430326
 20
37.44007706713715
 30
0.0
 11
292.8371730430327
 21
37.44007706713715
 31
0.0
  0
LINE
  5
4E7
330
4E1
100
AcDbEntity
  8
0
 62
     0
100
AcDbLine
 10
287.9121730430327
 20
37.44007706713715
 30
0.0
 11
288.7121730430326
 21
37.44007706713715
 31
0.0
  0
INSERT
  5
4E8
330
4E1
100
AcDbEntity
  8
0
 62
     0
100
AcDbBlockReference
  2
_OBLIQUE
 10
287.9121730430327
 20
37.44007706713715
 30
0.0
 41
0.75
 42
0.75
 43
0.75
  0
INSERT
  5
4E9
330
4E1
100
AcDbEntity
  8
0
 62
     0
100
AcDbBlockReference
  2
_OBLIQUE
 10
288.7121730430326
 20
37.44007706713715
 30
0.0
 41
0.75
 42
0.75
 43
0.75
 50
180.0
  0
TEXT
  5
4EA
330
4E1
100
AcDbEntity
  8
0
 62
     0
100
AcDbText
 10
290.6318159001756
 20
38.06507706713715
 30
0.0
 40
0.75
  1
0.8
100
AcDbText
  0
POINT
  5
4EB
330
4E1
100
AcDbEntity
  8
DEFPOINTS
 62
     0
100
AcDbPoint
 10
287.9121730430327
 20
36.7668227657284
 30
0.0
  0
POINT
  5
4EC
330
4E1
100
AcDbEntity
  8
DEFPOINTS
 62
     0
100
AcDbPoint
 10
288.7121730430326
 20
36.7668227657284
 30
0.0
  0
POINT
  5
4ED
330
4E1
100
AcDbEntity
  8
DEFPOINTS
 62
     0
100
AcDbPoint
 10
288.7121730430326
 20
37.44007706713715
 30
0.0
  0
ENDBLK
  5
4EE
330
4E1
100
AcDbEntity
  8
0
100
AcDbBlockEnd
  0
BLOCK
  5
4F0
330
4EF
100
AcDbEntity
  8
0
100
AcDbBlockBegin
  2
*D4
 70
     1
 10
0.0
 20
0.0
 30
0.0
  3
*D4
  1

  0
LINE
  5
4F1
330
4EF
100
AcDbEntity
  8
0
 62
     0
100
AcDbLine
 10
287.9121730430327
 20
37.3918227657284
 30
0.0
 11
287.9121730430327
 21
38.87922695983204
 31
0.0
  0
LINE
  5
4F2
330
4EF
100
AcDbEntity
  8
0
 62
     0
100
AcDbLine
 10
288.7121730430326
 20
37.3918227657284
 30
0.0
 11
288.7121730430326
 21
38.87922695983204
 31
0.0
  0
LINE
  5
4F3
330
4EF
100
AcDbEntity
  8
0
 62
     0
100
AcDbLine
 10
287.9121730430327
 20
37.62922695983204
 30
0.0
 11
287.1621730430326
 21
37.62922695983204
 31
0.0
  0
LINE
  5
4F4
330
4EF
100
AcDbEntity
  8
0
 62
     0
100
AcDbLine
 10
288.7121730430326
 20
37.62922695983204
 30
0.0
 11
292.8371730430327
 21
37.62922695983204
 31
0.0
  0
LINE
  5
4F5
330
4EF
100
AcDbEntity
  8
0
 62
     0
100
AcDbLine
 10
287.9121730430327
 20
37.62922695983204
 30
0.0
 11
288.7121730430326
 21
37.62922695983204
 31
0.0
  0
INSERT
  5
4F6
330
4EF
100
AcDbEntity
  8
0
 62
     0
100
AcDbBlockReference
  2
_OBLIQUE
 10
287.9121730430327
 20
37.62922695983204
 30
0.0
 41
0.75
 42
0.75
 43
0.75
  0
INSERT
  5
4F7
330
4EF
100
AcDbEntity
  8
0
 62
     0
100
AcDbBlockReference
  2
_OBLIQUE
 10
288.7121730430326
 20
37.62922695983204
 30
0.0
 41
0.75
 42
0.75
 43
0.75
 50
180.0
  0
TEXT
  5
4F8
330
4EF
100
AcDbEntity
  8
0
 62
     0
100
AcDbText
 10
290.6318159001756
 20
38.25422695983204
 30
0.0
 40
0.75
  1
0.8
100
AcDbText
  0
POINT
  5
4F9
330
4EF
100
AcDbEntity
  8
DEFPOINTS
 62
     0
100
AcDbPoint
 10
287.9121730430327
 20
36.7668227657284
 30
0.0
  0
POINT
  5
4FA
330
4EF
100
AcDbEntity
  8
DEFPOINTS
 62
     0
100
AcDbPoint
 10
288.7121730430326
 20
36.7668227657284
 30
0.0
  0
POINT
  5
4FB
330
4EF
100
AcDbEntity
  8
DEFPOINTS
 62
     0
100
AcDbPoint
 10
288.7121730430326
 20
37.62922695983204
 30
0.0
  0
ENDBLK
  5
4FC
330
4EF
100
AcDbEntity
  8
0
100
AcDbBlockEnd
  0
BLOCK
  5
4FE
330
4FD
100
AcDbEntity
  8
0
100
AcDbBlockBegin
  2
*D5
 70
     1
 10
0.0
 20
0.0
 30
0.0
  3
*D5
  1

  0
LINE
  5
4FF
330
4FD
100
AcDbEntity
  8
0
 62
     0
100
AcDbLine
 10
285.9067930687817
 20
36.8293227657284
 30
0.0
 11
285.9067930687817
 21
37.50217866421515
 31
0.0
  0
LINE
  5
500
330
4FD
100
AcDbEntity
  8
0
 62
     0
100
AcDbLine
 10
286.7067930687816
 20
36.8293227657284
 30
0.0
 11
286.7067930687816
 21
37.50217866421515
 31
0.0
  0
LINE
  5
501
330
4FD
100
AcDbEntity
  8
0
 62
     0
100
AcDbLine
 10
285.9067930687817
 20
37.41717866421515
 30
0.0
 11
286.096084451473
 21
37.41717866421515
 31
0.0
  0
LINE
  5
502
330
4FD
100
AcDbEntity
  8
0
 62
     0
100
AcDbLine
 10
286.7067930687816
 20
37.41717866421515
 30
0.0
 11
286.5027511181398
 21
37.41717866421515
 31
0.0
  0
INSERT
  5
503
330
4FD
100
AcDbEntity
  8
0
 62
     0
100
AcDbBlockReference
  2
_OBLIQUE
 10
285.9067930687817
 20
37.41717866421515
 30
0.0
 41
0.07
 42
0.07
 43
0.07
 50
180.0
  0
INSERT
  5
504
330
4FD
100
AcDbEntity
  8
0
 62
     0
100
AcDbBlockReference
  2
_OBLIQUE
 10
286.7067930687816
 20
37.41717866421515
 30
0.0
 41
0.07
 42
0.07
 43
0.07
  0
TEXT
  5
505
330
4FD
100
AcDbEntity
  8
0
 62
     0
100
AcDbText
 10
286.1577511181398
 20
37.37467866421515
 30
0.0
 40
0.085
  1
0.80
100
AcDbText
  0
POINT
  5
506
330
4FD
100
AcDbEntity
  8
DEFPOINTS
 62
     0
100
AcDbPoint
 10
285.9067930687817
 20
36.7668227657284
 30
0.0
  0
POINT
  5
507
330
4FD
100
AcDbEntity
  8
DEFPOINTS
 62
     0
100
AcDbPoint
 10
286.7067930687816
 20
36.7668227657284
 30
0.0
  0
POINT
  5
508
330
4FD
100
AcDbEntity
  8
DEFPOINTS
 62
     0
100
AcDbPoint
 10
286.7067930687816
 20
37.41717866421515
 30
0.0
  0
ENDBLK
  5
509
330
4FD
100
AcDbEntity
  8
0
100
AcDbBlockEnd
  0
BLOCK
  5
50B
330
50A
100
AcDbEntity
  8
0
100
AcDbBlockBegin
  2
*D6
 70
     1
 10
0.0
 20
0.0
 30
0.0
  3
*D6
  1

  0
LINE
  5
50C
330
50A
100
AcDbEntity
  8
0
 62
     0
100
AcDbLine
 10
286.2442930687818
 20
37.16682276572888
 30
0.0
 11
285.4680481156805
 21
37.16682276572888
 31
0.0
  0
LINE
  5
50D
330
50A
100
AcDbEntity
  8
0
 62
     0
100
AcDbLine
 10
286.3692930687818
 20
35.56682276572887
 30
0.0
 11
285.4680481156805
 21
35.56682276572887
 31
0.0
  0
LINE
  5
50E
330
50A
100
AcDbEntity
  8
0
 62
     0
100
AcDbLine
 10
285.5530481156806
 20
37.16682276572888
 30
0.0
 11
285.5530481156806
 21
36.49932276572886
 31
0.0
  0
LINE
  5
50F
330
50A
100
AcDbEntity
  8
0
 62
     0
100
AcDbLine
 10
285.5530481156806
 20
35.56682276572887
 30
0.0
 11
285.5530481156806
 21
36.23432276572887
 31
0.0
  0
INSERT
  5
510
330
50A
100
AcDbEntity
  8
0
 62
     0
100
AcDbBlockReference
  2
_OBLIQUE
 10
285.5530481156806
 20
37.16682276572888
 30
0.0
 41
0.07
 42
0.07
 43
0.07
 50
90.0
  0
INSERT
  5
511
330
50A
100
AcDbEntity
  8
0
 62
     0
100
AcDbBlockReference
  2
_OBLIQUE
 10
285.5530481156806
 20
35.56682276572887
 30
0.0
 41
0.07
 42
0.07
 43
0.07
 50
270.0
  0
TEXT
  5
512
330
50A
100
AcDbEntity
  8
0
 62
     0
100
AcDbText
 10
285.4053100204426
 20
36.32432276572893
 30
0.0
 40
0.085
  1
1.60
100
AcDbText
  0
POINT
  5
513
330
50A
100
AcDbEntity
  8
DEFPOINTS
 62
     0
100
AcDbPoint
 10
286.3067930687818
 20
37.16682276572888
 30
0.0
  0
POINT
  5
514
330
50A
100
AcDbEntity
  8
DEFPOINTS
 62
     0
100
AcDbPoint
 10
286.4317930687818
 20
35.56682276572887
 30
0.0
  0
POINT
  5
515
330
50A
100
AcDbEntity
  8
DEFPOINTS
 62
     0
100
AcDbPoint
 10
285.5530481156806
 20
35.56682276572887
 30
0.0
  0
ENDBLK
  5
516
330
50A
100
AcDbEntity
  8
0
100
AcDbBlockEnd
  0
BLOCK
  5
518
330
517
100
AcDbEntity
  8
0
100
AcDbBlockBegin
  2
*D7
 70
     1
 10
0.0
 20
0.0
 30
0.0
  3
*D7
  1

  0
LINE
  5
519
330
517
100
AcDbEntity
  8
0
 62
     0
100
AcDbLine
 10
286.7692930687816
 20
36.76682276572885
 30
0.0
 11
287.0428508084799
 21
36.76682276572885
 31
0.0
  0
LINE
  5
51A
330
517
100
AcDbEntity
  8
0
 62
     0
100
AcDbLine
 10
286.6942930687818
 20
35.71682276572884
 30
0.0
 11
287.0428508084799
 21
35.71682276572884
 31
0.0
  0
LINE
  5
51B
330
517
100
AcDbEntity
  8
0
 62
     0
100
AcDbLine
 10
286.9578508084799
 20
36.76682276572885
 30
0.0
 11
286.9578508084799
 21
36.37432276572885
 31
0.0
  0
LINE
  5
51C
330
517
100
AcDbEntity
  8
0
 62
     0
100
AcDbLine
 10
286.9578508084799
 20
35.71682276572884
 30
0.0
 11
286.9578508084799
 21
36.10932276572885
 31
0.0
  0
INSERT
  5
51D
330
517
100
AcDbEntity
  8
0
 62
     0
100
AcDbBlockReference
  2
_OBLIQUE
 10
286.9578508084799
 20
36.76682276572885
 30
0.0
 41
0.07
 42
0.07
 43
0.07
 50
90.0
  0
INSERT
  5
51E
330
517
100
AcDbEntity
  8
0
 62
     0
100
AcDbBlockReference
  2
_OBLIQUE
 10
286.9578508084799
 20
35.71682276572884
 30
0.0
 41
0.07
 42
0.07
 43
0.07
 50
270.0
  0
TEXT
  5
51F
330
517
100
AcDbEntity
  8
0
 62
     0
100
AcDbText
 10
286.8101127132419
 20
36.19932276572888
 30
0.0
 40
0.085
  1
1.05
100
AcDbText
  0
POINT
  5
520
330
517
100
AcDbEntity
  8
DEFPOINTS
 62
     0
100
AcDbPoint
 10
286.7067930687816
 20
36.76682276572885
 30
0.0
  0
POINT
  5
521
330
517
100
AcDbEntity
  8
DEFPOINTS
 62
     0
100
AcDbPoint
 10
286.6317930687817
 20
35.71682276572884
 30
0.0
  0
POINT
  5
522
330
517
100
AcDbEntity
  8
DEFPOINTS
 62
     0
100
AcDbPoint
 10
286.9578508084799
 20
35.71682276572884
 30
0.0
  0
ENDBLK
  5
523
330
517
100
AcDbEntity
  8
0
100
AcDbBlockEnd
  0
BLOCK
  5
525
330
524
100
AcDbEntity
  8
0
100
AcDbBlockBegin
  2
*D8
 70
     1
 10
0.0
 20
0.0
 30
0.0
  3
*D8
  1

  0
LINE
  5
526
330
524
100
AcDbEntity
  8
0
 62
     0
100
AcDbLine
 10
286.6942930687818
 20
35.71682276572884
 30
0.0
 11
287.0428508084799
 21
35.71682276572884
 31
0.0
  0
LINE
  5
527
330
524
100
AcDbEntity
  8
0
 62
     0
100
AcDbLine
 10
286.4942930687817
 20
35.56682276572887
 30
0.0
 11
287.0428508084799
 21
35.56682276572887
 31
0.0
  0
LINE
  5
528
330
524
100
AcDbEntity
  8
0
 62
     0
100
AcDbLine
 10
286.9578508084799
 20
35.71682276572884
 30
0.0
 11
286.9578508084799
 21
35.78682276572884
 31
0.0
  0
LINE
  5
529
330
524
100
AcDbEntity
  8
0
 62
     0
100
AcDbLine
 10
286.9578508084799
 20
35.56682276572887
 30
0.0
 11
286.9578508084799
 21
35.49682276572887
 31
0.0
  0
INSERT
  5
52A
330
524
100
AcDbEntity
  8
0
 62
     0
100
AcDbBlockReference
  2
_OBLIQUE
 10
286.9578508084799
 20
35.71682276572884
 30
0.0
 41
0.07
 42
0.07
 43
0.07
 50
270.0
  0
INSERT
  5
52B
330
524
100
AcDbEntity
  8
0
 62
     0
100
AcDbBlockReference
  2
_OBLIQUE
 10
286.9578508084799
 20
35.56682276572887
 30
0.0
 41
0.07
 42
0.07
 43
0.07
 50
90.0
  0
TEXT
  5
52C
330
524
100
AcDbEntity
  8
0
 62
     0
100
AcDbText
 10
286.8161841418134
 20
35.5993227657289
 30
0.0
 40
0.085
  1
0.15
100
AcDbText
  0
POINT
  5
52D
330
524
100
AcDbEntity
  8
DEFPOINTS
 62
     0
100
AcDbPoint
 10
286.6317930687817
 20
35.71682276572884
 30
0.0
  0
POINT
  5
52E
330
524
100
AcDbEntity
  8
DEFPOINTS
 62
     0
100
AcDbPoint
 10
286.4317930687818
 20
35.56682276572887
 30
0.0
  0
POINT
  5
52F
330
524
100
AcDbEntity
  8
DEFPOINTS
 62
     0
100
AcDbPoint
 10
286.9578508084799
 20
35.56682276572887
 30
0.0
  0
ENDBLK
  5
530
330
524
100
AcDbEntity
  8
0
100
AcDbBlockEnd
  0
BLOCK
  5
532
330
531
100
AcDbEntity
  8
0
100
AcDbBlockBegin
  2
*D9
 70
     1
 10
0.0
 20
0.0
 30
0.0
  3
*D9
  1

  0
LINE
  5
533
330
531
100
AcDbEntity
  8
0
 62
     0
100
AcDbLine
 10
285.9817930687818
 20
35.65432276572884
 30
0.0
 11
285.9817930687818
 21
35.19749594048728
 31
0.0
  0
LINE
  5
534
330
531
100
AcDbEntity
  8
0
 62
     0
100
AcDbLine
 10
286.2317930687818
 20
35.65432276572883
 30
0.0
 11
286.2317930687818
 21
35.19749594048728
 31
0.0
  0
LINE
  5
535
330
531
100
AcDbEntity
  8
0
 62
     0
100
AcDbLine
 10
286.2317930687818
 20
35.28249594048729
 30
0.0
 11
286.3017930687817
 21
35.28249594048729
 31
0.0
  0
LINE
  5
536
330
531
100
AcDbEntity
  8
0
 62
     0
100
AcDbLine
 10
285.9817930687818
 20
35.28249594048729
 30
0.0
 11
285.8117930687818
 21
35.28249594048729
 31
0.0
  0
INSERT
  5
537
330
531
100
AcDbEntity
  8
0
 62
     0
100
AcDbBlockReference
  2
_OBLIQUE
 10
286.2317930687818
 20
35.28249594048729
 30
0.0
 41
0.07
 42
0.07
 43
0.07
 50
180.0
  0
INSERT
  5
538
330
531
100
AcDbEntity
  8
0
 62
     0
100
AcDbBlockReference
  2
_OBLIQUE
 10
285.9817930687818
 20
35.28249594048729
 30
0.0
 41
0.07
 42
0.07
 43
0.07
  0
TEXT
  5
539
330
531
100
AcDbEntity
  8
0
 62
     0
100
AcDbText
 10
285.4597097354485
 20
35.23999594048729
 30
0.0
 40
0.085
  1
0.25
100
AcDbText
  0
POINT
  5
53A
330
531
100
AcDbEntity
  8
DEFPOINTS
 62
     0
100
AcDbPoint
 10
285.9817930687818
 20
35.71682276572884
 30
0.0
  0
POINT
  5
53B
330
531
100
AcDbEntity
  8
DEFPOINTS
 62
     0
100
AcDbPoint
 10
286.2317930687818
 20
35.71682276572882
 30
0.0
  0
POINT
  5
53C
330
531
100
AcDbEntity
  8
DEFPOINTS
 62
     0
100
AcDbPoint
 10
286.2317930687818
 20
35.28249594048729
 30
0.0
  0
ENDBLK
  5
53D
330
531
100
AcDbEntity
  8
0
100
AcDbBlockEnd
  0
BLOCK
  5
53F
330
53E
100
AcDbEntity
  8
0
100
AcDbBlockBegin
  2
*D10
 70
     1
 10
0.0
 20
0.0
 30
0.0
  3
*D10
  1

  0
LINE
  5
540
330
53E
100
AcDbEntity
  8
0
 62
     0
100
AcDbLine
 10
286.2317930687818
 20
35.65432276572883
 30
0.0
 11
286.2317930687818
 21
35.19749594048728
 31
0.0
  0
LINE
  5
541
330
53E
100
AcDbEntity
  8
0
 62
     0
100
AcDbLine
 10
286.6317930687817
 20
35.65432276572884
 30
0.0
 11
286.6317930687817
 21
35.19749594048728
 31
0.0
  0
LINE
  5
542
330
53E
100
AcDbEntity
  8
0
 62
     0
100
AcDbLine
 10
286.2317930687818
 20
35.28249594048729
 30
0.0
 11
286.1617930687817
 21
35.28249594048729
 31
0.0
  0
LINE
  5
543
330
53E
100
AcDbEntity
  8
0
 62
     0
100
AcDbLine
 10
286.6317930687817
 20
35.28249594048729
 30
0.0
 11
286.7017930687818
 21
35.28249594048729
 31
0.0
  0
INSERT
  5
544
330
53E
100
AcDbEntity
  8
0
 62
     0
100
AcDbBlockReference
  2
_OBLIQUE
 10
286.2317930687818
 20
35.28249594048729
 30
0.0
 41
0.07
 42
0.07
 43
0.07
  0
INSERT
  5
545
330
53E
100
AcDbEntity
  8
0
 62
     0
100
AcDbBlockReference
  2
_OBLIQUE
 10
286.6317930687817
 20
35.28249594048729
 30
0.0
 41
0.07
 42
0.07
 43
0.07
 50
180.0
  0
TEXT
  5
546
330
53E
100
AcDbEntity
  8
0
 62
     0
100
AcDbText
 10
286.3087171388071
 20
35.23999594048729
 30
0.0
 40
0.085
  1
0.40
100
AcDbText
  0
POINT
  5
547
330
53E
100
AcDbEntity
  8
DEFPOINTS
 62
     0
100
AcDbPoint
 10
286.2317930687818
 20
35.71682276572882
 30
0.0
  0
POINT
  5
548
330
53E
100
AcDbEntity
  8
DEFPOINTS
 62
     0
100
AcDbPoint
 10
286.6317930687817
 20
35.71682276572884
 30
0.0
  0
POINT
  5
549
330
53E
100
AcDbEntity
  8
DEFPOINTS
 62
     0
100
AcDbPoint
 10
286.6317930687817
 20
35.28249594048729
 30
0.0
  0
ENDBLK
  5
54A
330
53E
100
AcDbEntity
  8
0
100
AcDbBlockEnd
  0
BLOCK
  5
54C
330
54B
100
AcDbEntity
  8
0
100
AcDbBlockBegin
  2
*D11
 70
     1
 10
0.0
 20
0.0
 30
0.0
  3
*D11
  1

  0
LINE
  5
54D
330
54B
100
AcDbEntity
  8
0
 62
     0
100
AcDbLine
 10
285.9817930687818
 20
35.65432276572884
 30
0.0
 11
285.9817930687818
 21
34.93006479813493
 31
0.0
  0
LINE
  5
54E
330
54B
100
AcDbEntity
  8
0
 62
     0
100
AcDbLine
 10
286.6317930687817
 20
35.65432276572884
 30
0.0
 11
286.6317930687817
 21
34.93006479813493
 31
0.0
  0
LINE
  5
54F
330
54B
100
AcDbEntity
  8
0
 62
     0
100
AcDbLine
 10
285.9817930687818
 20
35.01506479813492
 30
0.0
 11
286.1051234658495
 21
35.01506479813492
 31
0.0
  0
LINE
  5
550
330
54B
100
AcDbEntity
  8
0
 62
     0
100
AcDbLine
 10
286.6317930687817
 20
35.01506479813492
 30
0.0
 11
286.5259567991829
 21
35.01506479813492
 31
0.0
  0
INSERT
  5
551
330
54B
100
AcDbEntity
  8
0
 62
     0
100
AcDbBlockReference
  2
_OBLIQUE
 10
285.9817930687818
 20
35.01506479813492
 30
0.0
 41
0.07
 42
0.07
 43
0.07
 50
180.0
  0
INSERT
  5
552
330
54B
100
AcDbEntity
  8
0
 62
     0
100
AcDbBlockReference
  2
_OBLIQUE
 10
286.6317930687817
 20
35.01506479813492
 30
0.0
 41
0.07
 42
0.07
 43
0.07
  0
TEXT
  5
553
330
54B
100
AcDbEntity
  8
0
 62
     0
100
AcDbText
 10
286.1738734658496
 20
34.97256479813492
 30
0.0
 40
0.085
  1
0.65
100
AcDbText
  0
POINT
  5
554
330
54B
100
AcDbEntity
  8
DEFPOINTS
 62
     0
100
AcDbPoint
 10
285.9817930687818
 20
35.71682276572884
 30
0.0
  0
POINT
  5
555
330
54B
100
AcDbEntity
  8
DEFPOINTS
 62
     0
100
AcDbPoint
 10
286.6317930687817
 20
35.71682276572884
 30
0.0
  0
POINT
  5
556
330
54B
100
AcDbEntity
  8
DEFPOINTS
 62
     0
100
AcDbPoint
 10
286.6317930687817
 20
35.01506479813492
 30
0.0
  0
ENDBLK
  5
557
330
54B
100
AcDbEntity
  8
0
100
AcDbBlockEnd
  0
BLOCK
  5
559
330
558
100
AcDbEntity
  8
0
100
AcDbBlockBegin
  2
*D12
 70
     1
 10
0.0
 20
0.0
 30
0.0
  3
*D12
  1

  0
LINE
  5
55A
330
558
100
AcDbEntity
  8
0
 62
     0
100
AcDbLine
 10
285.9067930687817
 20
36.8293227657284
 30
0.0
 11
285.9067930687817
 21
37.50217866421515
 31
0.0
  0
LINE
  5
55B
330
558
100
AcDbEntity
  8
0
 62
     0
100
AcDbLine
 10
286.7067930687816
 20
36.8293227657284
 30
0.0
 11
286.7067930687816
 21
37.50217866421515
 31
0.0
  0
LINE
  5
55C
330
558
100
AcDbEntity
  8
0
 62
     0
100
AcDbLine
 10
285.9767930687817
 20
37.41717866421515
 30
0.0
 11
286.0798939752827
 21
37.41717866421515
 31
0.0
  0
LINE
  5
55D
330
558
100
AcDbEntity
  8
0
 62
     0
100
AcDbLine
 10
286.6367930687816
 20
37.41717866421515
 30
0.0
 11
286.5189415943302
 21
37.41717866421515
 31
0.0
  0
TEXT
  5
55E
330
558
100
AcDbEntity
  8
0
 62
     0
100
AcDbText
 10
286.1577511181398
 20
37.37467866421515
 30
0.0
 40
0.085
  1
0.80
100
AcDbText
  0
SOLID
  5
55F
330
558
100
AcDbEntity
  8
0
 62
     0
100
AcDbTrace
 10
285.9767930687817
 20
37.42884533088183
 30
0.0
 11
285.9767930687817
 21
37.40551199754849
 31
0.0
 12
285.9067930687817
 22
37.41717866421515
 32
0.0
 13
285.9067930687817
 23
37.41717866421515
 33
0.0
  0
SOLID
  5
560
330
558
100
AcDbEntity
  8
0
 62
     0
100
AcDbTrace
 10
286.6367930687816
 20
37.42884533088183
 30
0.0
 11
286.6367930687816
 21
37.40551199754849
 31
0.0
 12
286.7067930687816
 22
37.41717866421515
 32
0.0
 13
286.7067930687816
 23
37.41717866421515
 33
0.0
  0
POINT
  5
561
330
558
100
AcDbEntity
  8
DEFPOINTS
 62
     0
100
AcDbPoint
 10
285.9067930687817
 20
36.7668227657284
 30
0.0
  0
POINT
  5
562
330
558
100
AcDbEntity
  8
DEFPOINTS
 62
     0
100
AcDbPoint
 10
286.7067930687816
 20
36.7668227657284
 30
0.0
  0
POINT
  5
563
330
558
100
AcDbEntity
  8
DEFPOINTS
 62
     0
100
AcDbPoint
 10
286.7067930687816
 20
37.41717866421515
 30
0.0
  0
ENDBLK
  5
564
330
558
100
AcDbEntity
  8
0
100
AcDbBlockEnd
  0
BLOCK
  5
566
330
565
100
AcDbEntity
  8
0
100
AcDbBlockBegin
  2
*D13
 70
     1
 10
0.0
 20
0.0
 30
0.0
  3
*D13
  1

  0
LINE
  5
567
330
565
100
AcDbEntity
  8
0
 62
     0
100
AcDbLine
 10
286.2442930687818
 20
37.16682276572888
 30
0.0
 11
285.4680481156805
 21
37.16682276572888
 31
0.0
  0
LINE
  5
568
330
565
100
AcDbEntity
  8
0
 62
     0
100
AcDbLine
 10
286.3692930687818
 20
35.56682276572887
 30
0.0
 11
285.4680481156805
 21
35.56682276572887
 31
0.0
  0
LINE
  5
569
330
565
100
AcDbEntity
  8
0
 62
     0
100
AcDbLine
 10
285.5530481156806
 20
37.09682276572888
 30
0.0
 11
285.5530481156806
 21
36.49932276572888
 31
0.0
  0
LINE
  5
56A
330
565
100
AcDbEntity
  8
0
 62
     0
100
AcDbLine
 10
285.5530481156806
 20
35.63682276572887
 30
0.0
 11
285.5530481156806
 21
36.23432276572888
 31
0.0
  0
TEXT
  5
56B
330
565
100
AcDbEntity
  8
0
 62
     0
100
AcDbText
 10
285.4053100204425
 20
36.32432276572894
 30
0.0
 40
0.085
  1
1.60
100
AcDbText
  0
SOLID
  5
56C
330
565
100
AcDbEntity
  8
0
 62
     0
100
AcDbTrace
 10
285.5413814490138
 20
37.09682276572888
 30
0.0
 11
285.5647147823471
 21
37.09682276572888
 31
0.0
 12
285.5530481156806
 22
37.16682276572888
 32
0.0
 13
285.5530481156806
 23
37.16682276572888
 33
0.0
  0
SOLID
  5
56D
330
565
100
AcDbEntity
  8
0
 62
     0
100
AcDbTrace
 10
285.5413814490138
 20
35.63682276572887
 30
0.0
 11
285.5647147823471
 21
35.63682276572887
 31
0.0
 12
285.5530481156806
 22
35.56682276572887
 32
0.0
 13
285.5530481156806
 23
35.56682276572887
 33
0.0
  0
POINT
  5
56E
330
565
100
AcDbEntity
  8
DEFPOINTS
 62
     0
100
AcDbPoint
 10
286.3067930687818
 20
37.16682276572888
 30
0.0
  0
POINT
  5
56F
330
565
100
AcDbEntity
  8
DEFPOINTS
 62
     0
100
AcDbPoint
 10
286.4317930687818
 20
35.56682276572887
 30
0.0
  0
POINT
  5
570
330
565
100
AcDbEntity
  8
DEFPOINTS
 62
     0
100
AcDbPoint
 10
285.5530481156806
 20
35.56682276572887
 30
0.0
  0
ENDBLK
  5
571
330
565
100
AcDbEntity
  8
0
100
AcDbBlockEnd
  0
BLOCK
  5
573
330
572
100
AcDbEntity
  8
0
100
AcDbBlockBegin
  2
*D14
 70
     1
 10
0.0
 20
0.0
 30
0.0
  3
*D14
  1

  0
LINE
  5
574
330
572
100
AcDbEntity
  8
0
 62
     0
100
AcDbLine
 10
286.7692930687816
 20
36.76682276572885
 30
0.0
 11
287.0428508084799
 21
36.76682276572885
 31
0.0
  0
LINE
  5
575
330
572
100
AcDbEntity
  8
0
 62
     0
100
AcDbLine
 10
286.6942930687816
 20
35.71682276572884
 30
0.0
 11
287.0428508084799
 21
35.71682276572884
 31
0.0
  0
LINE
  5
576
330
572
100
AcDbEntity
  8
0
 62
     0
100
AcDbLine
 10
286.9578508084799
 20
36.69682276572884
 30
0.0
 11
286.9578508084799
 21
36.37432276572885
 31
0.0
  0
LINE
  5
577
330
572
100
AcDbEntity
  8
0
 62
     0
100
AcDbLine
 10
286.9578508084799
 20
35.78682276572884
 30
0.0
 11
286.9578508084799
 21
36.10932276572885
 31
0.0
  0
SOLID
  5
578
330
572
100
AcDbEntity
  8
0
 62
     0
100
AcDbTrace
 10
286.9461841418132
 20
36.69682276572884
 30
0.0
 11
286.9695174751465
 21
36.69682276572884
 31
0.0
 12
286.9578508084799
 22
36.76682276572885
 32
0.0
 13
286.9578508084799
 23
36.76682276572885
 33
0.0
  0
SOLID
  5
579
330
572
100
AcDbEntity
  8
0
 62
     0
100
AcDbTrace
 10
286.9461841418132
 20
35.78682276572884
 30
0.0
 11
286.9695174751465
 21
35.78682276572884
 31
0.0
 12
286.9578508084799
 22
35.71682276572884
 32
0.0
 13
286.9578508084799
 23
35.71682276572884
 33
0.0
  0
TEXT
  5
57A
330
572
100
AcDbEntity
  8
0
 62
     0
100
AcDbText
 10
286.8101127132419
 20
36.1993227657289
 30
0.0
 40
0.085
  1
1.05
100
AcDbText
  0
POINT
  5
57B
330
572
100
AcDbEntity
  8
DEFPOINTS
 62
     0
100
AcDbPoint
 10
286.7067930687816
 20
36.76682276572885
 30
0.0
  0
POINT
  5
57C
330
572
100
AcDbEntity
  8
DEFPOINTS
 62
     0
100
AcDbPoint
 10
286.6317930687817
 20
35.71682276572884
 30
0.0
  0
POINT
  5
57D
330
572
100
AcDbEntity
  8
DEFPOINTS
 62
     0
100
AcDbPoint
 10
286.9578508084799
 20
35.71682276572884
 30
0.0
  0
ENDBLK
  5
57E
330
572
100
AcDbEntity
  8
0
100
AcDbBlockEnd
  0
BLOCK
  5
580
330
57F
100
AcDbEntity
  8
0
100
AcDbBlockBegin
  2
*D15
 70
     1
 10
0.0
 20
0.0
 30
0.0
  3
*D15
  1

  0
LINE
  5
581
330
57F
100
AcDbEntity
  8
0
 62
     0
100
AcDbLine
 10
286.6942930687816
 20
35.71682276572884
 30
0.0
 11
287.0428508084799
 21
35.71682276572884
 31
0.0
  0
LINE
  5
582
330
57F
100
AcDbEntity
  8
0
 62
     0
100
AcDbLine
 10
286.4942930687817
 20
35.56682276572887
 30
0.0
 11
287.0428508084799
 21
35.56682276572887
 31
0.0
  0
LINE
  5
583
330
57F
100
AcDbEntity
  8
0
 62
     0
100
AcDbLine
 10
286.9578508084799
 20
35.78682276572884
 30
0.0
 11
286.9578508084799
 21
35.85682276572884
 31
0.0
  0
LINE
  5
584
330
57F
100
AcDbEntity
  8
0
 62
     0
100
AcDbLine
 10
286.9578508084799
 20
35.49682276572887
 30
0.0
 11
286.9578508084799
 21
35.42682276572887
 31
0.0
  0
TEXT
  5
585
330
57F
100
AcDbEntity
  8
0
 62
     0
100
AcDbText
 10
286.8161841418132
 20
35.5993227657289
 30
0.0
 40
0.085
  1
0.15
100
AcDbText
  0
SOLID
  5
586
330
57F
100
AcDbEntity
  8
0
 62
     0
100
AcDbTrace
 10
286.9461841418132
 20
35.78682276572884
 30
0.0
 11
286.9695174751465
 21
35.78682276572884
 31
0.0
 12
286.9578508084799
 22
35.71682276572884
 32
0.0
 13
286.9578508084799
 23
35.71682276572884
 33
0.0
  0
SOLID
  5
587
330
57F
100
AcDbEntity
  8
0
 62
     0
100
AcDbTrace
 10
286.9461841418132
 20
35.49682276572887
 30
0.0
 11
286.9695174751465
 21
35.49682276572887
 31
0.0
 12
286.9578508084799
 22
35.56682276572887
 32
0.0
 13
286.9578508084799
 23
35.56682276572887
 33
0.0
  0
POINT
  5
588
330
57F
100
AcDbEntity
  8
DEFPOINTS
 62
     0
100
AcDbPoint
 10
286.6317930687817
 20
35.71682276572884
 30
0.0
  0
POINT
  5
589
330
57F
100
AcDbEntity
  8
DEFPOINTS
 62
     0
100
AcDbPoint
 10
286.4317930687818
 20
35.56682276572887
 30
0.0
  0
POINT
  5
58A
330
57F
100
AcDbEntity
  8
DEFPOINTS
 62
     0
100
AcDbPoint
 10
286.9578508084799
 20
35.56682276572887
 30
0.0
  0
ENDBLK
  5
58B
330
57F
100
AcDbEntity
  8
0
100
AcDbBlockEnd
  0
BLOCK
  5
58D
330
58C
100
AcDbEntity
  8
0
100
AcDbBlockBegin
  2
*D16
 70
     1
 10
0.0
 20
0.0
 30
0.0
  3
*D16
  1

  0
LINE
  5
58E
330
58C
100
AcDbEntity
  8
0
 62
     0
100
AcDbLine
 10
285.9817930687818
 20
35.65432276572884
 30
0.0
 11
285.9817930687818
 21
35.19749594048728
 31
0.0
  0
LINE
  5
58F
330
58C
100
AcDbEntity
  8
0
 62
     0
100
AcDbLine
 10
286.2317930687818
 20
35.65432276572883
 30
0.0
 11
286.2317930687818
 21
35.19749594048728
 31
0.0
  0
LINE
  5
590
330
58C
100
AcDbEntity
  8
0
 62
     0
100
AcDbLine
 10
285.9117930687817
 20
35.28249594048729
 30
0.0
 11
285.8417930687817
 21
35.28249594048729
 31
0.0
  0
LINE
  5
591
330
58C
100
AcDbEntity
  8
0
 62
     0
100
AcDbLine
 10
286.3017930687817
 20
35.28249594048729
 30
0.0
 11
286.3717930687818
 21
35.28249594048729
 31
0.0
  0
TEXT
  5
592
330
58C
100
AcDbEntity
  8
0
 62
     0
100
AcDbText
 10
285.4597097354484
 20
35.23999594048729
 30
0.0
 40
0.085
  1
0.25
100
AcDbText
  0
SOLID
  5
593
330
58C
100
AcDbEntity
  8
0
 62
     0
100
AcDbTrace
 10
285.9117930687817
 20
35.29416260715395
 30
0.0
 11
285.9117930687817
 21
35.27082927382061
 31
0.0
 12
285.9817930687818
 22
35.28249594048729
 32
0.0
 13
285.9817930687818
 23
35.28249594048729
 33
0.0
  0
SOLID
  5
594
330
58C
100
AcDbEntity
  8
0
 62
     0
100
AcDbTrace
 10
286.3017930687817
 20
35.29416260715395
 30
0.0
 11
286.3017930687817
 21
35.27082927382061
 31
0.0
 12
286.2317930687818
 22
35.28249594048729
 32
0.0
 13
286.2317930687818
 23
35.28249594048729
 33
0.0
  0
POINT
  5
595
330
58C
100
AcDbEntity
  8
DEFPOINTS
 62
     0
100
AcDbPoint
 10
285.9817930687818
 20
35.71682276572884
 30
0.0
  0
POINT
  5
596
330
58C
100
AcDbEntity
  8
DEFPOINTS
 62
     0
100
AcDbPoint
 10
286.2317930687818
 20
35.71682276572882
 30
0.0
  0
POINT
  5
597
330
58C
100
AcDbEntity
  8
DEFPOINTS
 62
     0
100
AcDbPoint
 10
286.2317930687818
 20
35.28249594048729
 30
0.0
  0
ENDBLK
  5
598
330
58C
100
AcDbEntity
  8
0
100
AcDbBlockEnd
  0
BLOCK
  5
59A
330
599
100
AcDbEntity
  8
0
100
AcDbBlockBegin
  2
*D17
 70
     1
 10
0.0
 20
0.0
 30
0.0
  3
*D17
  1

  0
LINE
  5
59B
330
599
100
AcDbEntity
  8
0
 62
     0
100
AcDbLine
 10
286.2317930687818
 20
35.65432276572883
 30
0.0
 11
286.2317930687818
 21
35.19749594048728
 31
0.0
  0
LINE
  5
59C
330
599
100
AcDbEntity
  8
0
 62
     0
100
AcDbLine
 10
286.6317930687817
 20
35.65432276572884
 30
0.0
 11
286.6317930687817
 21
35.19749594048728
 31
0.0
  0
LINE
  5
59D
330
599
100
AcDbEntity
  8
0
 62
     0
100
AcDbLine
 10
286.3017930687817
 20
35.28249594048729
 30
0.0
 11
286.5617930687816
 21
35.28249594048729
 31
0.0
  0
TEXT
  5
59E
330
599
100
AcDbEntity
  8
0
 62
     0
100
AcDbText
 10
286.3087171388071
 20
35.23999594048729
 30
0.0
 40
0.085
  1
0.40
100
AcDbText
  0
SOLID
  5
59F
330
599
100
AcDbEntity
  8
0
 62
     0
100
AcDbTrace
 10
286.3017930687817
 20
35.29416260715395
 30
0.0
 11
286.3017930687817
 21
35.27082927382061
 31
0.0
 12
286.2317930687818
 22
35.28249594048729
 32
0.0
 13
286.2317930687818
 23
35.28249594048729
 33
0.0
  0
SOLID
  5
5A0
330
599
100
AcDbEntity
  8
0
 62
     0
100
AcDbTrace
 10
286.5617930687816
 20
35.29416260715395
 30
0.0
 11
286.5617930687816
 21
35.27082927382061
 31
0.0
 12
286.6317930687817
 22
35.28249594048729
 32
0.0
 13
286.6317930687817
 23
35.28249594048729
 33
0.0
  0
POINT
  5
5A1
330
599
100
AcDbEntity
  8
DEFPOINTS
 62
     0
100
AcDbPoint
 10
286.2317930687818
 20
35.71682276572882
 30
0.0
  0
POINT
  5
5A2
330
599
100
AcDbEntity
  8
DEFPOINTS
 62
     0
100
AcDbPoint
 10
286.6317930687817
 20
35.71682276572884
 30
0.0
  0
POINT
  5
5A3
330
599
100
AcDbEntity
  8
DEFPOINTS
 62
     0
100
AcDbPoint
 10
286.6317930687817
 20
35.28249594048729
 30
0.0
  0
ENDBLK
  5
5A4
330
599
100
AcDbEntity
  8
0
100
AcDbBlockEnd
  0
BLOCK
  5
5A6
330
5A5
100
AcDbEntity
  8
0
100
AcDbBlockBegin
  2
*D18
 70
     1
 10
0.0
 20
0.0
 30
0.0
  3
*D18
  1

  0
LINE
  5
5A7
330
5A5
100
AcDbEntity
  8
0
 62
     0
100
AcDbLine
 10
285.9817930687818
 20
35.65432276572884
 30
0.0
 11
285.9817930687818
 21
34.93006479813493
 31
0.0
  0
LINE
  5
5A8
330
5A5
100
AcDbEntity
  8
0
 62
     0
100
AcDbLine
 10
286.6317930687817
 20
35.65432276572884
 30
0.0
 11
286.6317930687817
 21
34.93006479813493
 31
0.0
  0
LINE
  5
5A9
330
5A5
100
AcDbEntity
  8
0
 62
     0
100
AcDbLine
 10
286.0517930687818
 20
35.01506479813492
 30
0.0
 11
286.0960163229923
 21
35.01506479813492
 31
0.0
  0
LINE
  5
5AA
330
5A5
100
AcDbEntity
  8
0
 62
     0
100
AcDbLine
 10
286.5617930687816
 20
35.01506479813492
 30
0.0
 11
286.53506394204
 21
35.01506479813492
 31
0.0
  0
TEXT
  5
5AB
330
5A5
100
AcDbEntity
  8
0
 62
     0
100
AcDbText
 10
286.1738734658496
 20
34.97256479813492
 30
0.0
 40
0.085
  1
0.65
100
AcDbText
  0
SOLID
  5
5AC
330
5A5
100
AcDbEntity
  8
0
 62
     0
100
AcDbTrace
 10
286.0517930687818
 20
35.02673146480159
 30
0.0
 11
286.0517930687818
 21
35.00339813146825
 31
0.0
 12
285.9817930687818
 22
35.01506479813492
 32
0.0
 13
285.9817930687818
 23
35.01506479813492
 33
0.0
  0
SOLID
  5
5AD
330
5A5
100
AcDbEntity
  8
0
 62
     0
100
AcDbTrace
 10
286.5617930687816
 20
35.02673146480159
 30
0.0
 11
286.5617930687816
 21
35.00339813146825
 31
0.0
 12
286.6317930687817
 22
35.01506479813492
 32
0.0
 13
286.6317930687817
 23
35.01506479813492
 33
0.0
  0
POINT
  5
5AE
330
5A5
100
AcDbEntity
  8
DEFPOINTS
 62
     0
100
AcDbPoint
 10
285.9817930687818
 20
35.71682276572884
 30
0.0
  0
POINT
  5
5AF
330
5A5
100
AcDbEntity
  8
DEFPOINTS
 62
     0
100
AcDbPoint
 10
286.6317930687817
 20
35.71682276572884
 30
0.0
  0
POINT
  5
5B0
330
5A5
100
AcDbEntity
  8
DEFPOINTS
 62
     0
100
AcDbPoint
 10
286.6317930687817
 20
35.01506479813492
 30
0.0
  0
ENDBLK
  5
5B1
330
5A5
100
AcDbEntity
  8
0
100
AcDbBlockEnd
  0
BLOCK
  5
5D0
330
5C5
100
AcDbEntity
  8
0
100
AcDbBlockBegin
  2
*D19
 70
     1
 10
0.0
 20
0.0
 30
0.0
  3
*D19
  1

  0
LINE
  5
6C0
330
5C5
100
AcDbEntity
  8
0
 62
     0
100
AcDbLine
 10
285.9067930687817
 20
36.8293227657284
 30
0.0
 11
285.9067930687817
 21
37.50217866421515
 31
0.0
  0
LINE
  5
6C1
330
5C5
100
AcDbEntity
  8
0
 62
     0
100
AcDbLine
 10
286.7067930687816
 20
36.8293227657284
 30
0.0
 11
286.7067930687816
 21
37.50217866421515
 31
0.0
  0
LINE
  5
6C2
330
5C5
100
AcDbEntity
  8
0
 62
     0
100
AcDbLine
 10
285.9067930687817
 20
37.41717866421515
 30
0.0
 11
286.0960844514731
 21
37.41717866421515
 31
0.0
  0
LINE
  5
6C3
330
5C5
100
AcDbEntity
  8
0
 62
     0
100
AcDbLine
 10
286.7067930687816
 20
37.41717866421515
 30
0.0
 11
286.5027511181398
 21
37.41717866421515
 31
0.0
  0
MTEXT
  5
6C4
330
5C5
100
AcDbEntity
  8
0
 62
     0
100
AcDbMText
 10
286.2994177848065
 20
37.41717866421515
 30
0.0
 40
0.085
 41
0.0
 71
     5
 72
     1
  1
\A1;0.80
1001
ACAD
1000
MTEXTBEGIN
1070
    73
1070
     1
1070
    44
1040
1.0
1070
    74
1070
     0
1000
MTEXTEND
  0
INSERT
  5
6C5
330
5C5
100
AcDbEntity
  8
0
 62
     0
100
AcDbBlockReference
  2
_OBLIQUE
 10
285.9067930687817
 20
37.41717866421515
 30
0.0
 41
0.07
 42
0.07
 43
0.07
 50
180.0
  0
INSERT
  5
6C6
330
5C5
100
AcDbEntity
  8
0
 62
     0
100
AcDbBlockReference
  2
_OBLIQUE
 10
286.7067930687816
 20
37.41717866421515
 30
0.0
 41
0.07
 42
0.07
 43
0.07
  0
POINT
  5
6C7
330
5C5
100
AcDbEntity
  8
DEFPOINTS
 62
     0
100
AcDbPoint
 10
285.9067930687817
 20
36.7668227657284
 30
0.0
  0
POINT
  5
6C8
330
5C5
100
AcDbEntity
  8
DEFPOINTS
 62
     0
100
AcDbPoint
 10
286.7067930687816
 20
36.7668227657284
 30
0.0
  0
POINT
  5
6C9
330
5C5
100
AcDbEntity
  8
DEFPOINTS
 62
     0
100
AcDbPoint
 10
286.7067930687816
 20
37.41717866421515
 30
0.0
  0
ENDBLK
  5
5D1
330
5C5
100
AcDbEntity
  8
0
100
AcDbBlockEnd
  0
BLOCK
  5
5DE
330
5D3
100
AcDbEntity
  8
0
100
AcDbBlockBegin
  2
*D20
 70
     1
 10
0.0
 20
0.0
 30
0.0
  3
*D20
  1

  0
LINE
  5
6CA
330
5D3
100
AcDbEntity
  8
0
 62
     0
100
AcDbLine
 10
286.2442930687818
 20
37.16682276572888
 30
0.0
 11
285.4680481156806
 21
37.16682276572888
 31
0.0
  0
LINE
  5
6CB
330
5D3
100
AcDbEntity
  8
0
 62
     0
100
AcDbLine
 10
286.3692930687818
 20
35.56682276572887
 30
0.0
 11
285.4680481156806
 21
35.56682276572887
 31
0.0
  0
LINE
  5
6CC
330
5D3
100
AcDbEntity
  8
0
 62
     0
100
AcDbLine
 10
285.5530481156806
 20
37.16682276572888
 30
0.0
 11
285.5530481156806
 21
36.49932276572888
 31
0.0
  0
LINE
  5
6CD
330
5D3
100
AcDbEntity
  8
0
 62
     0
100
AcDbLine
 10
285.5530481156806
 20
35.56682276572887
 30
0.0
 11
285.5530481156806
 21
36.23432276572888
 31
0.0
  0
MTEXT
  5
6CE
330
5D3
100
AcDbEntity
  8
0
 62
     0
100
AcDbMText
 10
285.5530481156806
 20
36.36682276572893
 30
0.0
 40
0.085
 41
0.0
 71
     5
 72
     1
  1
\A1;1.60
1001
ACAD
1000
MTEXTBEGIN
1070
    73
1070
     1
1070
    44
1040
1.0
1070
    74
1070
     0
1000
MTEXTEND
  0
INSERT
  5
6CF
330
5D3
100
AcDbEntity
  8
0
 62
     0
100
AcDbBlockReference
  2
_OBLIQUE
 10
285.5530481156806
 20
37.16682276572888
 30
0.0
 41
0.07
 42
0.07
 43
0.07
 50
90.0
  0
INSERT
  5
6D0
330
5D3
100
AcDbEntity
  8
0
 62
     0
100
AcDbBlockReference
  2
_OBLIQUE
 10
285.5530481156806
 20
35.56682276572887
 30
0.0
 41
0.07
 42
0.07
 43
0.07
 50
270.0
  0
POINT
  5
6D1
330
5D3
100
AcDbEntity
  8
DEFPOINTS
 62
     0
100
AcDbPoint
 10
286.3067930687818
 20
37.16682276572888
 30
0.0
  0
POINT
  5
6D2
330
5D3
100
AcDbEntity
  8
DEFPOINTS
 62
     0
100
AcDbPoint
 10
286.4317930687818
 20
35.56682276572887
 30
0.0
  0
POINT
  5
6D3
330
5D3
100
AcDbEntity
  8
DEFPOINTS
 62
     0
100
AcDbPoint
 10
285.5530481156806
 20
35.56682276572887
 30
0.0
  0
ENDBLK
  5
5DF
330
5D3
100
AcDbEntity
  8
0
100
AcDbBlockEnd
  0
BLOCK
  5
5EC
330
5E1
100
AcDbEntity
  8
0
100
AcDbBlockBegin
  2
*D21
 70
     1
 10
0.0
 20
0.0
 30
0.0
  3
*D21
  1

  0
LINE
  5
6D4
330
5E1
100
AcDbEntity
  8
0
 62
     0
100
AcDbLine
 10
286.7692930687816
 20
36.76682276572885
 30
0.0
 11
287.0428508084799
 21
36.76682276572885
 31
0.0
  0
LINE
  5
6D5
330
5E1
100
AcDbEntity
  8
0
 62
     0
100
AcDbLine
 10
286.6942930687816
 20
35.71682276572884
 30
0.0
 11
287.0428508084799
 21
35.71682276572884
 31
0.0
  0
LINE
  5
6D6
330
5E1
100
AcDbEntity
  8
0
 62
     0
100
AcDbLine
 10
286.9578508084799
 20
36.76682276572885
 30
0.0
 11
286.9578508084799
 21
36.37432276572885
 31
0.0
  0
LINE
  5
6D7
330
5E1
100
AcDbEntity
  8
0
 62
     0
100
AcDbLine
 10
286.9578508084799
 20
35.71682276572884
 30
0.0
 11
286.9578508084799
 21
36.10932276572885
 31
0.0
  0
INSERT
  5
6D8
330
5E1
100
AcDbEntity
  8
0
 62
     0
100
AcDbBlockReference
  2
_OBLIQUE
 10
286.9578508084799
 20
36.76682276572885
 30
0.0
 41
0.07
 42
0.07
 43
0.07
 50
90.0
  0
INSERT
  5
6D9
330
5E1
100
AcDbEntity
  8
0
 62
     0
100
AcDbBlockReference
  2
_OBLIQUE
 10
286.9578508084799
 20
35.71682276572884
 30
0.0
 41
0.07
 42
0.07
 43
0.07
 50
270.0
  0
MTEXT
  5
6DA
330
5E1
100
AcDbEntity
  8
0
 62
     0
100
AcDbMText
 10
286.9578508084799
 20
36.2418227657289
 30
0.0
 40
0.085
 41
0.0
 71
     5
 72
     1
  1
\A1;1.05
1001
ACAD
1000
MTEXTBEGIN
1070
    73
1070
     1
1070
    44
1040
1.0
1070
    74
1070
     0
1000
MTEXTEND
  0
POINT
  5
6DB
330
5E1
100
AcDbEntity
  8
DEFPOINTS
 62
     0
100
AcDbPoint
 10
286.7067930687816
 20
36.76682276572885
 30
0.0
  0
POINT
  5
6DC
330
5E1
100
AcDbEntity
  8
DEFPOINTS
 62
     0
100
AcDbPoint
 10
286.6317930687817
 20
35.71682276572884
 30
0.0
  0
POINT
  5
6DD
330
5E1
100
AcDbEntity
  8
DEFPOINTS
 62
     0
100
AcDbPoint
 10
286.9578508084799
 20
35.71682276572884
 30
0.0
  0
ENDBLK
  5
5ED
330
5E1
100
AcDbEntity
  8
0
100
AcDbBlockEnd
  0
BLOCK
  5
5FA
330
5EF
100
AcDbEntity
  8
0
100
AcDbBlockBegin
  2
*D22
 70
     1
 10
0.0
 20
0.0
 30
0.0
  3
*D22
  1

  0
LINE
  5
6DE
330
5EF
100
AcDbEntity
  8
0
 62
     0
100
AcDbLine
 10
286.6942930687816
 20
35.71682276572884
 30
0.0
 11
287.0428508084799
 21
35.71682276572884
 31
0.0
  0
LINE
  5
6DF
330
5EF
100
AcDbEntity
  8
0
 62
     0
100
AcDbLine
 10
286.4942930687817
 20
35.56682276572887
 30
0.0
 11
287.0428508084799
 21
35.56682276572887
 31
0.0
  0
LINE
  5
6E0
330
5EF
100
AcDbEntity
  8
0
 62
     0
100
AcDbLine
 10
286.9578508084799
 20
35.71682276572884
 30
0.0
 11
286.9578508084799
 21
35.78682276572884
 31
0.0
  0
LINE
  5
6E1
330
5EF
100
AcDbEntity
  8
0
 62
     0
100
AcDbLine
 10
286.9578508084799
 20
35.56682276572887
 30
0.0
 11
286.9578508084799
 21
35.49682276572887
 31
0.0
  0
MTEXT
  5
6E2
330
5EF
100
AcDbEntity
  8
0
 62
     0
100
AcDbMText
 10
286.9578508084799
 20
35.64182276572889
 30
0.0
 40
0.085
 41
0.0
 71
     5
 72
     1
  1
\A1;0.15
1001
ACAD
1000
MTEXTBEGIN
1070
    73
1070
     1
1070
    44
1040
1.0
1070
    74
1070
     0
1000
MTEXTEND
  0
INSERT
  5
6E3
330
5EF
100
AcDbEntity
  8
0
 62
     0
100
AcDbBlockReference
  2
_OBLIQUE
 10
286.9578508084799
 20
35.71682276572884
 30
0.0
 41
0.07
 42
0.07
 43
0.07
 50
270.0
  0
INSERT
  5
6E4
330
5EF
100
AcDbEntity
  8
0
 62
     0
100
AcDbBlockReference
  2
_OBLIQUE
 10
286.9578508084799
 20
35.56682276572887
 30
0.0
 41
0.07
 42
0.07
 43
0.07
 50
90.0
  0
POINT
  5
6E5
330
5EF
100
AcDbEntity
  8
DEFPOINTS
 62
     0
100
AcDbPoint
 10
286.6317930687817
 20
35.71682276572884
 30
0.0
  0
POINT
  5
6E6
330
5EF
100
AcDbEntity
  8
DEFPOINTS
 62
     0
100
AcDbPoint
 10
286.4317930687818
 20
35.56682276572887
 30
0.0
  0
POINT
  5
6E7
330
5EF
100
AcDbEntity
  8
DEFPOINTS
 62
     0
100
AcDbPoint
 10
286.9578508084799
 20
35.56682276572887
 30
0.0
  0
ENDBLK
  5
5FB
330
5EF
100
AcDbEntity
  8
0
100
AcDbBlockEnd
  0
BLOCK
  5
608
330
5FD
100
AcDbEntity
  8
0
100
AcDbBlockBegin
  2
*D23
 70
     1
 10
0.0
 20
0.0
 30
0.0
  3
*D23
  1

  0
LINE
  5
706
330
5FD
100
AcDbEntity
  8
0
 62
     0
100
AcDbLine
 10
285.9817930687818
 20
35.65432276572884
 30
0.0
 11
285.9817930687818
 21
35.19749594048728
 31
0.0
  0
LINE
  5
707
330
5FD
100
AcDbEntity
  8
0
 62
     0
100
AcDbLine
 10
286.2317930687818
 20
35.65432276572882
 30
0.0
 11
286.2317930687818
 21
35.19749594048728
 31
0.0
  0
LINE
  5
708
330
5FD
100
AcDbEntity
  8
0
 62
     0
100
AcDbLine
 10
285.9817930687818
 20
35.28249594048729
 30
0.0
 11
285.9117930687818
 21
35.28249594048729
 31
0.0
  0
LINE
  5
709
330
5FD
100
AcDbEntity
  8
0
 62
     0
100
AcDbLine
 10
286.2317930687818
 20
35.28249594048729
 30
0.0
 11
286.3017930687817
 21
35.28249594048729
 31
0.0
  0
MTEXT
  5
70A
330
5FD
100
AcDbEntity
  8
0
 62
     0
100
AcDbMText
 10
285.7463058412592
 20
35.28249594048729
 30
0.0
 40
0.085
 41
0.0
 71
     5
 72
     1
  1
\A1;0.25
1001
ACAD
1000
MTEXTBEGIN
1070
    73
1070
     1
1070
    44
1040
1.0
1070
    74
1070
     0
1000
MTEXTEND
  0
INSERT
  5
70B
330
5FD
100
AcDbEntity
  8
0
 62
     0
100
AcDbBlockReference
  2
_OBLIQUE
 10
285.9817930687818
 20
35.28249594048729
 30
0.0
 41
0.07
 42
0.07
 43
0.07
  0
INSERT
  5
70C
330
5FD
100
AcDbEntity
  8
0
 62
     0
100
AcDbBlockReference
  2
_OBLIQUE
 10
286.2317930687818
 20
35.28249594048729
 30
0.0
 41
0.07
 42
0.07
 43
0.07
 50
180.0
  0
POINT
  5
70D
330
5FD
100
AcDbEntity
  8
DEFPOINTS
 62
     0
100
AcDbPoint
 10
285.9817930687818
 20
35.71682276572884
 30
0.0
  0
POINT
  5
70E
330
5FD
100
AcDbEntity
  8
DEFPOINTS
 62
     0
100
AcDbPoint
 10
286.2317930687818
 20
35.71682276572882
 30
0.0
  0
POINT
  5
70F
330
5FD
100
AcDbEntity
  8
DEFPOINTS
 62
     0
100
AcDbPoint
 10
286.2317930687818
 20
35.28249594048729
 30
0.0
  0
ENDBLK
  5
609
330
5FD
100
AcDbEntity
  8
0
100
AcDbBlockEnd
  0
BLOCK
  5
615
330
60B
100
AcDbEntity
  8
0
100
AcDbBlockBegin
  2
*D24
 70
     1
 10
0.0
 20
0.0
 30
0.0
  3
*D24
  1

  0
LINE
  5
6F2
330
60B
100
AcDbEntity
  8
0
 62
     0
100
AcDbLine
 10
286.2317930687818
 20
35.65432276572882
 30
0.0
 11
286.2317930687818
 21
35.19749594048728
 31
0.0
  0
LINE
  5
6F3
330
60B
100
AcDbEntity
  8
0
 62
     0
100
AcDbLine
 10
286.6317930687817
 20
35.65432276572884
 30
0.0
 11
286.6317930687817
 21
35.19749594048728
 31
0.0
  0
LINE
  5
6F4
330
60B
100
AcDbEntity
  8
0
 62
     0
100
AcDbLine
 10
286.2317930687818
 20
35.28249594048729
 30
0.0
 11
286.1617930687818
 21
35.28249594048729
 31
0.0
  0
LINE
  5
6F5
330
60B
100
AcDbEntity
  8
0
 62
     0
100
AcDbLine
 10
286.6317930687817
 20
35.28249594048729
 30
0.0
 11
286.7017930687816
 21
35.28249594048729
 31
0.0
  0
MTEXT
  5
6F6
330
60B
100
AcDbEntity
  8
0
 62
     0
100
AcDbMText
 10
286.4503838054737
 20
35.28249594048729
 30
0.0
 40
0.085
 41
0.0
 71
     5
 72
     1
  1
\A1;0.40
1001
ACAD
1000
MTEXTBEGIN
1070
    73
1070
     1
1070
    44
1040
1.0
1070
    74
1070
     0
1000
MTEXTEND
  0
INSERT
  5
6F7
330
60B
100
AcDbEntity
  8
0
 62
     0
100
AcDbBlockReference
  2
_OBLIQUE
 10
286.2317930687818
 20
35.28249594048729
 30
0.0
 41
0.07
 42
0.07
 43
0.07
  0
INSERT
  5
6F8
330
60B
100
AcDbEntity
  8
0
 62
     0
100
AcDbBlockReference
  2
_OBLIQUE
 10
286.6317930687817
 20
35.28249594048729
 30
0.0
 41
0.07
 42
0.07
 43
0.07
 50
180.0
  0
POINT
  5
6F9
330
60B
100
AcDbEntity
  8
DEFPOINTS
 62
     0
100
AcDbPoint
 10
286.2317930687818
 20
35.71682276572882
 30
0.0
  0
POINT
  5
6FA
330
60B
100
AcDbEntity
  8
DEFPOINTS
 62
     0
100
AcDbPoint
 10
286.6317930687817
 20
35.71682276572884
 30
0.0
  0
POINT
  5
6FB
330
60B
100
AcDbEntity
  8
DEFPOINTS
 62
     0
100
AcDbPoint
 10
286.6317930687817
 20
35.28249594048729
 30
0.0
  0
ENDBLK
  5
616
330
60B
100
AcDbEntity
  8
0
100
AcDbBlockEnd
  0
BLOCK
  5
623
330
618
100
AcDbEntity
  8
0
100
AcDbBlockBegin
  2
*D25
 70
     1
 10
0.0
 20
0.0
 30
0.0
  3
*D25
  1

  0
LINE
  5
6FC
330
618
100
AcDbEntity
  8
0
 62
     0
100
AcDbLine
 10
285.9817930687818
 20
35.65432276572884
 30
0.0
 11
285.9817930687818
 21
34.93006479813492
 31
0.0
  0
LINE
  5
6FD
330
618
100
AcDbEntity
  8
0
 62
     0
100
AcDbLine
 10
286.6317930687817
 20
35.65432276572884
 30
0.0
 11
286.6317930687817
 21
34.93006479813492
 31
0.0
  0
LINE
  5
6FE
330
618
100
AcDbEntity
  8
0
 62
     0
100
AcDbLine
 10
285.9817930687818
 20
35.01506479813492
 30
0.0
 11
286.1051234658495
 21
35.01506479813492
 31
0.0
  0
LINE
  5
6FF
330
618
100
AcDbEntity
  8
0
 62
     0
100
AcDbLine
 10
286.6317930687817
 20
35.01506479813492
 30
0.0
 11
286.5259567991829
 21
35.01506479813492
 31
0.0
  0
MTEXT
  5
700
330
618
100
AcDbEntity
  8
0
 62
     0
100
AcDbMText
 10
286.3155401325162
 20
35.01506479813492
 30
0.0
 40
0.085
 41
0.0
 71
     5
 72
     1
  1
\A1;0.65
1001
ACAD
1000
MTEXTBEGIN
1070
    73
1070
     1
1070
    44
1040
1.0
1070
    74
1070
     0
1000
MTEXTEND
  0
INSERT
  5
701
330
618
100
AcDbEntity
  8
0
 62
     0
100
AcDbBlockReference
  2
_OBLIQUE
 10
285.9817930687818
 20
35.01506479813492
 30
0.0
 41
0.07
 42
0.07
 43
0.07
 50
180.0
  0
INSERT
  5
702
330
618
100
AcDbEntity
  8
0
 62
     0
100
AcDbBlockReference
  2
_OBLIQUE
 10
286.6317930687817
 20
35.01506479813492
 30
0.0
 41
0.07
 42
0.07
 43
0.07
  0
POINT
  5
703
330
618
100
AcDbEntity
  8
DEFPOINTS
 62
     0
100
AcDbPoint
 10
285.9817930687818
 20
35.71682276572884
 30
0.0
  0
POINT
  5
704
330
618
100
AcDbEntity
  8
DEFPOINTS
 62
     0
100
AcDbPoint
 10
286.6317930687817
 20
35.71682276572884
 30
0.0
  0
POINT
  5
705
330
618
100
AcDbEntity
  8
DEFPOINTS
 62
     0
100
AcDbPoint
 10
286.6317930687817
 20
35.01506479813492
 30
0.0
  0
ENDBLK
  5
624
330
618
100
AcDbEntity
  8
0
100
AcDbBlockEnd
  0
ENDSEC
  0
SECTION
  2
ENTITIES
  0
TEXT
  5
5B2
330
4CD
100
AcDbEntity
  8
0
  6
CONTINUOUS
 62
     7
100
AcDbText
 10
287.2309350180788
 20
41.356
 30
0.0
 40
0.1
  1
2
100
AcDbText
  0
TEXT
  5
5B3
330
4CD
100
AcDbEntity
  8
0
  6
CONTINUOUS
 62
     7
100
AcDbText
 10
284.315935018079
 20
41.768
 30
0.0
 40
0.3
  1
ESCALA  1:50
100
AcDbText
  0
LWPOLYLINE
  5
5B4
330
4CD
100
AcDbEntity
  8
NO_PRINT
  6
CONTINUOUS
 62
     7
100
AcDbPolyline
 90
        4
 70
     1
 43
0.0
 10
281.3959999999997
 20
44.747
 10
291.8959999999997
 20
44.747
 10
291.8959999999997
 20
29.897
 10
281.3959999999997
 20
29.897
  0
TEXT
  5
5BA
330
4CD
100
AcDbEntity
  8
0
  6
CONTINUOUS
 62
     7
100
AcDbText
 10
284.334935018079
 20
41.09899999999998
 30
0.0
 40
0.3
  1
S = 106 dm
100
AcDbText
  0
TEXT
  5
5BB
330
4CD
100
AcDbEntity
  8
0
  6
CONTINUOUS
 62
     7
100
AcDbText
 10
284.3119350180788
 20
40.529
 30
0.0
 40
0.3
  1
P = 41 dm
100
AcDbText
  0
TEXT
  5
5BC
330
4CD
100
AcDbEntity
  8
0
  6
CONTINUOUS
 62
     7
100
AcDbText
 10
284.315935018079
 20
42.381
 30
0.0
 40
0.3
  1
TIPUS   NT106C
100
AcDbText
  0
LWPOLYLINE
  5
5BD
330
4CD
100
AcDbEntity
  8
0
100
AcDbPolyline
 90
        5
 70
     1
 43
0.0
 10
286.6317930687817
 20
35.71682276572884
 10
286.7067930687816
 20
36.76682276572885
 42
1.00000000000016
 10
285.9067930687817
 20
36.76682276572885
 10
285.9817930687818
 20
35.71682276572884
 10
286.2317930687818
 20
35.71682276572882
 42
0.7499999999998721
  0
DIMENSION
  5
5C4
330
4CD
100
AcDbEntity
  8
0
100
AcDbDimension
  2
*D19
 10
286.7067930687816
 20
37.41717866421515
 30
0.0
 11
286.2994177848065
 21
37.41717866421515
 31
0.0
 70
   160
  3
STANDARD
100
AcDbAlignedDimension
 13
285.9067930687817
 23
36.7668227657284
 33
0.0
 14
286.7067930687816
 24
36.7668227657284
 34
0.0
100
AcDbRotatedDimension
  0
DIMENSION
  5
5D2
330
4CD
100
AcDbEntity
  8
0
100
AcDbDimension
  2
*D20
 10
285.5530481156806
 20
35.56682276572887
 30
0.0
 11
285.5530481156806
 21
36.36682276572893
 31
0.0
 70
   160
  3
STANDARD
100
AcDbAlignedDimension
 13
286.3067930687818
 23
37.16682276572888
 33
0.0
 14
286.4317930687818
 24
35.56682276572887
 34
0.0
 50
90.0
100
AcDbRotatedDimension
  0
DIMENSION
  5
5E0
330
4CD
100
AcDbEntity
  8
0
100
AcDbDimension
  2
*D21
 10
286.9578508084799
 20
35.71682276572884
 30
0.0
 11
286.9578508084799
 21
36.2418227657289
 31
0.0
 70
    32
  3
STANDARD
100
AcDbAlignedDimension
 13
286.7067930687816
 23
36.76682276572885
 33
0.0
 14
286.6317930687817
 24
35.71682276572884
 34
0.0
 50
90.0
100
AcDbRotatedDimension
  0
DIMENSION
  5
5EE
330
4CD
100
AcDbEntity
  8
0
100
AcDbDimension
  2
*D22
 10
286.9578508084799
 20
35.56682276572887
 30
0.0
 11
286.9578508084799
 21
35.64182276572889
 31
0.0
 70
   160
  3
STANDARD
100
AcDbAlignedDimension
 13
286.6317930687817
 23
35.71682276572884
 33
0.0
 14
286.4317930687818
 24
35.56682276572887
 34
0.0
 50
90.0
100
AcDbRotatedDimension
  0
DIMENSION
  5
5FC
330
4CD
100
AcDbEntity
  8
0
100
AcDbDimension
  2
*D23
 10
286.2317930687818
 20
35.28249594048729
 30
0.0
 11
285.7463058412592
 21
35.28249594048729
 31
0.0
 70
   160
  3
STANDARD
100
AcDbAlignedDimension
 13
285.9817930687818
 23
35.71682276572884
 33
0.0
 14
286.2317930687818
 24
35.71682276572882
 34
0.0
100
AcDbRotatedDimension
  0
DIMENSION
  5
60A
330
4CD
100
AcDbEntity
  8
0
100
AcDbDimension
  2
*D24
 10
286.6317930687817
 20
35.28249594048729
 30
0.0
 11
286.4503838054737
 21
35.28249594048729
 31
0.0
 70
   160
  3
STANDARD
100
AcDbAlignedDimension
 13
286.2317930687818
 23
35.71682276572882
 33
0.0
 14
286.6317930687817
 24
35.71682276572884
 34
0.0
100
AcDbRotatedDimension
  0
DIMENSION
  5
617
330
4CD
100
AcDbEntity
  8
0
100
AcDbDimension
  2
*D25
 10
286.6317930687817
 20
35.01506479813492
 30
0.0
 11
286.3155401325162
 21
35.01506479813492
 31
0.0
 70
   160
  3
STANDARD
100
AcDbAlignedDimension
 13
285.9817930687818
 23
35.71682276572884
 33
0.0
 14
286.6317930687817
 24
35.71682276572884
 34
0.0
100
AcDbRotatedDimension
  0
LWPOLYLINE
  5
625
330
4CD
100
AcDbEntity
  8
0
100
AcDbPolyline
 90
        5
 70
     1
 43
0.0
 10
286.6416925748678
 20
35.7150591624573
 10
286.7167929117083
 20
36.76646387822408
 42
1.00087571882172
 10
285.8967932258551
 20
36.76646387822408
 10
285.9724818767476
 20
35.70682276572884
 10
286.2244286552485
 20
35.70682276572882
 42
0.7385046676309658
  0
LWPOLYLINE
  5
62C
330
4CD
100
AcDbEntity
  8
0
100
AcDbPolyline
 90
        5
 70
     1
 43
0.0
 10
286.6218954083472
 20
35.71861220811999
 10
286.6967929077263
 20
36.76717719942796
 42
0.9990916082464234
 10
285.9167932298372
 20
36.76717719942796
 10
285.9911042608158
 20
35.72682276572884
 10
286.2394392281651
 20
35.72682276572883
 42
0.7626967021819885
  0
ENDSEC
  0
SECTION
  2
OBJECTS
  0
DICTIONARY
  5
4BB
330
0
100
AcDbDictionary
  3
ACAD_GROUP
350
4BC
  3
ACAD_PLOTSTYLENAME
350
4BD
  3
ACAD_MLINESTYLE
350
4C5
  3
ACAD_PLOTSETTINGS
350
4C7
  3
ACAD_LAYOUT
350
4C8
  3
ACDBHEADERROUNDTRIPXREC
350
711
  0
DICTIONARY
  5
734
330
4CD
100
AcDbDictionary
280
     1
  3
ACAD_LAYOUTSELFREF
360
735
  0
DICTIONARY
  5
732
330
4C9
100
AcDbDictionary
280
     1
  3
ACAD_LAYOUTSELFREF
360
733
  0
DICTIONARY
  5
4BC
102
{ACAD_REACTORS
330
4BB
102
}
330
4BB
100
AcDbDictionary
  0
ACDBDICTIONARYWDFLT
  5
4BD
102
{ACAD_REACTORS
330
4BB
102
}
330
4BB
100
AcDbDictionary
281
     1
  3
Normal
350
4BE
100
AcDbDictionaryWithDefault
340
4BE
  0
DICTIONARY
  5
4C5
102
{ACAD_REACTORS
330
4BB
102
}
330
4BB
100
AcDbDictionary
  3
STANDARD
350
4C6
  0
DICTIONARY
  5
4C7
102
{ACAD_REACTORS
330
4BB
102
}
330
4BB
100
AcDbDictionary
  0
DICTIONARY
  5
4C8
102
{ACAD_REACTORS
330
4BB
102
}
330
4BB
100
AcDbDictionary
  0
DICTIONARY
  5
711
102
{ACAD_REACTORS
330
4BB
102
}
330
4BB
100
AcDbDictionary
  3
TSTACKALIGN
350
712
  3
TSTACKSIZE
350
713
  3
HYPERLINKBASE
350
714
  3
STYLESHEET
350
715
  3
LAYOUTDICT
350
716
  3
PLOTSETDICT
350
717
  3
PLOTSTYLNAMDICT
350
718
  3
LWETCUNION
350
719
  3
INSUNITS
350
71A
  3
CEPSNTYPE
350
71B
  3
FINGERPRINTGUID
350
71C
  3
VERSIONGUID
350
71D
  3
PSVPSCALE
350
71E
  3
DIMSTYLEDATA
350
71F
  3
PUCSORTHOREF
350
720
  3
PUCSORTHOVIEW
350
721
  3
PUCSBASE
350
722
  3
PUCSORGTOP
350
723
  3
PUCSORGBOTTOM
350
724
  3
PUCSORGLEFT
350
725
  3
PUCSORGRIGHT
350
726
  3
PUCSORGFRONT
350
727
  3
PUCSORGBACK
350
728
  3
UCSORTHOREF
350
729
  3
UCSORTHOVIEW
350
72A
  3
UCSBASE
350
72B
  3
UCSORGTOP
350
72C
  3
UCSORGBOTTOM
350
72D
  3
UCSORGLEFT
350
72E
  3
UCSORGRIGHT
350
72F
  3
UCSORGFRONT
350
730
  3
UCSORGBACK
350
731
  0
XRECORD
  5
735
102
{ACAD_REACTORS
330
734
102
}
330
734
100
AcDbXrecord
340
4CD
  0
XRECORD
  5
733
102
{ACAD_REACTORS
330
732
102
}
330
732
100
AcDbXrecord
340
4C9
  0
ACDBPLACEHOLDER
  5
4BE
102
{ACAD_REACTORS
330
4BD
102
}
330
4BD
100
AcDbPlaceHolder
280
     0
  0
MLINESTYLE
  5
4C6
102
{ACAD_REACTORS
330
4C5
102
}
330
4C5
100
AcDbMlineStyle
  2
STANDARD
 70
     0
  3

 62
   256
 51
90.0
 52
90.0
 71
     2
 49
0.5
 62
   256
  6
BYLAYER
 49
-0.5
 62
   256
  6
BYLAYER
  0
XRECORD
  5
712
102
{ACAD_REACTORS
330
711
102
}
330
711
100
AcDbXrecord
 90
        1
  0
XRECORD
  5
713
102
{ACAD_REACTORS
330
711
102
}
330
711
100
AcDbXrecord
 90
       70
  0
XRECORD
  5
714
102
{ACAD_REACTORS
330
711
102
}
330
711
100
AcDbXrecord
  1

  0
XRECORD
  5
715
102
{ACAD_REACTORS
330
711
102
}
330
711
100
AcDbXrecord
  1

  0
XRECORD
  5
716
102
{ACAD_REACTORS
330
711
102
}
330
711
100
AcDbXrecord
340
4C8
  0
XRECORD
  5
717
102
{ACAD_REACTORS
330
711
102
}
330
711
100
AcDbXrecord
340
4C7
  0
XRECORD
  5
718
102
{ACAD_REACTORS
330
711
102
}
330
711
100
AcDbXrecord
340
4BD
  0
XRECORD
  5
719
102
{ACAD_REACTORS
330
711
102
}
330
711
100
AcDbXrecord
 90
    10781
  0
XRECORD
  5
71A
102
{ACAD_REACTORS
330
711
102
}
330
711
100
AcDbXrecord
 90
        0
  0
XRECORD
  5
71B
102
{ACAD_REACTORS
330
711
102
}
330
711
100
AcDbXrecord
 90
        0
  0
XRECORD
  5
71C
102
{ACAD_REACTORS
330
711
102
}
330
711
100
AcDbXrecord
  1
{0E84426E-1F76-47ED-AC3F-1980AB7CD987}
  0
XRECORD
  5
71D
102
{ACAD_REACTORS
330
711
102
}
330
711
100
AcDbXrecord
  1
{0E307176-4604-4E6B-8FF5-21723B3E0E3F}
  0
XRECORD
  5
71E
102
{ACAD_REACTORS
330
711
102
}
330
711
100
AcDbXrecord
 40
0.0
  0
XRECORD
  5
71F
102
{ACAD_REACTORS
330
711
102
}
330
711
100
AcDbXrecord
1000
DSTYLE
1002
{
1070
   279
 70
     2
1070
   289
 70
     0
1070
   342
340
4DD
1002
}
  0
XRECORD
  5
720
102
{ACAD_REACTORS
330
711
102
}
330
711
100
AcDbXrecord
340
0
  0
XRECORD
  5
721
102
{ACAD_REACTORS
330
711
102
}
330
711
100
AcDbXrecord
 70
     0
  0
XRECORD
  5
722
102
{ACAD_REACTORS
330
711
102
}
330
711
100
AcDbXrecord
340
0
  0
XRECORD
  5
723
102
{ACAD_REACTORS
330
711
102
}
330
711
100
AcDbXrecord
 10
0.0
 20
0.0
 30
0.0
  0
XRECORD
  5
724
102
{ACAD_REACTORS
330
711
102
}
330
711
100
AcDbXrecord
 10
0.0
 20
0.0
 30
0.0
  0
XRECORD
  5
725
102
{ACAD_REACTORS
330
711
102
}
330
711
100
AcDbXrecord
 10
0.0
 20
0.0
 30
0.0
  0
XRECORD
  5
726
102
{ACAD_REACTORS
330
711
102
}
330
711
100
AcDbXrecord
 10
0.0
 20
0.0
 30
0.0
  0
XRECORD
  5
727
102
{ACAD_REACTORS
330
711
102
}
330
711
100
AcDbXrecord
 10
0.0
 20
0.0
 30
0.0
  0
XRECORD
  5
728
102
{ACAD_REACTORS
330
711
102
}
330
711
100
AcDbXrecord
 10
0.0
 20
0.0
 30
0.0
  0
XRECORD
  5
729
102
{ACAD_REACTORS
330
711
102
}
330
711
100
AcDbXrecord
340
0
  0
XRECORD
  5
72A
102
{ACAD_REACTORS
330
711
102
}
330
711
100
AcDbXrecord
 70
     0
  0
XRECORD
  5
72B
102
{ACAD_REACTORS
330
711
102
}
330
711
100
AcDbXrecord
340
0
  0
XRECORD
  5
72C
102
{ACAD_REACTORS
330
711
102
}
330
711
100
AcDbXrecord
 10
0.0
 20
0.0
 30
0.0
  0
XRECORD
  5
72D
102
{ACAD_REACTORS
330
711
102
}
330
711
100
AcDbXrecord
 10
0.0
 20
0.0
 30
0.0
  0
XRECORD
  5
72E
102
{ACAD_REACTORS
330
711
102
}
330
711
100
AcDbXrecord
 10
0.0
 20
0.0
 30
0.0
  0
XRECORD
  5
72F
102
{ACAD_REACTORS
330
711
102
}
330
711
100
AcDbXrecord
 10
0.0
 20
0.0
 30
0.0
  0
XRECORD
  5
730
102
{ACAD_REACTORS
330
711
102
}
330
711
100
AcDbXrecord
 10
0.0
 20
0.0
 30
0.0
  0
XRECORD
  5
731
102
{ACAD_REACTORS
330
711
102
}
330
711
100
AcDbXrecord
 10
0.0
 20
0.0
 30
0.0
  0
ENDSEC
  0
EOF
