  0
SECTION
  2
HEADER
  9
$ACADVER
  1
AC1015
  9
$ACADMAINTVER
 70
    13
  9
$DWGCODEPAGE
  3
ANSI_1252
  9
$INSBASE
 10
0.0
 20
0.0
 30
0.0
  9
$EXTMIN
 10
281.3959999999999
 20
29.897
 30
0.0
  9
$EXTMAX
 10
291.8959999999999
 20
44.747
 30
0.0
  9
$LIMMIN
 10
280.3959999999999
 20
28.89699999999999
  9
$LIMMAX
 10
292.8959999999999
 20
43.74699999999999
  9
$ORTHOMODE
 70
     0
  9
$REGENMODE
 70
     1
  9
$FILLMODE
 70
     1
  9
$QTEXTMODE
 70
     0
  9
$MIRRTEXT
 70
     1
  9
$LTSCALE
 40
1.0
  9
$ATTMODE
 70
     1
  9
$TEXTSIZE
 40
0.2
  9
$TRACEWID
 40
0.05
  9
$TEXTSTYLE
  7
Standard
  9
$CLAYER
  8
0
  9
$CELTYPE
  6
ByLayer
  9
$CECOLOR
 62
   256
  9
$CELTSCALE
 40
1.0
  9
$DISPSILH
 70
     0
  9
$DIMSCALE
 40
1.0
  9
$DIMASZ
 40
0.18
  9
$DIMEXO
 40
0.0625
  9
$DIMDLI
 40
0.38
  9
$DIMRND
 40
0.0
  9
$DIMDLE
 40
0.0
  9
$DIMEXE
 40
0.18
  9
$DIMTP
 40
0.0
  9
$DIMTM
 40
0.0
  9
$DIMTXT
 40
0.18
  9
$DIMCEN
 40
0.09
  9
$DIMTSZ
 40
0.0
  9
$DIMTOL
 70
     0
  9
$DIMLIM
 70
     0
  9
$DIMTIH
 70
     1
  9
$DIMTOH
 70
     1
  9
$DIMSE1
 70
     0
  9
$DIMSE2
 70
     0
  9
$DIMTAD
 70
     0
  9
$DIMZIN
 70
     0
  9
$DIMBLK
  1

  9
$DIMASO
 70
     1
  9
$DIMSHO
 70
     1
  9
$DIMPOST
  1

  9
$DIMAPOST
  1

  9
$DIMALT
 70
     0
  9
$DIMALTD
 70
     2
  9
$DIMALTF
 40
25.4
  9
$DIMLFAC
 40
1.0
  9
$DIMTOFL
 70
     0
  9
$DIMTVP
 40
0.0
  9
$DIMTIX
 70
     0
  9
$DIMSOXD
 70
     0
  9
$DIMSAH
 70
     0
  9
$DIMBLK1
  1

  9
$DIMBLK2
  1

  9
$DIMSTYLE
  2
Standard
  9
$DIMCLRD
 70
     0
  9
$DIMCLRE
 70
     0
  9
$DIMCLRT
 70
     0
  9
$DIMTFAC
 40
1.0
  9
$DIMGAP
 40
0.09
  9
$DIMJUST
 70
     0
  9
$DIMSD1
 70
     0
  9
$DIMSD2
 70
     0
  9
$DIMTOLJ
 70
     1
  9
$DIMTZIN
 70
     0
  9
$DIMALTZ
 70
     0
  9
$DIMALTTZ
 70
     0
  9
$DIMUPT
 70
     0
  9
$DIMDEC
 70
     4
  9
$DIMTDEC
 70
     4
  9
$DIMALTU
 70
     2
  9
$DIMALTTD
 70
     2
  9
$DIMTXSTY
  7
Standard
  9
$DIMAUNIT
 70
     0
  9
$DIMADEC
 70
     0
  9
$DIMALTRND
 40
0.0
  9
$DIMAZIN
 70
     0
  9
$DIMDSEP
 70
    46
  9
$DIMATFIT
 70
     3
  9
$DIMFRAC
 70
     0
  9
$DIMLDRBLK
  1

  9
$DIMLUNIT
 70
     2
  9
$DIMLWD
 70
    -2
  9
$DIMLWE
 70
    -2
  9
$DIMTMOVE
 70
     0
  9
$LUNITS
 70
     2
  9
$LUPREC
 70
     4
  9
$SKETCHINC
 40
0.1
  9
$FILLETRAD
 40
0.0
  9
$AUNITS
 70
     0
  9
$AUPREC
 70
     0
  9
$MENU
  1
acad
  9
$ELEVATION
 40
0.0
  9
$PELEVATION
 40
0.0
  9
$THICKNESS
 40
0.0
  9
$LIMCHECK
 70
     0
  9
$CHAMFERA
 40
0.0
  9
$CHAMFERB
 40
0.0
  9
$CHAMFERC
 40
0.0
  9
$CHAMFERD
 40
0.0
  9
$SKPOLY
 70
     0
  9
$TDCREATE
 40
2448315.373408102
  9
$TDUCREATE
 40
2448315.290074768
  9
$TDUPDATE
 40
2453930.373252534
  9
$TDUUPDATE
 40
2453930.289919201
  9
$TDINDWG
 40
0.0298632407
  9
$TDUSRTIMER
 40
0.0298628704
  9
$USRTIMER
 70
     1
  9
$ANGBASE
 50
0.0
  9
$ANGDIR
 70
     0
  9
$PDMODE
 70
     0
  9
$PDSIZE
 40
0.0
  9
$PLINEWID
 40
0.0
  9
$SPLFRAME
 70
     0
  9
$SPLINETYPE
 70
     6
  9
$SPLINESEGS
 70
     8
  9
$HANDSEED
  5
206
  9
$SURFTAB1
 70
     6
  9
$SURFTAB2
 70
     6
  9
$SURFTYPE
 70
     6
  9
$SURFU
 70
     6
  9
$SURFV
 70
     6
  9
$UCSBASE
  2

  9
$UCSNAME
  2

  9
$UCSORG
 10
0.0
 20
0.0
 30
0.0
  9
$UCSXDIR
 10
1.0
 20
0.0
 30
0.0
  9
$UCSYDIR
 10
0.0
 20
1.0
 30
0.0
  9
$UCSORTHOREF
  2

  9
$UCSORTHOVIEW
 70
     0
  9
$UCSORGTOP
 10
0.0
 20
0.0
 30
0.0
  9
$UCSORGBOTTOM
 10
0.0
 20
0.0
 30
0.0
  9
$UCSORGLEFT
 10
0.0
 20
0.0
 30
0.0
  9
$UCSORGRIGHT
 10
0.0
 20
0.0
 30
0.0
  9
$UCSORGFRONT
 10
0.0
 20
0.0
 30
0.0
  9
$UCSORGBACK
 10
0.0
 20
0.0
 30
0.0
  9
$PUCSBASE
  2

  9
$PUCSNAME
  2

  9
$PUCSORG
 10
0.0
 20
0.0
 30
0.0
  9
$PUCSXDIR
 10
1.0
 20
0.0
 30
0.0
  9
$PUCSYDIR
 10
0.0
 20
1.0
 30
0.0
  9
$PUCSORTHOREF
  2

  9
$PUCSORTHOVIEW
 70
     0
  9
$PUCSORGTOP
 10
0.0
 20
0.0
 30
0.0
  9
$PUCSORGBOTTOM
 10
0.0
 20
0.0
 30
0.0
  9
$PUCSORGLEFT
 10
0.0
 20
0.0
 30
0.0
  9
$PUCSORGRIGHT
 10
0.0
 20
0.0
 30
0.0
  9
$PUCSORGFRONT
 10
0.0
 20
0.0
 30
0.0
  9
$PUCSORGBACK
 10
0.0
 20
0.0
 30
0.0
  9
$USERI1
 70
     0
  9
$USERI2
 70
     0
  9
$USERI3
 70
     0
  9
$USERI4
 70
     0
  9
$USERI5
 70
     0
  9
$USERR1
 40
0.0
  9
$USERR2
 40
0.0
  9
$USERR3
 40
0.0
  9
$USERR4
 40
0.0
  9
$USERR5
 40
0.0
  9
$WORLDVIEW
 70
     1
  9
$SHADEDGE
 70
     3
  9
$SHADEDIF
 70
    70
  9
$TILEMODE
 70
     1
  9
$MAXACTVP
 70
    16
  9
$PINSBASE
 10
0.0
 20
0.0
 30
0.0
  9
$PLIMCHECK
 70
     0
  9
$PEXTMIN
 10
1.000000000000000E+20
 20
1.000000000000000E+20
 30
1.000000000000000E+20
  9
$PEXTMAX
 10
-1.000000000000000E+20
 20
-1.000000000000000E+20
 30
-1.000000000000000E+20
  9
$PLIMMIN
 10
0.0
 20
0.0
  9
$PLIMMAX
 10
12.0
 20
9.0
  9
$UNITMODE
 70
     0
  9
$VISRETAIN
 70
     0
  9
$PLINEGEN
 70
     0
  9
$PSLTSCALE
 70
     1
  9
$TREEDEPTH
 70
  3020
  9
$CMLSTYLE
  2
Standard
  9
$CMLJUST
 70
     0
  9
$CMLSCALE
 40
1.0
  9
$PROXYGRAPHICS
 70
     1
  9
$MEASUREMENT
 70
     0
  9
$CELWEIGHT
370
    -1
  9
$ENDCAPS
280
     0
  9
$JOINSTYLE
280
     0
  9
$LWDISPLAY
290
     1
  9
$INSUNITS
 70
     0
  9
$HYPERLINKBASE
  1

  9
$STYLESHEET
  1

  9
$XEDIT
290
     1
  9
$CEPSNTYPE
380
     0
  9
$PSTYLEMODE
290
     1
  9
$FINGERPRINTGUID
  2
{6F3CA79B-B2F7-4640-9374-364FFD163EC8}
  9
$VERSIONGUID
  2
{49F86C7D-8EC2-473A-BE98-678419B57498}
  9
$EXTNAMES
290
     1
  9
$PSVPSCALE
 40
0.0
  9
$OLESTARTUP
290
     0
  0
ENDSEC
  0
SECTION
  2
CLASSES
  0
CLASS
  1
ACDBDICTIONARYWDFLT
  2
AcDbDictionaryWithDefault
  3
AutoCAD 2000
 90
        0
280
     0
281
     0
  0
CLASS
  1
ACDBPLACEHOLDER
  2
AcDbPlaceHolder
  3
AutoCAD 2000
 90
        0
280
     0
281
     0
  0
CLASS
  1
LAYOUT
  2
AcDbLayout
  3
AutoCAD 2000
 90
        0
280
     0
281
     0
  0
CLASS
  1
DICTIONARYVAR
  2
AcDbDictionaryVar
  3
AutoCAD 2000
 90
        0
280
     0
281
     0
  0
ENDSEC
  0
SECTION
  2
TABLES
  0
TABLE
  2
VPORT
  5
8
330
0
100
AcDbSymbolTable
 70
     2
  0
VPORT
  5
205
330
8
100
AcDbSymbolTableRecord
100
AcDbViewportTableRecord
  2
*Active
 70
     0
 10
0.0
 20
0.0
 11
1.0
 21
1.0
 12
288.2858296433349
 22
36.97440585753092
 13
0.0
 23
0.0
 14
1.0
 24
1.0
 15
0.0
 25
0.0
 16
0.0
 26
0.0
 36
1.0
 17
0.0
 27
0.0
 37
0.0
 40
20.06719693654502
 41
1.19077306733167
 42
50.0
 43
0.0
 44
0.0
 50
0.0
 51
0.0
 71
     0
 72
   100
 73
     1
 74
     1
 75
     0
 76
     0
 77
     0
 78
     0
281
     0
 65
     1
110
0.0
120
0.0
130
0.0
111
1.0
121
0.0
131
0.0
112
0.0
122
1.0
132
0.0
 79
     0
146
0.0
  0
ENDTAB
  0
TABLE
  2
LTYPE
  5
5
330
0
100
AcDbSymbolTable
 70
     1
  0
LTYPE
  5
13
330
5
100
AcDbSymbolTableRecord
100
AcDbLinetypeTableRecord
  2
ByBlock
 70
     0
  3

 72
    65
 73
     0
 40
0.0
  0
LTYPE
  5
14
330
5
100
AcDbSymbolTableRecord
100
AcDbLinetypeTableRecord
  2
ByLayer
 70
     0
  3

 72
    65
 73
     0
 40
0.0
  0
LTYPE
  5
15
330
5
100
AcDbSymbolTableRecord
100
AcDbLinetypeTableRecord
  2
CONTINUOUS
 70
     0
  3
Solid line
 72
    65
 73
     0
 40
0.0
  0
ENDTAB
  0
TABLE
  2
LAYER
  5
2
330
0
100
AcDbSymbolTable
 70
     8
  0
LAYER
  5
10
330
2
100
AcDbSymbolTableRecord
100
AcDbLayerTableRecord
  2
0
 70
     0
 62
     7
  6
CONTINUOUS
370
    -3
390
F
  0
LAYER
  5
22
330
2
100
AcDbSymbolTableRecord
100
AcDbLayerTableRecord
  2
1
 70
     0
 62
     7
  6
CONTINUOUS
370
    -3
390
F
  0
LAYER
  5
23
330
2
100
AcDbSymbolTableRecord
100
AcDbLayerTableRecord
  2
7
 70
     0
 62
     7
  6
CONTINUOUS
370
    -3
390
F
  0
LAYER
  5
24
330
2
100
AcDbSymbolTableRecord
100
AcDbLayerTableRecord
  2
8
 70
     0
 62
     7
  6
CONTINUOUS
370
    -3
390
F
  0
LAYER
  5
25
330
2
100
AcDbSymbolTableRecord
100
AcDbLayerTableRecord
  2
9
 70
     0
 62
     7
  6
CONTINUOUS
370
    -3
390
F
  0
LAYER
  5
26
330
2
100
AcDbSymbolTableRecord
100
AcDbLayerTableRecord
  2
22
 70
     0
 62
     7
  6
CONTINUOUS
370
    -3
390
F
  0
LAYER
  5
27
330
2
100
AcDbSymbolTableRecord
100
AcDbLayerTableRecord
  2
25
 70
     0
 62
     7
  6
CONTINUOUS
370
    -3
390
F
  0
LAYER
  5
BC
330
2
100
AcDbSymbolTableRecord
100
AcDbLayerTableRecord
  2
Defpoints
 70
     0
 62
     7
  6
CONTINUOUS
290
     0
370
    -3
390
F
  0
ENDTAB
  0
TABLE
  2
STYLE
  5
3
330
0
100
AcDbSymbolTable
 70
     2
  0
STYLE
  5
11
330
3
100
AcDbSymbolTableRecord
100
AcDbTextStyleTableRecord
  2
Standard
 70
     0
 40
0.0
 41
1.0
 50
0.0
 71
     0
 42
0.2
  3
txt
  4

  0
STYLE
  5
28
330
3
100
AcDbSymbolTableRecord
100
AcDbTextStyleTableRecord
  2
ROMANC
 70
     0
 40
0.0
 41
1.0
 50
0.0
 71
     0
 42
0.2
  3
ROMANC
  4

  0
ENDTAB
  0
TABLE
  2
VIEW
  5
6
330
0
100
AcDbSymbolTable
 70
     0
  0
ENDTAB
  0
TABLE
  2
UCS
  5
7
330
0
100
AcDbSymbolTable
 70
     0
  0
ENDTAB
  0
TABLE
  2
APPID
  5
9
330
0
100
AcDbSymbolTable
 70
     1
  0
APPID
  5
12
330
9
100
AcDbSymbolTableRecord
100
AcDbRegAppTableRecord
  2
ACAD
 70
     0
  0
ENDTAB
  0
TABLE
  2
DIMSTYLE
  5
A
330
0
100
AcDbSymbolTable
 70
     1
100
AcDbDimStyleTable
 71
     1
340
71
  0
DIMSTYLE
105
71
102
{ACAD_REACTORS
330
CA
330
D8
330
E6
330
F4
330
BB
102
}
330
A
100
AcDbSymbolTableRecord
100
AcDbDimStyleTableRecord
  2
Standard
 70
     0
340
11
  0
ENDTAB
  0
TABLE
  2
BLOCK_RECORD
  5
1
330
0
100
AcDbSymbolTable
 70
     5
  0
BLOCK_RECORD
  5
1E
330
1
100
AcDbSymbolTableRecord
100
AcDbBlockTableRecord
  2
*Model_Space
340
21
  0
BLOCK_RECORD
  5
1A
330
1
100
AcDbSymbolTableRecord
100
AcDbBlockTableRecord
  2
*Paper_Space
340
1D
  0
BLOCK_RECORD
  5
BD
330
1
100
AcDbSymbolTableRecord
100
AcDbBlockTableRecord
  2
*D0
340
0
  0
BLOCK_RECORD
  5
CB
330
1
100
AcDbSymbolTableRecord
100
AcDbBlockTableRecord
  2
*D1
340
0
  0
BLOCK_RECORD
  5
D9
330
1
100
AcDbSymbolTableRecord
100
AcDbBlockTableRecord
  2
*D2
340
0
  0
BLOCK_RECORD
  5
E7
330
1
100
AcDbSymbolTableRecord
100
AcDbBlockTableRecord
  2
*D3
340
0
  0
BLOCK_RECORD
  5
F5
330
1
100
AcDbSymbolTableRecord
100
AcDbBlockTableRecord
  2
*D4
340
0
  0
ENDTAB
  0
ENDSEC
  0
SECTION
  2
BLOCKS
  0
BLOCK
  5
1F
330
1E
100
AcDbEntity
  8
0
100
AcDbBlockBegin
  2
*Model_Space
 70
     0
 10
0.0
 20
0.0
 30
0.0
  3
*Model_Space
  1

  0
ENDBLK
  5
20
330
1E
100
AcDbEntity
  8
0
100
AcDbBlockEnd
  0
BLOCK
  5
1B
330
1A
100
AcDbEntity
 67
     1
  8
0
100
AcDbBlockBegin
  2
*Paper_Space
 70
     0
 10
0.0
 20
0.0
 30
0.0
  3
*Paper_Space
  1

  0
ENDBLK
  5
1C
330
1A
100
AcDbEntity
 67
     1
  8
0
100
AcDbBlockEnd
  0
BLOCK
  5
C8
330
BD
100
AcDbEntity
  8
0
100
AcDbBlockBegin
  2
*D0
 70
     1
 10
0.0
 20
0.0
 30
0.0
  3
*D0
  1

  0
LINE
  5
1E5
330
BD
100
AcDbEntity
  8
0
 62
     0
370
    -2
100
AcDbLine
 10
284.2420338566751
 20
35.09376813442085
 30
0.0
 11
284.2420338566751
 21
33.60941015261114
 31
0.0
  0
LINE
  5
1E6
330
BD
100
AcDbEntity
  8
0
 62
     0
370
    -2
100
AcDbLine
 10
288.7420338566751
 20
34.49376813442085
 30
0.0
 11
288.7420338566751
 21
33.60941015261114
 31
0.0
  0
LINE
  5
1E7
330
BD
100
AcDbEntity
  8
0
 62
     0
370
    -2
100
AcDbLine
 10
284.4220338566751
 20
33.78941015261114
 30
0.0
 11
286.147033856675
 21
33.78941015261114
 31
0.0
  0
LINE
  5
1E8
330
BD
100
AcDbEntity
  8
0
 62
     0
370
    -2
100
AcDbLine
 10
288.562033856675
 20
33.78941015261114
 30
0.0
 11
286.8370338566751
 21
33.78941015261114
 31
0.0
  0
SOLID
  5
1E9
330
BD
100
AcDbEntity
  8
0
 62
     0
100
AcDbTrace
 10
284.4220338566751
 20
33.81941015261114
 30
0.0
 11
284.4220338566751
 21
33.75941015261114
 31
0.0
 12
284.2420338566751
 22
33.78941015261114
 32
0.0
 13
284.2420338566751
 23
33.78941015261114
 33
0.0
  0
SOLID
  5
1EA
330
BD
100
AcDbEntity
  8
0
 62
     0
100
AcDbTrace
 10
288.562033856675
 20
33.81941015261114
 30
0.0
 11
288.562033856675
 21
33.75941015261114
 31
0.0
 12
288.7420338566751
 22
33.78941015261114
 32
0.0
 13
288.7420338566751
 23
33.78941015261114
 33
0.0
  0
MTEXT
  5
1EB
330
BD
100
AcDbEntity
  8
0
 62
     0
100
AcDbMText
 10
286.4920338566751
 20
33.78941015261114
 30
0.0
 40
0.18
 41
0.0
 71
     5
 72
     1
  1
\A1;4.50
 73
     1
 44
1.0
  0
POINT
  5
1EC
330
BD
100
AcDbEntity
  8
Defpoints
 62
     0
100
AcDbPoint
 10
284.2420338566751
 20
35.15626813442085
 30
0.0
  0
POINT
  5
1ED
330
BD
100
AcDbEntity
  8
Defpoints
 62
     0
100
AcDbPoint
 10
288.7420338566751
 20
34.55626813442085
 30
0.0
  0
POINT
  5
1EE
330
BD
100
AcDbEntity
  8
Defpoints
 62
     0
100
AcDbPoint
 10
288.7420338566751
 20
33.78941015261114
 30
0.0
  0
ENDBLK
  5
C9
330
BD
100
AcDbEntity
  8
0
100
AcDbBlockEnd
  0
BLOCK
  5
D6
330
CB
100
AcDbEntity
  8
0
100
AcDbBlockBegin
  2
*D1
 70
     1
 10
0.0
 20
0.0
 30
0.0
  3
*D1
  1

  0
LINE
  5
1D1
330
CB
100
AcDbEntity
  8
0
 62
     0
370
    -2
100
AcDbLine
 10
284.2420338566751
 20
35.09376813442085
 30
0.0
 11
284.2420338566751
 21
34.03323006558919
 31
0.0
  0
LINE
  5
1D2
330
CB
100
AcDbEntity
  8
0
 62
     0
370
    -2
100
AcDbLine
 10
285.2420338566751
 20
35.09376813442085
 30
0.0
 11
285.2420338566751
 21
34.03323006558919
 31
0.0
  0
LINE
  5
1D3
330
CB
100
AcDbEntity
  8
0
 62
     0
370
    -2
100
AcDbLine
 10
284.0620338566751
 20
34.21323006558917
 30
0.0
 11
283.8820338566751
 21
34.21323006558917
 31
0.0
  0
LINE
  5
1D4
330
CB
100
AcDbEntity
  8
0
 62
     0
370
    -2
100
AcDbLine
 10
285.4220338566751
 20
34.21323006558917
 30
0.0
 11
285.602033856675
 21
34.21323006558917
 31
0.0
  0
SOLID
  5
1D5
330
CB
100
AcDbEntity
  8
0
 62
     0
100
AcDbTrace
 10
284.0620338566751
 20
34.24323006558918
 30
0.0
 11
284.0620338566751
 21
34.18323006558917
 31
0.0
 12
284.2420338566751
 22
34.21323006558917
 32
0.0
 13
284.2420338566751
 23
34.21323006558917
 33
0.0
  0
SOLID
  5
1D6
330
CB
100
AcDbEntity
  8
0
 62
     0
100
AcDbTrace
 10
285.4220338566751
 20
34.24323006558918
 30
0.0
 11
285.4220338566751
 21
34.18323006558917
 31
0.0
 12
285.2420338566751
 22
34.21323006558917
 32
0.0
 13
285.2420338566751
 23
34.21323006558917
 33
0.0
  0
MTEXT
  5
1D7
330
CB
100
AcDbEntity
  8
0
 62
     0
100
AcDbMText
 10
284.7420338566751
 20
34.21323006558917
 30
0.0
 40
0.18
 41
0.0
 71
     5
 72
     1
  1
\A1;1.00
 73
     1
 44
1.0
  0
POINT
  5
1D8
330
CB
100
AcDbEntity
  8
Defpoints
 62
     0
100
AcDbPoint
 10
284.2420338566751
 20
35.15626813442085
 30
0.0
  0
POINT
  5
1D9
330
CB
100
AcDbEntity
  8
Defpoints
 62
     0
100
AcDbPoint
 10
285.2420338566751
 20
35.15626813442085
 30
0.0
  0
POINT
  5
1DA
330
CB
100
AcDbEntity
  8
Defpoints
 62
     0
100
AcDbPoint
 10
285.2420338566751
 20
34.21323006558917
 30
0.0
  0
ENDBLK
  5
D7
330
CB
100
AcDbEntity
  8
0
100
AcDbBlockEnd
  0
BLOCK
  5
E4
330
D9
100
AcDbEntity
  8
0
100
AcDbBlockBegin
  2
*D2
 70
     1
 10
0.0
 20
0.0
 30
0.0
  3
*D2
  1

  0
LINE
  5
1DB
330
D9
100
AcDbEntity
  8
0
 62
     0
370
    -2
100
AcDbLine
 10
285.2420338566751
 20
34.49376813442085
 30
0.0
 11
285.2420338566751
 21
34.03185800356897
 31
0.0
  0
LINE
  5
1DC
330
D9
100
AcDbEntity
  8
0
 62
     0
370
    -2
100
AcDbLine
 10
288.7420338566751
 20
34.49376813442085
 30
0.0
 11
288.7420338566751
 21
34.03185800356897
 31
0.0
  0
LINE
  5
1DD
330
D9
100
AcDbEntity
  8
0
 62
     0
370
    -2
100
AcDbLine
 10
285.4220338566751
 20
34.21185800356898
 30
0.0
 11
286.6550403118263
 21
34.21185800356898
 31
0.0
  0
LINE
  5
1DE
330
D9
100
AcDbEntity
  8
0
 62
     0
370
    -2
100
AcDbLine
 10
288.562033856675
 20
34.21185800356898
 30
0.0
 11
287.3450403118263
 21
34.21185800356898
 31
0.0
  0
SOLID
  5
1DF
330
D9
100
AcDbEntity
  8
0
 62
     0
100
AcDbTrace
 10
285.4220338566751
 20
34.24185800356898
 30
0.0
 11
285.4220338566751
 21
34.18185800356897
 31
0.0
 12
285.2420338566751
 22
34.21185800356898
 32
0.0
 13
285.2420338566751
 23
34.21185800356898
 33
0.0
  0
SOLID
  5
1E0
330
D9
100
AcDbEntity
  8
0
 62
     0
100
AcDbTrace
 10
288.562033856675
 20
34.24185800356898
 30
0.0
 11
288.562033856675
 21
34.18185800356897
 31
0.0
 12
288.7420338566751
 22
34.21185800356898
 32
0.0
 13
288.7420338566751
 23
34.21185800356898
 33
0.0
  0
MTEXT
  5
1E1
330
D9
100
AcDbEntity
  8
0
 62
     0
100
AcDbMText
 10
287.0000403118263
 20
34.21185800356898
 30
0.0
 40
0.18
 41
0.0
 71
     5
 72
     1
  1
\A1;3.50
 73
     1
 44
1.0
  0
POINT
  5
1E2
330
D9
100
AcDbEntity
  8
Defpoints
 62
     0
100
AcDbPoint
 10
285.2420338566751
 20
34.55626813442085
 30
0.0
  0
POINT
  5
1E3
330
D9
100
AcDbEntity
  8
Defpoints
 62
     0
100
AcDbPoint
 10
288.7420338566751
 20
34.55626813442085
 30
0.0
  0
POINT
  5
1E4
330
D9
100
AcDbEntity
  8
Defpoints
 62
     0
100
AcDbPoint
 10
288.7420338566751
 20
34.21185800356898
 30
0.0
  0
ENDBLK
  5
E5
330
D9
100
AcDbEntity
  8
0
100
AcDbBlockEnd
  0
BLOCK
  5
F2
330
E7
100
AcDbEntity
  8
0
100
AcDbBlockBegin
  2
*D3
 70
     1
 10
0.0
 20
0.0
 30
0.0
  3
*D3
  1

  0
LINE
  5
1EF
330
E7
100
AcDbEntity
  8
0
 62
     0
370
    -2
100
AcDbLine
 10
288.8045338566751
 20
37.05626813442085
 30
0.0
 11
289.4423534828948
 21
37.05626813442085
 31
0.0
  0
LINE
  5
1F0
330
E7
100
AcDbEntity
  8
0
 62
     0
370
    -2
100
AcDbLine
 10
288.8045338566751
 20
34.55626813442085
 30
0.0
 11
289.4423534828948
 21
34.55626813442085
 31
0.0
  0
LINE
  5
1F1
330
E7
100
AcDbEntity
  8
0
 62
     0
370
    -2
100
AcDbLine
 10
289.2623534828948
 20
36.87626813442085
 30
0.0
 11
289.2623534828948
 21
35.98626813442085
 31
0.0
  0
LINE
  5
1F2
330
E7
100
AcDbEntity
  8
0
 62
     0
370
    -2
100
AcDbLine
 10
289.2623534828948
 20
34.73626813442085
 30
0.0
 11
289.2623534828948
 21
35.62626813442085
 31
0.0
  0
SOLID
  5
1F3
330
E7
100
AcDbEntity
  8
0
 62
     0
100
AcDbTrace
 10
289.2323534828948
 20
36.87626813442085
 30
0.0
 11
289.2923534828948
 21
36.87626813442085
 31
0.0
 12
289.2623534828948
 22
37.05626813442085
 32
0.0
 13
289.2623534828948
 23
37.05626813442085
 33
0.0
  0
SOLID
  5
1F4
330
E7
100
AcDbEntity
  8
0
 62
     0
100
AcDbTrace
 10
289.2323534828948
 20
34.73626813442085
 30
0.0
 11
289.2923534828948
 21
34.73626813442085
 31
0.0
 12
289.2623534828948
 22
34.55626813442085
 32
0.0
 13
289.2623534828948
 23
34.55626813442085
 33
0.0
  0
MTEXT
  5
1F5
330
E7
100
AcDbEntity
  8
0
 62
     0
100
AcDbMText
 10
289.2623534828948
 20
35.8062681344209
 30
0.0
 40
0.18
 41
0.0
 71
     5
 72
     1
  1
\A1;2.50
 73
     1
 44
1.0
  0
POINT
  5
1F6
330
E7
100
AcDbEntity
  8
Defpoints
 62
     0
100
AcDbPoint
 10
288.7420338566751
 20
37.05626813442085
 30
0.0
  0
POINT
  5
1F7
330
E7
100
AcDbEntity
  8
Defpoints
 62
     0
100
AcDbPoint
 10
288.7420338566751
 20
34.55626813442085
 30
0.0
  0
POINT
  5
1F8
330
E7
100
AcDbEntity
  8
Defpoints
 62
     0
100
AcDbPoint
 10
289.2623534828948
 20
34.55626813442085
 30
0.0
  0
ENDBLK
  5
F3
330
E7
100
AcDbEntity
  8
0
100
AcDbBlockEnd
  0
BLOCK
  5
101
330
F5
100
AcDbEntity
  8
0
100
AcDbBlockBegin
  2
*D4
 70
     1
 10
0.0
 20
0.0
 30
0.0
  3
*D4
  1

  0
LINE
  5
1B2
330
F5
100
AcDbEntity
  8
0
 62
     0
370
    -2
100
AcDbLine
 10
285.1795338566751
 20
35.15626813442085
 30
0.0
 11
283.5766487182588
 21
35.15626813442085
 31
0.0
  0
LINE
  5
1B3
330
F5
100
AcDbEntity
  8
0
 62
     0
370
    -2
100
AcDbLine
 10
285.1795338566751
 20
34.55626813442085
 30
0.0
 11
283.5766487182588
 21
34.55626813442085
 31
0.0
  0
LINE
  5
1B4
330
F5
100
AcDbEntity
  8
0
 62
     0
370
    -2
100
AcDbLine
 10
283.7566487182588
 20
34.97626813442085
 30
0.0
 11
283.7566487182588
 21
34.73626813442085
 31
0.0
  0
LINE
  5
1B5
330
F5
100
AcDbEntity
  8
0
 62
     0
370
    -2
100
AcDbLine
 10
283.7566487182588
 20
34.55626813442085
 30
0.0
 11
283.7566487182588
 21
34.37626813442085
 31
0.0
  0
LINE
  5
1B6
330
F5
100
AcDbEntity
  8
0
 62
     0
370
    -2
100
AcDbLine
 10
283.7566487182588
 20
34.37626813442085
 30
0.0
 11
283.5766487182588
 21
34.37626813442085
 31
0.0
  0
SOLID
  5
1B7
330
F5
100
AcDbEntity
  8
0
 62
     0
100
AcDbTrace
 10
283.7266487182588
 20
34.97626813442085
 30
0.0
 11
283.7866487182588
 21
34.97626813442085
 31
0.0
 12
283.7566487182588
 22
35.15626813442085
 32
0.0
 13
283.7566487182588
 23
35.15626813442085
 33
0.0
  0
SOLID
  5
1B8
330
F5
100
AcDbEntity
  8
0
 62
     0
100
AcDbTrace
 10
283.7266487182588
 20
34.73626813442085
 30
0.0
 11
283.7866487182588
 21
34.73626813442085
 31
0.0
 12
283.7566487182588
 22
34.55626813442085
 32
0.0
 13
283.7566487182588
 23
34.55626813442085
 33
0.0
  0
MTEXT
  5
1B9
330
F5
100
AcDbEntity
  8
0
 62
     0
100
AcDbMText
 10
283.2466487182589
 20
34.37626813442091
 30
0.0
 40
0.18
 41
0.0
 71
     5
 72
     1
  1
\A1;0.60
 73
     1
 44
1.0
  0
POINT
  5
1BA
330
F5
100
AcDbEntity
  8
Defpoints
 62
     0
100
AcDbPoint
 10
285.2420338566751
 20
35.15626813442085
 30
0.0
  0
POINT
  5
1BB
330
F5
100
AcDbEntity
  8
Defpoints
 62
     0
100
AcDbPoint
 10
285.2420338566751
 20
34.55626813442085
 30
0.0
  0
POINT
  5
1BC
330
F5
100
AcDbEntity
  8
Defpoints
 62
     0
100
AcDbPoint
 10
283.7566487182588
 20
34.55626813442085
 30
0.0
  0
ENDBLK
  5
102
330
F5
100
AcDbEntity
  8
0
100
AcDbBlockEnd
  0
ENDSEC
  0
SECTION
  2
ENTITIES
  0
TEXT
  5
2C
330
1E
100
AcDbEntity
  8
0
  6
Continuous
100
AcDbText
 10
287.9051089722029
 20
41.15801531077936
 30
0.0
 40
0.1
  1
2
  7
ROMANC
100
AcDbText
  0
TEXT
  5
2D
330
1E
100
AcDbEntity
  8
0
  6
Continuous
100
AcDbText
 10
284.9221089722029
 20
41.60201531077936
 30
0.0
 40
0.3
  1
ESCALA  1:50
  7
ROMANC
100
AcDbText
  0
LWPOLYLINE
  5
2E
330
1E
100
AcDbEntity
  8
0
  6
Continuous
100
AcDbPolyline
 90
        4
 70
     1
 43
0.0
 10
281.3959999999999
 20
44.747
 10
291.8959999999999
 20
44.747
 10
291.8959999999999
 20
29.897
 10
281.3959999999999
 20
29.897
  0
TEXT
  5
34
330
1E
100
AcDbEntity
  8
0
  6
Continuous
100
AcDbText
 10
284.9221089722029
 20
42.21501531077936
 30
0.0
 40
0.3
  1
TIPUS   NT1065A
  7
ROMANC
100
AcDbText
  0
TEXT
  5
37
330
1E
100
AcDbEntity
  8
0
  6
Continuous
100
AcDbText
 10
284.918108972203
 20
40.36301531077937
 30
0.0
 40
0.3
  1
P = 140 dm
  7
ROMANC
100
AcDbText
  0
TEXT
  5
38
330
1E
100
AcDbEntity
  8
0
  6
Continuous
100
AcDbText
 10
284.9411089722029
 20
40.93301531077936
 30
0.0
 40
0.3
  1
S =1065 dm
  7
ROMANC
100
AcDbText
  0
POLYLINE
  5
B1
330
1E
100
AcDbEntity
  8
0
370
    30
100
AcDb2dPolyline
 66
     1
 10
0.0
 20
0.0
 30
0.0
 70
     1
  0
VERTEX
  5
B2
330
B1
100
AcDbEntity
  8
0
370
    30
100
AcDbVertex
100
AcDb2dVertex
 10
284.2420338566751
 20
35.15626813442085
 30
0.0
  0
VERTEX
  5
B3
330
B1
100
AcDbEntity
  8
0
370
    30
100
AcDbVertex
100
AcDb2dVertex
 10
284.2420338566751
 20
37.05626813442085
 30
0.0
  0
VERTEX
  5
B4
330
B1
100
AcDbEntity
  8
0
370
    30
100
AcDbVertex
100
AcDb2dVertex
 10
288.7420338566751
 20
37.05626813442085
 30
0.0
  0
VERTEX
  5
B5
330
B1
100
AcDbEntity
  8
0
370
    30
100
AcDbVertex
100
AcDb2dVertex
 10
288.7420338566751
 20
34.55626813442085
 30
0.0
  0
VERTEX
  5
B6
330
B1
100
AcDbEntity
  8
0
370
    30
100
AcDbVertex
100
AcDb2dVertex
 10
285.2420338566751
 20
34.55626813442085
 30
0.0
  0
VERTEX
  5
B8
330
B1
100
AcDbEntity
  8
0
370
    30
100
AcDbVertex
100
AcDb2dVertex
 10
285.2420338566751
 20
35.15626813442085
 30
0.0
  0
SEQEND
  5
BA
330
B1
100
AcDbEntity
  8
0
 62
     0
370
    30
  0
DIMENSION
  5
BB
330
1E
100
AcDbEntity
  8
0
100
AcDbDimension
  2
*D0
 10
288.7420338566751
 20
33.78941015261114
 30
0.0
 11
286.4920338566751
 21
33.78941015261114
 31
0.0
 70
    32
 71
     5
 42
4.5
  3
Standard
100
AcDbAlignedDimension
 13
284.2420338566751
 23
35.15626813442085
 33
0.0
 14
288.7420338566751
 24
34.55626813442085
 34
0.0
100
AcDbRotatedDimension
1001
ACAD
1000
DSTYLE
1002
{
1070
   271
1070
     2
1002
}
  0
DIMENSION
  5
CA
330
1E
100
AcDbEntity
  8
0
100
AcDbDimension
  2
*D1
 10
285.2420338566751
 20
34.21323006558917
 30
0.0
 11
284.7420338566751
 21
34.21323006558917
 31
0.0
 70
    32
 71
     5
 42
-1.0
  3
Standard
100
AcDbAlignedDimension
 13
284.2420338566751
 23
35.15626813442085
 33
0.0
 14
285.2420338566751
 24
35.15626813442085
 34
0.0
100
AcDbRotatedDimension
1001
ACAD
1000
DSTYLE
1002
{
1070
   271
1070
     2
1002
}
  0
DIMENSION
  5
D8
330
1E
100
AcDbEntity
  8
0
100
AcDbDimension
  2
*D2
 10
288.7420338566751
 20
34.21185800356898
 30
0.0
 11
287.0000403118263
 21
34.21185800356898
 31
0.0
 70
   160
 71
     5
 42
3.5
  3
Standard
100
AcDbAlignedDimension
 13
285.2420338566751
 23
34.55626813442085
 33
0.0
 14
288.7420338566751
 24
34.55626813442085
 34
0.0
100
AcDbRotatedDimension
1001
ACAD
1000
DSTYLE
1002
{
1070
   271
1070
     2
1002
}
  0
DIMENSION
  5
E6
330
1E
100
AcDbEntity
  8
0
100
AcDbDimension
  2
*D3
 10
289.2623534828948
 20
34.55626813442085
 30
0.0
 11
289.2623534828948
 21
35.8062681344209
 31
0.0
 70
    32
 71
     5
 42
2.5
  3
Standard
100
AcDbAlignedDimension
 13
288.7420338566751
 23
37.05626813442085
 33
0.0
 14
288.7420338566751
 24
34.55626813442085
 34
0.0
 50
90.0
100
AcDbRotatedDimension
1001
ACAD
1000
DSTYLE
1002
{
1070
   271
1070
     2
1070
   277
1070
     2
1070
    45
1040
0.0
1002
}
  0
DIMENSION
  5
F4
330
1E
100
AcDbEntity
  8
0
100
AcDbDimension
  2
*D4
 10
283.7566487182588
 20
34.55626813442085
 30
0.0
 11
283.2466487182589
 21
34.37626813442091
 31
0.0
 70
    32
 71
     5
 42
0.6000000000000015
  3
Standard
100
AcDbAlignedDimension
 13
285.2420338566751
 23
35.15626813442085
 33
0.0
 14
285.2420338566751
 24
34.55626813442085
 34
0.0
 50
90.0
100
AcDbRotatedDimension
1001
ACAD
1000
DSTYLE
1002
{
1070
   271
1070
     2
1002
}
  0
ENDSEC
  0
SECTION
  2
OBJECTS
  0
DICTIONARY
  5
C
330
0
100
AcDbDictionary
281
     1
  3
ACAD_GROUP
350
D
  3
ACAD_LAYOUT
350
19
  3
ACAD_MLINESTYLE
350
16
  3
ACAD_PLOTSETTINGS
350
18
  3
ACAD_PLOTSTYLENAME
350
E
  3
AcDbVariableDictionary
350
169
  0
DICTIONARY
  5
D
102
{ACAD_REACTORS
330
C
102
}
330
C
100
AcDbDictionary
281
     1
  0
DICTIONARY
  5
19
102
{ACAD_REACTORS
330
C
102
}
330
C
100
AcDbDictionary
281
     1
  3
Model
350
21
  3
Presentación1
350
1D
  0
DICTIONARY
  5
16
102
{ACAD_REACTORS
330
C
102
}
330
C
100
AcDbDictionary
281
     1
  3
Standard
350
17
  0
DICTIONARY
  5
18
102
{ACAD_REACTORS
330
C
102
}
330
C
100
AcDbDictionary
281
     1
  0
ACDBDICTIONARYWDFLT
  5
E
102
{ACAD_REACTORS
330
C
102
}
330
C
100
AcDbDictionary
281
     1
  3
Normal
350
F
100
AcDbDictionaryWithDefault
340
F
  0
DICTIONARY
  5
169
102
{ACAD_REACTORS
330
C
102
}
330
C
100
AcDbDictionary
281
     1
  3
DIMASSOC
350
16A
  0
LAYOUT
  5
21
102
{ACAD_REACTORS
330
19
102
}
330
19
100
AcDbPlotSettings
  1

  2
\\Servidor1w\HP5100 PS
  4
A4
  6

 40
5.027083396911621
 41
5.408084392547606
 42
5.70440673828125
 43
5.365753173828125
 44
209.8886566162109
 45
297.0530090332031
 46
0.0
 47
0.0
 48
281.4427942726172
 49
29.97604114786179
140
291.8268618500426
141
44.68183212912106
142
1.0
143
0.05
 70
 11936
 72
     1
 73
     0
 74
     4
  7

 75
     0
147
20.0
148
-281.4427942726172
149
-29.97604114786179
100
AcDbLayout
  1
Model
 70
     1
 71
     0
 10
0.0
 20
0.0
 11
12.0
 21
9.0
 12
0.0
 22
0.0
 32
0.0
 14
0.0
 24
0.0
 34
0.0
 15
0.0
 25
0.0
 35
0.0
146
0.0
 13
0.0
 23
0.0
 33
0.0
 16
1.0
 26
0.0
 36
0.0
 17
0.0
 27
1.0
 37
0.0
 76
     0
330
1E
  0
LAYOUT
  5
1D
102
{ACAD_REACTORS
330
19
102
}
330
19
100
AcDbPlotSettings
  1

  2
Microsoft Office Document Image Writer
  4

  6

 40
0.0
 41
0.0
 42
0.0
 43
0.0
 44
0.0
 45
0.0
 46
0.0
 47
0.0
 48
0.0
 49
0.0
140
0.0
141
0.0
142
1.0
143
1.0
 70
   688
 72
     0
 73
     0
 74
     5
  7

 75
    16
147
1.0
148
0.0
149
0.0
100
AcDbLayout
  1
Presentación1
 70
     1
 71
     1
 10
0.0
 20
0.0
 11
12.0
 21
9.0
 12
0.0
 22
0.0
 32
0.0
 14
1.000000000000000E+20
 24
1.000000000000000E+20
 34
1.000000000000000E+20
 15
-1.000000000000000E+20
 25
-1.000000000000000E+20
 35
-1.000000000000000E+20
146
0.0
 13
0.0
 23
0.0
 33
0.0
 16
1.0
 26
0.0
 36
0.0
 17
0.0
 27
1.0
 37
0.0
 76
     0
330
1A
  0
MLINESTYLE
  5
17
102
{ACAD_REACTORS
330
16
102
}
330
16
100
AcDbMlineStyle
  2
STANDARD
 70
     0
  3

 62
   256
 51
90.0
 52
90.0
 71
     2
 49
0.5
 62
   256
  6
BYLAYER
 49
-0.5
 62
   256
  6
BYLAYER
  0
ACDBPLACEHOLDER
  5
F
102
{ACAD_REACTORS
330
E
102
}
330
E
  0
DICTIONARYVAR
  5
16A
102
{ACAD_REACTORS
330
169
102
}
330
169
100
DictionaryVariables
280
     0
  1
1
  0
ENDSEC
  0
EOF
