  0
SECTION
  2
HEADER
  9
$ACADVER
  1
AC1015
  9
$ACADMAINTVER
 70
     6
  9
$DWGCODEPAGE
  3
ANSI_1252
  9
$INSBASE
 10
0.0
 20
0.0
 30
0.0
  9
$EXTMIN
 10
281.395069244134
 20
29.89657355491301
 30
-0.0015258207003583
  9
$EXTMAX
 10
291.8969308140735
 20
44.7474837405175
 30
0.0000000349246037
  9
$LIMMIN
 10
280.3959999999999
 20
28.89699999999999
  9
$LIMMAX
 10
292.8959999999999
 20
43.74699999999999
  9
$ORTHOMODE
 70
     0
  9
$REGENMODE
 70
     1
  9
$FILLMODE
 70
     1
  9
$QTEXTMODE
 70
     0
  9
$MIRRTEXT
 70
     1
  9
$LTSCALE
 40
1.0
  9
$ATTMODE
 70
     1
  9
$TEXTSIZE
 40
0.2
  9
$TRACEWID
 40
0.05
  9
$TEXTSTYLE
  7
Standard
  9
$CLAYER
  8
0
  9
$CELTYPE
  6
ByLayer
  9
$CECOLOR
 62
   256
  9
$CELTSCALE
 40
1.0
  9
$DISPSILH
 70
     0
  9
$DIMSCALE
 40
1.0
  9
$DIMASZ
 40
0.18
  9
$DIMEXO
 40
0.0625
  9
$DIMDLI
 40
0.38
  9
$DIMRND
 40
0.0
  9
$DIMDLE
 40
0.0
  9
$DIMEXE
 40
0.18
  9
$DIMTP
 40
0.0
  9
$DIMTM
 40
0.0
  9
$DIMTXT
 40
0.18
  9
$DIMCEN
 40
0.09
  9
$DIMTSZ
 40
0.0
  9
$DIMTOL
 70
     0
  9
$DIMLIM
 70
     0
  9
$DIMTIH
 70
     1
  9
$DIMTOH
 70
     1
  9
$DIMSE1
 70
     0
  9
$DIMSE2
 70
     0
  9
$DIMTAD
 70
     0
  9
$DIMZIN
 70
     0
  9
$DIMBLK
  1

  9
$DIMASO
 70
     1
  9
$DIMSHO
 70
     1
  9
$DIMPOST
  1

  9
$DIMAPOST
  1

  9
$DIMALT
 70
     0
  9
$DIMALTD
 70
     2
  9
$DIMALTF
 40
25.4
  9
$DIMLFAC
 40
1.0
  9
$DIMTOFL
 70
     0
  9
$DIMTVP
 40
0.0
  9
$DIMTIX
 70
     0
  9
$DIMSOXD
 70
     0
  9
$DIMSAH
 70
     0
  9
$DIMBLK1
  1

  9
$DIMBLK2
  1

  9
$DIMSTYLE
  2
Standard
  9
$DIMCLRD
 70
     0
  9
$DIMCLRE
 70
     0
  9
$DIMCLRT
 70
     0
  9
$DIMTFAC
 40
1.0
  9
$DIMGAP
 40
0.09
  9
$DIMJUST
 70
     0
  9
$DIMSD1
 70
     0
  9
$DIMSD2
 70
     0
  9
$DIMTOLJ
 70
     1
  9
$DIMTZIN
 70
     0
  9
$DIMALTZ
 70
     0
  9
$DIMALTTZ
 70
     0
  9
$DIMUPT
 70
     0
  9
$DIMDEC
 70
     4
  9
$DIMTDEC
 70
     4
  9
$DIMALTU
 70
     2
  9
$DIMALTTD
 70
     2
  9
$DIMTXSTY
  7
Standard
  9
$DIMAUNIT
 70
     0
  9
$DIMADEC
 70
     0
  9
$DIMALTRND
 40
0.0
  9
$DIMAZIN
 70
     0
  9
$DIMDSEP
 70
    46
  9
$DIMATFIT
 70
     3
  9
$DIMFRAC
 70
     0
  9
$DIMLDRBLK
  1

  9
$DIMLUNIT
 70
     2
  9
$DIMLWD
 70
    -2
  9
$DIMLWE
 70
    -2
  9
$DIMTMOVE
 70
     0
  9
$LUNITS
 70
     2
  9
$LUPREC
 70
     4
  9
$SKETCHINC
 40
0.1
  9
$FILLETRAD
 40
0.0986137264495
  9
$AUNITS
 70
     0
  9
$AUPREC
 70
     0
  9
$MENU
  1
acad
  9
$ELEVATION
 40
0.0
  9
$PELEVATION
 40
0.0
  9
$THICKNESS
 40
0.0
  9
$LIMCHECK
 70
     0
  9
$CHAMFERA
 40
0.0
  9
$CHAMFERB
 40
0.0
  9
$CHAMFERC
 40
0.0
  9
$CHAMFERD
 40
0.0
  9
$SKPOLY
 70
     0
  9
$TDCREATE
 40
2448315.373408102
  9
$TDUCREATE
 40
2448315.290074768
  9
$TDUPDATE
 40
2451760.356709525
  9
$TDUUPDATE
 40
2451760.273376192
  9
$TDINDWG
 40
0.0212510417
  9
$TDUSRTIMER
 40
0.0212471065
  9
$USRTIMER
 70
     1
  9
$ANGBASE
 50
0.0
  9
$ANGDIR
 70
     0
  9
$PDMODE
 70
     0
  9
$PDSIZE
 40
0.0
  9
$PLINEWID
 40
0.0
  9
$SPLFRAME
 70
     0
  9
$SPLINETYPE
 70
     6
  9
$SPLINESEGS
 70
     8
  9
$HANDSEED
  5
131
  9
$SURFTAB1
 70
     6
  9
$SURFTAB2
 70
     6
  9
$SURFTYPE
 70
     6
  9
$SURFU
 70
     6
  9
$SURFV
 70
     6
  9
$UCSBASE
  2

  9
$UCSNAME
  2

  9
$UCSORG
 10
0.0
 20
0.0
 30
0.0
  9
$UCSXDIR
 10
1.0
 20
0.0
 30
0.0
  9
$UCSYDIR
 10
0.0
 20
1.0
 30
0.0
  9
$UCSORTHOREF
  2

  9
$UCSORTHOVIEW
 70
     0
  9
$UCSORGTOP
 10
0.0
 20
0.0
 30
0.0
  9
$UCSORGBOTTOM
 10
0.0
 20
0.0
 30
0.0
  9
$UCSORGLEFT
 10
0.0
 20
0.0
 30
0.0
  9
$UCSORGRIGHT
 10
0.0
 20
0.0
 30
0.0
  9
$UCSORGFRONT
 10
0.0
 20
0.0
 30
0.0
  9
$UCSORGBACK
 10
0.0
 20
0.0
 30
0.0
  9
$PUCSBASE
  2

  9
$PUCSNAME
  2

  9
$PUCSORG
 10
0.0
 20
0.0
 30
0.0
  9
$PUCSXDIR
 10
1.0
 20
0.0
 30
0.0
  9
$PUCSYDIR
 10
0.0
 20
1.0
 30
0.0
  9
$PUCSORTHOREF
  2

  9
$PUCSORTHOVIEW
 70
     0
  9
$PUCSORGTOP
 10
0.0
 20
0.0
 30
0.0
  9
$PUCSORGBOTTOM
 10
0.0
 20
0.0
 30
0.0
  9
$PUCSORGLEFT
 10
0.0
 20
0.0
 30
0.0
  9
$PUCSORGRIGHT
 10
0.0
 20
0.0
 30
0.0
  9
$PUCSORGFRONT
 10
0.0
 20
0.0
 30
0.0
  9
$PUCSORGBACK
 10
0.0
 20
0.0
 30
0.0
  9
$USERI1
 70
     0
  9
$USERI2
 70
     0
  9
$USERI3
 70
     0
  9
$USERI4
 70
     0
  9
$USERI5
 70
     0
  9
$USERR1
 40
0.0
  9
$USERR2
 40
0.0
  9
$USERR3
 40
0.0
  9
$USERR4
 40
0.0
  9
$USERR5
 40
0.0
  9
$WORLDVIEW
 70
     1
  9
$SHADEDGE
 70
     3
  9
$SHADEDIF
 70
    70
  9
$TILEMODE
 70
     1
  9
$MAXACTVP
 70
    16
  9
$PINSBASE
 10
0.0
 20
0.0
 30
0.0
  9
$PLIMCHECK
 70
     0
  9
$PEXTMIN
 10
1.000000000000000E+20
 20
1.000000000000000E+20
 30
1.000000000000000E+20
  9
$PEXTMAX
 10
-1.000000000000000E+20
 20
-1.000000000000000E+20
 30
-1.000000000000000E+20
  9
$PLIMMIN
 10
0.0
 20
0.0
  9
$PLIMMAX
 10
12.0
 20
9.0
  9
$UNITMODE
 70
     0
  9
$VISRETAIN
 70
     0
  9
$PLINEGEN
 70
     0
  9
$PSLTSCALE
 70
     1
  9
$TREEDEPTH
 70
  3020
  9
$CMLSTYLE
  2
Standard
  9
$CMLJUST
 70
     0
  9
$CMLSCALE
 40
1.0
  9
$PROXYGRAPHICS
 70
     1
  9
$MEASUREMENT
 70
     0
  9
$CELWEIGHT
370
    -1
  9
$ENDCAPS
280
     0
  9
$JOINSTYLE
280
     0
  9
$LWDISPLAY
290
     0
  9
$INSUNITS
 70
     0
  9
$HYPERLINKBASE
  1

  9
$STYLESHEET
  1

  9
$XEDIT
290
     1
  9
$CEPSNTYPE
380
     0
  9
$PSTYLEMODE
290
     1
  9
$FINGERPRINTGUID
  2
{A09CBBB2-476A-11D4-A5CD-0008C769B1B5}
  9
$VERSIONGUID
  2
{89153313-6905-11D4-A5FC-0008C769B1B5}
  9
$EXTNAMES
290
     1
  9
$PSVPSCALE
 40
0.0
  9
$OLESTARTUP
290
     0
  0
ENDSEC
  0
SECTION
  2
CLASSES
  0
CLASS
  1
ACDBDICTIONARYWDFLT
  2
AcDbDictionaryWithDefault
  3
AutoCAD 2000
 90
        0
280
     0
281
     0
  0
CLASS
  1
ACDBPLACEHOLDER
  2
AcDbPlaceHolder
  3
AutoCAD 2000
 90
        0
280
     0
281
     0
  0
CLASS
  1
LAYOUT
  2
AcDbLayout
  3
AutoCAD 2000
 90
        0
280
     0
281
     0
  0
ENDSEC
  0
SECTION
  2
TABLES
  0
TABLE
  2
VPORT
  5
8
330
0
100
AcDbSymbolTable
 70
     2
  0
VPORT
  5
130
330
8
100
AcDbSymbolTableRecord
100
AcDbViewportTableRecord
  2
*Active
 70
     0
 10
0.0
 20
0.0
 11
1.0
 21
1.0
 12
286.6460000291037
 22
37.32202864771525
 13
0.0
 23
0.0
 14
1.0
 24
1.0
 15
0.0
 25
0.0
 16
0.0
 26
0.0
 36
1.0
 17
0.0
 27
0.0
 37
0.0
 40
15.00002317981581
 41
1.074603174603174
 42
50.0
 43
0.0
 44
0.0
 50
0.0
 51
0.0
 71
     0
 72
   100
 73
     1
 74
     1
 75
     0
 76
     0
 77
     0
 78
     0
281
     0
 65
     1
110
0.0
120
0.0
130
0.0
111
1.0
121
0.0
131
0.0
112
0.0
122
1.0
132
0.0
 79
     0
146
0.0
  0
ENDTAB
  0
TABLE
  2
LTYPE
  5
5
330
0
100
AcDbSymbolTable
 70
     1
  0
LTYPE
  5
13
330
5
100
AcDbSymbolTableRecord
100
AcDbLinetypeTableRecord
  2
ByBlock
 70
     0
  3

 72
    65
 73
     0
 40
0.0
  0
LTYPE
  5
14
330
5
100
AcDbSymbolTableRecord
100
AcDbLinetypeTableRecord
  2
ByLayer
 70
     0
  3

 72
    65
 73
     0
 40
0.0
  0
LTYPE
  5
15
330
5
100
AcDbSymbolTableRecord
100
AcDbLinetypeTableRecord
  2
CONTINUOUS
 70
     0
  3
Solid line
 72
    65
 73
     0
 40
0.0
  0
ENDTAB
  0
TABLE
  2
LAYER
  5
2
330
0
100
AcDbSymbolTable
 70
     8
  0
LAYER
  5
10
330
2
100
AcDbSymbolTableRecord
100
AcDbLayerTableRecord
  2
0
 70
     0
 62
     7
  6
CONTINUOUS
370
    -3
390
F
  0
LAYER
  5
22
330
2
100
AcDbSymbolTableRecord
100
AcDbLayerTableRecord
  2
1
 70
     0
 62
     7
  6
CONTINUOUS
370
    -3
390
F
  0
LAYER
  5
23
330
2
100
AcDbSymbolTableRecord
100
AcDbLayerTableRecord
  2
7
 70
     0
 62
     7
  6
CONTINUOUS
370
    -3
390
F
  0
LAYER
  5
24
330
2
100
AcDbSymbolTableRecord
100
AcDbLayerTableRecord
  2
8
 70
     0
 62
     7
  6
CONTINUOUS
370
    -3
390
F
  0
LAYER
  5
25
330
2
100
AcDbSymbolTableRecord
100
AcDbLayerTableRecord
  2
9
 70
     0
 62
     7
  6
CONTINUOUS
370
    -3
390
F
  0
LAYER
  5
26
330
2
100
AcDbSymbolTableRecord
100
AcDbLayerTableRecord
  2
22
 70
     0
 62
     7
  6
CONTINUOUS
370
    -3
390
F
  0
LAYER
  5
27
330
2
100
AcDbSymbolTableRecord
100
AcDbLayerTableRecord
  2
25
 70
     0
 62
     7
  6
CONTINUOUS
370
    -3
390
F
  0
LAYER
  5
7F
330
2
100
AcDbSymbolTableRecord
100
AcDbLayerTableRecord
  2
Defpoints
 70
     0
 62
     7
  6
CONTINUOUS
290
     0
370
    -3
390
F
  0
ENDTAB
  0
TABLE
  2
STYLE
  5
3
330
0
100
AcDbSymbolTable
 70
     2
  0
STYLE
  5
11
330
3
100
AcDbSymbolTableRecord
100
AcDbTextStyleTableRecord
  2
Standard
 70
     0
 40
0.0
 41
1.0
 50
0.0
 71
     0
 42
0.2
  3
txt
  4

  0
STYLE
  5
28
330
3
100
AcDbSymbolTableRecord
100
AcDbTextStyleTableRecord
  2
ROMANC
 70
     0
 40
0.0
 41
1.0
 50
0.0
 71
     0
 42
0.2
  3
ROMANC
  4

  0
ENDTAB
  0
TABLE
  2
VIEW
  5
6
330
0
100
AcDbSymbolTable
 70
     0
  0
ENDTAB
  0
TABLE
  2
UCS
  5
7
330
0
100
AcDbSymbolTable
 70
     0
  0
ENDTAB
  0
TABLE
  2
APPID
  5
9
330
0
100
AcDbSymbolTable
 70
     1
  0
APPID
  5
12
330
9
100
AcDbSymbolTableRecord
100
AcDbRegAppTableRecord
  2
ACAD
 70
     0
  0
ENDTAB
  0
TABLE
  2
DIMSTYLE
  5
A
330
0
100
AcDbSymbolTable
 70
     1
100
AcDbDimStyleTable
 71
     1
340
7A
  0
DIMSTYLE
105
7A
102
{ACAD_REACTORS
330
C9
330
E1
330
EF
330
111
330
11F
102
}
330
A
100
AcDbSymbolTableRecord
100
AcDbDimStyleTableRecord
  2
Standard
 70
     0
340
11
  0
ENDTAB
  0
TABLE
  2
BLOCK_RECORD
  5
1
330
0
100
AcDbSymbolTable
 70
     5
  0
BLOCK_RECORD
  5
1E
330
1
100
AcDbSymbolTableRecord
100
AcDbBlockTableRecord
  2
*Model_Space
340
21
  0
BLOCK_RECORD
  5
1A
330
1
100
AcDbSymbolTableRecord
100
AcDbBlockTableRecord
  2
*Paper_Space
340
1D
  0
BLOCK_RECORD
  5
CA
330
1
100
AcDbSymbolTableRecord
100
AcDbBlockTableRecord
  2
*D0
340
0
  0
BLOCK_RECORD
  5
E2
330
1
100
AcDbSymbolTableRecord
100
AcDbBlockTableRecord
  2
*D1
340
0
  0
BLOCK_RECORD
  5
F0
330
1
100
AcDbSymbolTableRecord
100
AcDbBlockTableRecord
  2
*D2
340
0
  0
BLOCK_RECORD
  5
112
330
1
100
AcDbSymbolTableRecord
100
AcDbBlockTableRecord
  2
*D3
340
0
  0
BLOCK_RECORD
  5
120
330
1
100
AcDbSymbolTableRecord
100
AcDbBlockTableRecord
  2
*D4
340
0
  0
ENDTAB
  0
ENDSEC
  0
SECTION
  2
BLOCKS
  0
BLOCK
  5
1F
330
1E
100
AcDbEntity
  8
0
100
AcDbBlockBegin
  2
*Model_Space
 70
     0
 10
0.0
 20
0.0
 30
0.0
  3
*Model_Space
  1

  0
ENDBLK
  5
20
330
1E
100
AcDbEntity
  8
0
100
AcDbBlockEnd
  0
BLOCK
  5
1B
330
1A
100
AcDbEntity
 67
     1
  8
0
100
AcDbBlockBegin
  2
*Paper_Space
 70
     0
 10
0.0
 20
0.0
 30
0.0
  3
*Paper_Space
  1

  0
ENDBLK
  5
1C
330
1A
100
AcDbEntity
 67
     1
  8
0
100
AcDbBlockEnd
  0
BLOCK
  5
D5
330
CA
100
AcDbEntity
  8
0
100
AcDbBlockBegin
  2
*D0
 70
     1
 10
0.0
 20
0.0
 30
0.0
  3
*D0
  1

  0
LINE
  5
D7
330
CA
100
AcDbEntity
  8
0
 62
     0
370
    -2
100
AcDbLine
 10
286.6204088779354
 20
35.11879906935826
 30
0.0
 11
287.6596879965505
 21
35.11879906935826
 31
0.0
  0
LINE
  5
D8
330
CA
100
AcDbEntity
  8
0
 62
     0
370
    -2
100
AcDbLine
 10
286.4704088779354
 20
36.4187990693583
 30
0.0
 11
287.6596879965505
 21
36.4187990693583
 31
0.0
  0
LINE
  5
D9
330
CA
100
AcDbEntity
  8
0
 62
     0
370
    -2
100
AcDbLine
 10
287.4796879965505
 20
35.29879906935827
 30
0.0
 11
287.4796879965505
 21
35.58879906935828
 31
0.0
  0
LINE
  5
DA
330
CA
100
AcDbEntity
  8
0
 62
     0
370
    -2
100
AcDbLine
 10
287.4796879965505
 20
36.2387990693583
 30
0.0
 11
287.4796879965505
 21
35.94879906935828
 31
0.0
  0
SOLID
  5
DB
330
CA
100
AcDbEntity
  8
0
 62
     0
100
AcDbTrace
 10
287.4496879965505
 20
35.29879906935827
 30
0.0
 11
287.5096879965505
 21
35.29879906935827
 31
0.0
 12
287.4796879965505
 22
35.11879906935826
 32
0.0
 13
287.4796879965505
 23
35.11879906935826
 33
0.0
  0
SOLID
  5
DC
330
CA
100
AcDbEntity
  8
0
 62
     0
100
AcDbTrace
 10
287.4496879965505
 20
36.2387990693583
 30
0.0
 11
287.5096879965505
 21
36.2387990693583
 31
0.0
 12
287.4796879965505
 22
36.4187990693583
 32
0.0
 13
287.4796879965505
 23
36.4187990693583
 33
0.0
  0
MTEXT
  5
DD
330
CA
100
AcDbEntity
  8
0
 62
     0
100
AcDbMText
 10
287.4796879965505
 20
35.76879906935833
 30
0.0
 40
0.18
 41
0.0
 71
     5
 72
     1
  1
\A1;1.3000
 73
     1
 44
1.0
  0
POINT
  5
DE
330
CA
100
AcDbEntity
  8
Defpoints
 62
     0
100
AcDbPoint
 10
286.5579088779353
 20
35.11879906935826
 30
0.0
  0
POINT
  5
DF
330
CA
100
AcDbEntity
  8
Defpoints
 62
     0
100
AcDbPoint
 10
286.4079088779354
 20
36.4187990693583
 30
0.0
  0
POINT
  5
E0
330
CA
100
AcDbEntity
  8
Defpoints
 62
     0
100
AcDbPoint
 10
287.4796879965505
 20
36.4187990693583
 30
0.0
  0
ENDBLK
  5
D6
330
CA
100
AcDbEntity
  8
0
100
AcDbBlockEnd
  0
BLOCK
  5
ED
330
E2
100
AcDbEntity
  8
0
100
AcDbBlockBegin
  2
*D1
 70
     1
 10
0.0
 20
0.0
 30
0.0
  3
*D1
  1

  0
LINE
  5
107
330
E2
100
AcDbEntity
  8
0
 62
     0
370
    -2
100
AcDbLine
 10
285.9579088779355
 20
35.20629906935827
 30
0.0
 11
285.9579088779355
 21
34.37367391742501
 31
0.0
  0
LINE
  5
108
330
E2
100
AcDbEntity
  8
0
 62
     0
370
    -2
100
AcDbLine
 10
286.8579088779354
 20
35.20629906935827
 30
0.0
 11
286.8579088779354
 21
34.37367391742501
 31
0.0
  0
LINE
  5
109
330
E2
100
AcDbEntity
  8
0
 62
     0
370
    -2
100
AcDbLine
 10
286.1379088779354
 20
34.553673917425
 30
0.0
 11
286.6779088779354
 21
34.553673917425
 31
0.0
  0
LINE
  5
10A
330
E2
100
AcDbEntity
  8
0
 62
     0
370
    -2
100
AcDbLine
 10
286.8579088779354
 20
34.553673917425
 30
0.0
 11
287.0379088779354
 21
34.553673917425
 31
0.0
  0
SOLID
  5
10B
330
E2
100
AcDbEntity
  8
0
 62
     0
100
AcDbTrace
 10
286.1379088779354
 20
34.58367391742501
 30
0.0
 11
286.1379088779354
 21
34.523673917425
 31
0.0
 12
285.9579088779355
 22
34.553673917425
 32
0.0
 13
285.9579088779355
 23
34.553673917425
 33
0.0
  0
SOLID
  5
10C
330
E2
100
AcDbEntity
  8
0
 62
     0
100
AcDbTrace
 10
286.6779088779354
 20
34.58367391742501
 30
0.0
 11
286.6779088779354
 21
34.523673917425
 31
0.0
 12
286.8579088779354
 22
34.553673917425
 32
0.0
 13
286.8579088779354
 23
34.553673917425
 33
0.0
  0
MTEXT
  5
10D
330
E2
100
AcDbEntity
  8
0
 62
     0
100
AcDbMText
 10
287.5179088779354
 20
34.553673917425
 30
0.0
 40
0.18
 41
0.0
 71
     5
 72
     1
  1
\A1;0.9000
 73
     1
 44
1.0
  0
POINT
  5
10E
330
E2
100
AcDbEntity
  8
Defpoints
 62
     0
100
AcDbPoint
 10
285.9579088779355
 20
35.26879906935827
 30
0.0
  0
POINT
  5
10F
330
E2
100
AcDbEntity
  8
Defpoints
 62
     0
100
AcDbPoint
 10
286.8579088779354
 20
35.26879906935827
 30
0.0
  0
POINT
  5
110
330
E2
100
AcDbEntity
  8
Defpoints
 62
     0
100
AcDbPoint
 10
286.8579088779354
 20
34.553673917425
 30
0.0
  0
ENDBLK
  5
EE
330
E2
100
AcDbEntity
  8
0
100
AcDbBlockEnd
  0
BLOCK
  5
FB
330
F0
100
AcDbEntity
  8
0
100
AcDbBlockBegin
  2
*D2
 70
     1
 10
0.0
 20
0.0
 30
0.0
  3
*D2
  1

  0
LINE
  5
F1
330
F0
100
AcDbEntity
  8
0
 62
     0
370
    -2
100
AcDbLine
 10
286.2579088779355
 20
35.05629906935827
 30
0.0
 11
286.2579088779355
 21
34.66172258098629
 31
0.0
  0
LINE
  5
F2
330
F0
100
AcDbEntity
  8
0
 62
     0
370
    -2
100
AcDbLine
 10
286.5579088779353
 20
35.05629906935826
 30
0.0
 11
286.5579088779353
 21
34.66172258098629
 31
0.0
  0
LINE
  5
F3
330
F0
100
AcDbEntity
  8
0
 62
     0
370
    -2
100
AcDbLine
 10
286.0779088779354
 20
34.84172258098629
 30
0.0
 11
285.8979088779355
 21
34.84172258098629
 31
0.0
  0
LINE
  5
F4
330
F0
100
AcDbEntity
  8
0
 62
     0
370
    -2
100
AcDbLine
 10
286.7379088779354
 20
34.84172258098629
 30
0.0
 11
286.9179088779353
 21
34.84172258098629
 31
0.0
  0
SOLID
  5
F5
330
F0
100
AcDbEntity
  8
0
 62
     0
100
AcDbTrace
 10
286.0779088779354
 20
34.87172258098629
 30
0.0
 11
286.0779088779354
 21
34.81172258098629
 31
0.0
 12
286.2579088779355
 22
34.84172258098629
 32
0.0
 13
286.2579088779355
 23
34.84172258098629
 33
0.0
  0
SOLID
  5
F6
330
F0
100
AcDbEntity
  8
0
 62
     0
100
AcDbTrace
 10
286.7379088779354
 20
34.87172258098629
 30
0.0
 11
286.7379088779354
 21
34.81172258098629
 31
0.0
 12
286.5579088779353
 22
34.84172258098629
 32
0.0
 13
286.5579088779353
 23
34.84172258098629
 33
0.0
  0
MTEXT
  5
F7
330
F0
100
AcDbEntity
  8
0
 62
     0
100
AcDbMText
 10
287.3979088779353
 20
34.84172258098629
 30
0.0
 40
0.18
 41
0.0
 71
     5
 72
     1
  1
\A1;0.3000
 73
     1
 44
1.0
  0
POINT
  5
F8
330
F0
100
AcDbEntity
  8
Defpoints
 62
     0
100
AcDbPoint
 10
286.2579088779355
 20
35.11879906935827
 30
0.0
  0
POINT
  5
F9
330
F0
100
AcDbEntity
  8
Defpoints
 62
     0
100
AcDbPoint
 10
286.5579088779353
 20
35.11879906935826
 30
0.0
  0
POINT
  5
FA
330
F0
100
AcDbEntity
  8
Defpoints
 62
     0
100
AcDbPoint
 10
286.5579088779353
 20
34.84172258098629
 30
0.0
  0
ENDBLK
  5
FC
330
F0
100
AcDbEntity
  8
0
100
AcDbBlockEnd
  0
BLOCK
  5
11D
330
112
100
AcDbEntity
  8
0
100
AcDbBlockBegin
  2
*D3
 70
     1
 10
0.0
 20
0.0
 30
0.0
  3
*D3
  1

  0
LINE
  5
113
330
112
100
AcDbEntity
  8
0
 62
     0
370
    -2
100
AcDbLine
 10
286.9066063438365
 20
36.06176105787614
 30
0.0
 11
286.9066063438365
 21
36.92284377432087
 31
0.0
  0
LINE
  5
114
330
112
100
AcDbEntity
  8
0
 62
     0
370
    -2
100
AcDbLine
 10
285.9092114120342
 20
36.06176105787614
 30
0.0
 11
285.9092114120342
 21
36.92284377432087
 31
0.0
  0
LINE
  5
115
330
112
100
AcDbEntity
  8
0
 62
     0
370
    -2
100
AcDbLine
 10
287.0866063438366
 20
36.74284377432087
 30
0.0
 11
287.2666063438365
 21
36.74284377432087
 31
0.0
  0
LINE
  5
116
330
112
100
AcDbEntity
  8
0
 62
     0
370
    -2
100
AcDbLine
 10
285.7292114120342
 20
36.74284377432087
 30
0.0
 11
285.5492114120342
 21
36.74284377432087
 31
0.0
  0
SOLID
  5
117
330
112
100
AcDbEntity
  8
0
 62
     0
100
AcDbTrace
 10
287.0866063438366
 20
36.77284377432087
 30
0.0
 11
287.0866063438366
 21
36.71284377432087
 31
0.0
 12
286.9066063438365
 22
36.74284377432087
 32
0.0
 13
286.9066063438365
 23
36.74284377432087
 33
0.0
  0
SOLID
  5
118
330
112
100
AcDbEntity
  8
0
 62
     0
100
AcDbTrace
 10
285.7292114120342
 20
36.77284377432087
 30
0.0
 11
285.7292114120342
 21
36.71284377432087
 31
0.0
 12
285.9092114120342
 22
36.74284377432087
 32
0.0
 13
285.9092114120342
 23
36.74284377432087
 33
0.0
  0
MTEXT
  5
119
330
112
100
AcDbEntity
  8
0
 62
     0
100
AcDbMText
 10
286.4079088779354
 20
36.74284377432087
 30
0.0
 40
0.18
 41
0.0
 71
     5
 72
     1
  1
\A1;0.1000
 73
     1
 44
1.0
  0
POINT
  5
11A
330
112
100
AcDbEntity
  8
Defpoints
 62
     0
100
AcDbPoint
 10
286.9066063438365
 20
35.99926105787615
 30
0.0
  0
POINT
  5
11B
330
112
100
AcDbEntity
  8
Defpoints
 62
     0
100
AcDbPoint
 10
285.9092114120342
 20
35.99926105787615
 30
0.0
  0
POINT
  5
11C
330
112
100
AcDbEntity
  8
Defpoints
 62
     0
100
AcDbPoint
 10
285.9092114120342
 20
36.74284377432087
 30
0.0
  0
ENDBLK
  5
11E
330
112
100
AcDbEntity
  8
0
100
AcDbBlockEnd
  0
BLOCK
  5
12C
330
120
100
AcDbEntity
  8
0
100
AcDbBlockBegin
  2
*D4
 70
     1
 10
0.0
 20
0.0
 30
0.0
  3
*D4
  1

  0
LINE
  5
121
330
120
100
AcDbEntity
  8
0
 62
     0
370
    -2
100
AcDbLine
 10
285.8954088779355
 20
35.26879906935827
 30
0.0
 11
285.5062434282004
 21
35.26879906935827
 31
0.0
  0
LINE
  5
122
330
120
100
AcDbEntity
  8
0
 62
     0
370
    -2
100
AcDbLine
 10
286.1954088779355
 20
35.11879906935827
 30
0.0
 11
285.5062434282004
 21
35.11879906935827
 31
0.0
  0
LINE
  5
123
330
120
100
AcDbEntity
  8
0
 62
     0
370
    -2
100
AcDbLine
 10
285.6862434282005
 20
35.44879906935827
 30
0.0
 11
285.6862434282005
 21
35.62879906935827
 31
0.0
  0
LINE
  5
124
330
120
100
AcDbEntity
  8
0
 62
     0
370
    -2
100
AcDbLine
 10
285.6862434282005
 20
34.93879906935827
 30
0.0
 11
285.6862434282005
 21
34.75879906935827
 31
0.0
  0
LINE
  5
125
330
120
100
AcDbEntity
  8
0
 62
     0
370
    -2
100
AcDbLine
 10
285.6862434282005
 20
34.75879906935827
 30
0.0
 11
285.5062434282004
 21
34.75879906935827
 31
0.0
  0
SOLID
  5
126
330
120
100
AcDbEntity
  8
0
 62
     0
100
AcDbTrace
 10
285.6562434282005
 20
35.44879906935827
 30
0.0
 11
285.7162434282004
 21
35.44879906935827
 31
0.0
 12
285.6862434282005
 22
35.26879906935827
 32
0.0
 13
285.6862434282005
 23
35.26879906935827
 33
0.0
  0
SOLID
  5
127
330
120
100
AcDbEntity
  8
0
 62
     0
100
AcDbTrace
 10
285.6562434282005
 20
34.93879906935827
 30
0.0
 11
285.7162434282004
 21
34.93879906935827
 31
0.0
 12
285.6862434282005
 22
35.11879906935827
 32
0.0
 13
285.6862434282005
 23
35.11879906935827
 33
0.0
  0
MTEXT
  5
128
330
120
100
AcDbEntity
  8
0
 62
     0
100
AcDbMText
 10
285.0412434282005
 20
34.75879906935832
 30
0.0
 40
0.18
 41
0.0
 71
     5
 72
     1
  1
\A1;0.1500
 73
     1
 44
1.0
  0
POINT
  5
129
330
120
100
AcDbEntity
  8
Defpoints
 62
     0
100
AcDbPoint
 10
285.9579088779355
 20
35.26879906935827
 30
0.0
  0
POINT
  5
12A
330
120
100
AcDbEntity
  8
Defpoints
 62
     0
100
AcDbPoint
 10
286.2579088779355
 20
35.11879906935827
 30
0.0
  0
POINT
  5
12B
330
120
100
AcDbEntity
  8
Defpoints
 62
     0
100
AcDbPoint
 10
285.6862434282005
 20
35.11879906935827
 30
0.0
  0
ENDBLK
  5
12D
330
120
100
AcDbEntity
  8
0
100
AcDbBlockEnd
  0
ENDSEC
  0
SECTION
  2
ENTITIES
  0
TEXT
  5
2C
330
1E
100
AcDbEntity
  8
0
  6
Continuous
100
AcDbText
 10
287.2805487186718
 20
41.39364127471099
 30
0.0
 40
0.1
  1
2
  7
ROMANC
100
AcDbText
  0
TEXT
  5
2D
330
1E
100
AcDbEntity
  8
0
  6
Continuous
100
AcDbText
 10
283.9259999999999
 20
41.768
 30
0.0
 40
0.3
  1
ESCALA  1:50
  7
ROMANC
100
AcDbText
  0
LWPOLYLINE
  5
2E
330
1E
100
AcDbEntity
  8
0
  6
Continuous
100
AcDbPolyline
 90
        4
 70
     1
 43
0.0
 10
281.3959999999999
 20
44.747
 10
291.8959999999999
 20
44.747
 10
291.8959999999999
 20
29.897
 10
281.3959999999999
 20
29.897
  0
TEXT
  5
34
330
1E
100
AcDbEntity
  8
0
  6
Continuous
100
AcDbText
 10
283.9259999999999
 20
42.381
 30
0.0
 40
0.3
  1
TIPUS   NT105E
  7
ROMANC
100
AcDbText
  0
TEXT
  5
3C
330
1E
100
AcDbEntity
  8
0
  6
Continuous
100
AcDbText
 10
283.9449999999999
 20
41.09899999999998
 30
0.0
 40
0.3
  1
S = 105 dm
  7
ROMANC
100
AcDbText
  0
TEXT
  5
3D
330
1E
100
AcDbEntity
  8
0
  6
Continuous
100
AcDbText
 10
283.922
 20
40.529
 30
0.0
 40
0.3
  1
P = 40 dm
  7
ROMANC
100
AcDbText
  0
LWPOLYLINE
  5
C8
330
1E
100
AcDbEntity
  8
0
100
AcDbPolyline
 90
       10
 70
     1
 43
0.0
 10
286.5579088779353
 20
35.26879906935827
 10
286.8579088779354
 20
35.26879906935827
 10
286.9066063438365
 20
35.99926105787615
 42
0.0831617651719421
 10
286.9024764493126
 20
36.04068347076727
 42
0.7645377911416622
 10
285.9133413065582
 20
36.04068347076727
 42
0.0831617651719425
 10
285.9092114120342
 20
35.99926105787615
 10
285.9579088779355
 20
35.26879906935827
 10
286.2579088779354
 20
35.26879906935827
 10
286.2579088779355
 20
35.11879906935827
 10
286.5579088779353
 20
35.11879906935826
  0
DIMENSION
  5
C9
330
1E
100
AcDbEntity
  8
0
100
AcDbDimension
  2
*D0
 10
287.4796879965505
 20
36.4187990693583
 30
0.0
 11
287.4796879965505
 21
35.76879906935833
 31
0.0
 70
    32
 71
     5
 42
1.300000000000039
  3
Standard
100
AcDbAlignedDimension
 13
286.5579088779353
 23
35.11879906935826
 33
0.0
 14
286.4079088779354
 24
36.4187990693583
 34
0.0
 50
90.0
100
AcDbRotatedDimension
  0
DIMENSION
  5
E1
330
1E
100
AcDbEntity
  8
0
100
AcDbDimension
  2
*D1
 10
286.8579088779354
 20
34.553673917425
 30
0.0
 11
287.5179088779354
 21
34.553673917425
 31
0.0
 70
   160
 71
     5
 42
0.8999999999999204
  3
Standard
100
AcDbAlignedDimension
 13
285.9579088779355
 23
35.26879906935827
 33
0.0
 14
286.8579088779354
 24
35.26879906935827
 34
0.0
100
AcDbRotatedDimension
  0
DIMENSION
  5
EF
330
1E
100
AcDbEntity
  8
0
100
AcDbDimension
  2
*D2
 10
286.5579088779353
 20
34.84172258098629
 30
0.0
 11
287.3979088779353
 21
34.84172258098629
 31
0.0
 70
    32
 71
     5
 42
0.2999999999998977
  3
Standard
100
AcDbAlignedDimension
 13
286.2579088779355
 23
35.11879906935827
 33
0.0
 14
286.5579088779353
 24
35.11879906935826
 34
0.0
100
AcDbRotatedDimension
  0
DIMENSION
  5
111
330
1E
100
AcDbEntity
  8
0
100
AcDbDimension
  2
*D3
 10
285.9092114120342
 20
36.74284377432087
 30
0.0
 11
286.4079088779354
 21
36.74284377432087
 31
0.0
 70
    32
  1
0.1000
 71
     5
 42
0.9973949318023187
  3
Standard
100
AcDbAlignedDimension
 13
286.9066063438365
 23
35.99926105787615
 33
0.0
 14
285.9092114120342
 24
35.99926105787615
 34
0.0
100
AcDbRotatedDimension
  0
DIMENSION
  5
11F
330
1E
100
AcDbEntity
  8
0
100
AcDbDimension
  2
*D4
 10
285.6862434282005
 20
35.11879906935827
 30
0.0
 11
285.0412434282005
 21
34.75879906935832
 31
0.0
 70
    32
 71
     5
 42
0.1499999999999986
  3
Standard
100
AcDbAlignedDimension
 13
285.9579088779355
 23
35.26879906935827
 33
0.0
 14
286.2579088779355
 24
35.11879906935827
 34
0.0
 50
90.0
100
AcDbRotatedDimension
  0
LWPOLYLINE
  5
12E
330
1E
100
AcDbEntity
  8
0
100
AcDbPolyline
 90
       10
 70
     1
 43
0.0
 10
286.5479088779353
 20
35.27879906935827
 10
286.8485533470165
 20
35.27879906935827
 10
286.896628492258
 20
35.99992624798138
 42
0.0831617651705951
 10
286.8928263503589
 20
36.03806133610567
 42
0.7645377911417425
 10
285.9229914055118
 20
36.03806133610563
 42
0.0831617651706108
 10
285.9191892636128
 20
35.99992624798136
 10
285.9672644088544
 20
35.27879906935827
 10
286.2679088779354
 20
35.27879906935827
 10
286.2679088779355
 20
35.12879906935827
 10
286.5479088779354
 20
35.12879906935826
  0
LWPOLYLINE
  5
12F
330
1E
100
AcDbEntity
  8
0
100
AcDbPolyline
 90
       10
 70
     1
 43
0.0
 10
286.5679088779353
 20
35.25879906935827
 10
286.8672644088543
 20
35.25879906935827
 10
286.9165841954151
 20
35.99859586777091
 42
0.083161765170592
 10
286.9121265482663
 20
36.04330560542887
 42
0.7645377911418747
 10
285.9036912076044
 20
36.0433056054289
 42
0.0831617651705921
 10
285.8992335604556
 20
35.99859586777092
 10
285.9485533470165
 20
35.25879906935827
 10
286.2479088779354
 20
35.25879906935827
 10
286.2479088779355
 20
35.10879906935827
 10
286.5679088779354
 20
35.10879906935826
  0
ENDSEC
  0
SECTION
  2
OBJECTS
  0
DICTIONARY
  5
C
330
0
100
AcDbDictionary
281
     1
  3
ACAD_GROUP
350
D
  3
ACAD_LAYOUT
350
19
  3
ACAD_MLINESTYLE
350
16
  3
ACAD_PLOTSETTINGS
350
18
  3
ACAD_PLOTSTYLENAME
350
E
  0
DICTIONARY
  5
D
102
{ACAD_REACTORS
330
C
102
}
330
C
100
AcDbDictionary
281
     1
  0
DICTIONARY
  5
19
102
{ACAD_REACTORS
330
C
102
}
330
C
100
AcDbDictionary
281
     1
  3
Model
350
21
  3
Presentación1
350
1D
  0
DICTIONARY
  5
16
102
{ACAD_REACTORS
330
C
102
}
330
C
100
AcDbDictionary
281
     1
  3
Standard
350
17
  0
DICTIONARY
  5
18
102
{ACAD_REACTORS
330
C
102
}
330
C
100
AcDbDictionary
281
     1
  0
ACDBDICTIONARYWDFLT
  5
E
102
{ACAD_REACTORS
330
C
102
}
330
C
100
AcDbDictionary
281
     1
  3
Normal
350
F
100
AcDbDictionaryWithDefault
340
F
  0
LAYOUT
  5
21
102
{ACAD_REACTORS
330
19
102
}
330
19
100
AcDbPlotSettings
  1

  2
HP DesignJet 750C/PS FILE
  4

  6

 40
0.0
 41
0.0
 42
0.0
 43
0.0
 44
0.0
 45
0.0
 46
0.0
 47
0.0
 48
0.0
 49
0.0
140
0.0
141
0.0
142
1.0
143
1.0
 70
  1712
 72
     0
 73
     0
 74
     0
  7

 75
     0
147
1.0
148
0.0
149
0.0
100
AcDbLayout
  1
Model
 70
     1
 71
     0
 10
0.0
 20
0.0
 11
12.0
 21
9.0
 12
0.0
 22
0.0
 32
0.0
 14
0.0
 24
0.0
 34
0.0
 15
0.0
 25
0.0
 35
0.0
146
0.0
 13
0.0
 23
0.0
 33
0.0
 16
1.0
 26
0.0
 36
0.0
 17
0.0
 27
1.0
 37
0.0
 76
     0
330
1E
  0
LAYOUT
  5
1D
102
{ACAD_REACTORS
330
19
102
}
330
19
100
AcDbPlotSettings
  1

  2
HP DesignJet 750C/PS FILE
  4

  6

 40
0.0
 41
0.0
 42
0.0
 43
0.0
 44
0.0
 45
0.0
 46
0.0
 47
0.0
 48
0.0
 49
0.0
140
0.0
141
0.0
142
1.0
143
1.0
 70
   688
 72
     0
 73
     0
 74
     5
  7

 75
    16
147
1.0
148
0.0
149
0.0
100
AcDbLayout
  1
Presentación1
 70
     1
 71
     1
 10
0.0
 20
0.0
 11
12.0
 21
9.0
 12
0.0
 22
0.0
 32
0.0
 14
1.000000000000000E+20
 24
1.000000000000000E+20
 34
1.000000000000000E+20
 15
-1.000000000000000E+20
 25
-1.000000000000000E+20
 35
-1.000000000000000E+20
146
0.0
 13
0.0
 23
0.0
 33
0.0
 16
1.0
 26
0.0
 36
0.0
 17
0.0
 27
1.0
 37
0.0
 76
     0
330
1A
  0
MLINESTYLE
  5
17
102
{ACAD_REACTORS
330
16
102
}
330
16
100
AcDbMlineStyle
  2
STANDARD
 70
     0
  3

 62
   256
 51
90.0
 52
90.0
 71
     2
 49
0.5
 62
   256
  6
BYLAYER
 49
-0.5
 62
   256
  6
BYLAYER
  0
ACDBPLACEHOLDER
  5
F
102
{ACAD_REACTORS
330
E
102
}
330
E
  0
ENDSEC
  0
EOF
