  0
SECTION
  2
HEADER
  9
$ACADVER
  1
AC1015
  9
$ACADMAINTVER
 70
     6
  9
$DWGCODEPAGE
  3
ANSI_1252
  9
$INSBASE
 10
0.0
 20
0.0
 30
0.0
  9
$EXTMIN
 10
281.3950692441339
 20
29.89660406180441
 30
-0.0000000349181948
  9
$EXTMAX
 10
291.8969308140734
 20
44.74796749579872
 30
0.0000000814935747
  9
$LIMMIN
 10
280.3959999999999
 20
28.89699999999999
  9
$LIMMAX
 10
292.8959999999999
 20
43.74699999999999
  9
$ORTHOMODE
 70
     1
  9
$REGENMODE
 70
     1
  9
$FILLMODE
 70
     1
  9
$QTEXTMODE
 70
     0
  9
$MIRRTEXT
 70
     1
  9
$LTSCALE
 40
1.0
  9
$ATTMODE
 70
     1
  9
$TEXTSIZE
 40
0.2
  9
$TRACEWID
 40
0.05
  9
$TEXTSTYLE
  7
STANDARD
  9
$CLAYER
  8
0
  9
$CELTYPE
  6
BYLAYER
  9
$CECOLOR
 62
   256
  9
$CELTSCALE
 40
1.0
  9
$DISPSILH
 70
     0
  9
$DIMSCALE
 40
1.0
  9
$DIMASZ
 40
0.18
  9
$DIMEXO
 40
0.0625
  9
$DIMDLI
 40
0.38
  9
$DIMRND
 40
0.0
  9
$DIMDLE
 40
0.0
  9
$DIMEXE
 40
0.18
  9
$DIMTP
 40
0.0
  9
$DIMTM
 40
0.0
  9
$DIMTXT
 40
0.18
  9
$DIMCEN
 40
0.09
  9
$DIMTSZ
 40
0.0
  9
$DIMTOL
 70
     0
  9
$DIMLIM
 70
     0
  9
$DIMTIH
 70
     1
  9
$DIMTOH
 70
     1
  9
$DIMSE1
 70
     0
  9
$DIMSE2
 70
     0
  9
$DIMTAD
 70
     0
  9
$DIMZIN
 70
     0
  9
$DIMBLK
  1

  9
$DIMASO
 70
     1
  9
$DIMSHO
 70
     1
  9
$DIMPOST
  1

  9
$DIMAPOST
  1

  9
$DIMALT
 70
     0
  9
$DIMALTD
 70
     2
  9
$DIMALTF
 40
25.4
  9
$DIMLFAC
 40
1.0
  9
$DIMTOFL
 70
     0
  9
$DIMTVP
 40
0.0
  9
$DIMTIX
 70
     0
  9
$DIMSOXD
 70
     0
  9
$DIMSAH
 70
     0
  9
$DIMBLK1
  1

  9
$DIMBLK2
  1

  9
$DIMSTYLE
  2
STANDARD
  9
$DIMCLRD
 70
     0
  9
$DIMCLRE
 70
     0
  9
$DIMCLRT
 70
     0
  9
$DIMTFAC
 40
1.0
  9
$DIMGAP
 40
0.09
  9
$DIMJUST
 70
     0
  9
$DIMSD1
 70
     0
  9
$DIMSD2
 70
     0
  9
$DIMTOLJ
 70
     1
  9
$DIMTZIN
 70
     0
  9
$DIMALTZ
 70
     0
  9
$DIMALTTZ
 70
     0
  9
$DIMUPT
 70
     0
  9
$DIMDEC
 70
     4
  9
$DIMTDEC
 70
     4
  9
$DIMALTU
 70
     2
  9
$DIMALTTD
 70
     2
  9
$DIMTXSTY
  7
STANDARD
  9
$DIMAUNIT
 70
     0
  9
$DIMADEC
 70
     0
  9
$DIMALTRND
 40
0.0
  9
$DIMAZIN
 70
     0
  9
$DIMDSEP
 70
    46
  9
$DIMATFIT
 70
     3
  9
$DIMFRAC
 70
     0
  9
$DIMLDRBLK
  1

  9
$DIMLUNIT
 70
     2
  9
$DIMLWD
 70
    -2
  9
$DIMLWE
 70
    -2
  9
$DIMTMOVE
 70
     0
  9
$LUNITS
 70
     2
  9
$LUPREC
 70
     4
  9
$SKETCHINC
 40
0.1
  9
$FILLETRAD
 40
0.0
  9
$AUNITS
 70
     0
  9
$AUPREC
 70
     0
  9
$MENU
  1
acad
  9
$ELEVATION
 40
0.0
  9
$PELEVATION
 40
0.0
  9
$THICKNESS
 40
0.0
  9
$LIMCHECK
 70
     0
  9
$CHAMFERA
 40
0.0
  9
$CHAMFERB
 40
0.0
  9
$CHAMFERC
 40
0.0
  9
$CHAMFERD
 40
0.0
  9
$SKPOLY
 70
     0
  9
$TDCREATE
 40
2448315.373408102
  9
$TDUCREATE
 40
2448315.290074768
  9
$TDUPDATE
 40
2451808.539524861
  9
$TDUUPDATE
 40
2451808.456191527
  9
$TDINDWG
 40
0.0982569097
  9
$TDUSRTIMER
 40
0.0981968866
  9
$USRTIMER
 70
     1
  9
$ANGBASE
 50
0.0
  9
$ANGDIR
 70
     0
  9
$PDMODE
 70
     0
  9
$PDSIZE
 40
0.0
  9
$PLINEWID
 40
0.0
  9
$SPLFRAME
 70
     0
  9
$SPLINETYPE
 70
     6
  9
$SPLINESEGS
 70
     8
  9
$HANDSEED
  5
456
  9
$SURFTAB1
 70
     6
  9
$SURFTAB2
 70
     6
  9
$SURFTYPE
 70
     6
  9
$SURFU
 70
     6
  9
$SURFV
 70
     6
  9
$UCSBASE
  2

  9
$UCSNAME
  2

  9
$UCSORG
 10
0.0
 20
0.0
 30
0.0
  9
$UCSXDIR
 10
1.0
 20
0.0
 30
0.0
  9
$UCSYDIR
 10
0.0
 20
1.0
 30
0.0
  9
$UCSORTHOREF
  2

  9
$UCSORTHOVIEW
 70
     0
  9
$UCSORGTOP
 10
0.0
 20
0.0
 30
0.0
  9
$UCSORGBOTTOM
 10
0.0
 20
0.0
 30
0.0
  9
$UCSORGLEFT
 10
0.0
 20
0.0
 30
0.0
  9
$UCSORGRIGHT
 10
0.0
 20
0.0
 30
0.0
  9
$UCSORGFRONT
 10
0.0
 20
0.0
 30
0.0
  9
$UCSORGBACK
 10
0.0
 20
0.0
 30
0.0
  9
$PUCSBASE
  2

  9
$PUCSNAME
  2

  9
$PUCSORG
 10
0.0
 20
0.0
 30
0.0
  9
$PUCSXDIR
 10
1.0
 20
0.0
 30
0.0
  9
$PUCSYDIR
 10
0.0
 20
1.0
 30
0.0
  9
$PUCSORTHOREF
  2

  9
$PUCSORTHOVIEW
 70
     0
  9
$PUCSORGTOP
 10
0.0
 20
0.0
 30
0.0
  9
$PUCSORGBOTTOM
 10
0.0
 20
0.0
 30
0.0
  9
$PUCSORGLEFT
 10
0.0
 20
0.0
 30
0.0
  9
$PUCSORGRIGHT
 10
0.0
 20
0.0
 30
0.0
  9
$PUCSORGFRONT
 10
0.0
 20
0.0
 30
0.0
  9
$PUCSORGBACK
 10
0.0
 20
0.0
 30
0.0
  9
$USERI1
 70
     0
  9
$USERI2
 70
     0
  9
$USERI3
 70
     0
  9
$USERI4
 70
     0
  9
$USERI5
 70
     0
  9
$USERR1
 40
0.0
  9
$USERR2
 40
0.0
  9
$USERR3
 40
0.0
  9
$USERR4
 40
0.0
  9
$USERR5
 40
0.0
  9
$WORLDVIEW
 70
     1
  9
$SHADEDGE
 70
     3
  9
$SHADEDIF
 70
    70
  9
$TILEMODE
 70
     1
  9
$MAXACTVP
 70
    16
  9
$PINSBASE
 10
0.0
 20
0.0
 30
0.0
  9
$PLIMCHECK
 70
     0
  9
$PEXTMIN
 10
0.3356100001950608
 20
0.467916977571349
 30
0.0
  9
$PEXTMAX
 10
199.6258939823488
 20
286.3192515252361
 30
0.0
  9
$PLIMMIN
 10
-5.027083396911621
 20
-5.111741065979003
  9
$PLIMMAX
 10
204.9885873794554
 20
291.8989095687866
  9
$UNITMODE
 70
     0
  9
$VISRETAIN
 70
     0
  9
$PLINEGEN
 70
     0
  9
$PSLTSCALE
 70
     1
  9
$TREEDEPTH
 70
  3020
  9
$CMLSTYLE
  2
STANDARD
  9
$CMLJUST
 70
     0
  9
$CMLSCALE
 40
1.0
  9
$PROXYGRAPHICS
 70
     1
  9
$MEASUREMENT
 70
     0
  9
$CELWEIGHT
370
    -1
  9
$ENDCAPS
280
     0
  9
$JOINSTYLE
280
     0
  9
$LWDISPLAY
290
     0
  9
$INSUNITS
 70
     0
  9
$HYPERLINKBASE
  1

  9
$STYLESHEET
  1

  9
$XEDIT
290
     1
  9
$CEPSNTYPE
380
     0
  9
$PSTYLEMODE
290
     1
  9
$FINGERPRINTGUID
  2
{A09CBBB2-476A-11D4-A5CD-0008C769B1B5}
  9
$VERSIONGUID
  2
{A64C11B7-8EE3-11D4-A61C-0008C769B1B5}
  9
$EXTNAMES
290
     1
  9
$PSVPSCALE
 40
0.0
  9
$OLESTARTUP
290
     0
  0
ENDSEC
  0
SECTION
  2
CLASSES
  0
CLASS
  1
ACDBDICTIONARYWDFLT
  2
AcDbDictionaryWithDefault
  3
AutoCAD 2000
 90
        0
280
     0
281
     0
  0
CLASS
  1
ACDBPLACEHOLDER
  2
AcDbPlaceHolder
  3
AutoCAD 2000
 90
        0
280
     0
281
     0
  0
CLASS
  1
LAYOUT
  2
AcDbLayout
  3
AutoCAD 2000
 90
        0
280
     0
281
     0
  0
CLASS
  1
LONG_TRANSACTION
  2
AcDbLongTransaction
  3
AutoCAD 2000
 90
    32768
280
     0
281
     0
  0
CLASS
  1
LWPOLYLINE
  2
AcDbPolyline
  3
AutoCAD 2000
 90
    32768
280
     0
281
     1
  0
CLASS
  1
HATCH
  2
AcDbHatch
  3
AutoCAD 2000
 90
    32768
280
     0
281
     1
  0
CLASS
  1
XRECORD
  2
AcDbXrecord
  3
AutoCAD 2000
 90
    32768
280
     0
281
     0
  0
CLASS
  1
LONG_TRANSACTION
  2
AcDbLongTransaction
  3
AutoCAD 2000
 90
    32768
280
     0
281
     0
  0
CLASS
  1
LWPOLYLINE
  2
AcDbPolyline
  3
AutoCAD 2000
 90
    32768
280
     0
281
     1
  0
CLASS
  1
HATCH
  2
AcDbHatch
  3
AutoCAD 2000
 90
    32768
280
     0
281
     1
  0
CLASS
  1
XRECORD
  2
AcDbXrecord
  3
AutoCAD 2000
 90
    32768
280
     0
281
     0
  0
ENDSEC
  0
SECTION
  2
TABLES
  0
TABLE
  2
VPORT
  5
8
330
0
100
AcDbSymbolTable
 70
     3
  0
VPORT
  5
455
330
8
100
AcDbSymbolTableRecord
100
AcDbViewportTableRecord
  2
*Active
 70
     0
 10
0.0
 20
0.0
 11
1.0
 21
1.0
 12
286.6460000291037
 22
37.32228577880157
 13
0.0
 23
0.0
 14
1.0
 24
1.0
 15
0.0
 25
0.0
 16
0.0
 26
0.0
 36
1.0
 17
0.0
 27
0.0
 37
0.0
 40
14.99705594691234
 41
1.271428571428571
 42
50.0
 43
0.0
 44
0.0
 50
0.0
 51
0.0
 71
     0
 72
   100
 73
     1
 74
     1
 75
     0
 76
     0
 77
     0
 78
     0
281
     0
 65
     1
110
0.0
120
0.0
130
0.0
111
1.0
121
0.0
131
0.0
112
0.0
122
1.0
132
0.0
 79
     0
146
0.0
  0
ENDTAB
  0
TABLE
  2
LTYPE
  5
5
330
0
100
AcDbSymbolTable
 70
     1
  0
LTYPE
  5
13
330
5
100
AcDbSymbolTableRecord
100
AcDbLinetypeTableRecord
  2
BYBLOCK
 70
     0
  3

 72
    65
 73
     0
 40
0.0
  0
LTYPE
  5
14
330
5
100
AcDbSymbolTableRecord
100
AcDbLinetypeTableRecord
  2
BYLAYER
 70
     0
  3

 72
    65
 73
     0
 40
0.0
  0
LTYPE
  5
15
330
5
100
AcDbSymbolTableRecord
100
AcDbLinetypeTableRecord
  2
CONTINUOUS
 70
     0
  3
Solid line
 72
    65
 73
     0
 40
0.0
  0
ENDTAB
  0
TABLE
  2
LAYER
  5
2
330
0
100
AcDbSymbolTable
 70
     8
  0
LAYER
  5
10
330
2
100
AcDbSymbolTableRecord
100
AcDbLayerTableRecord
  2
0
 70
     0
 62
     7
  6
CONTINUOUS
370
    -3
390
F
  0
LAYER
  5
22
330
2
100
AcDbSymbolTableRecord
100
AcDbLayerTableRecord
  2
1
 70
     0
 62
     7
  6
CONTINUOUS
370
    -3
390
F
  0
LAYER
  5
23
330
2
100
AcDbSymbolTableRecord
100
AcDbLayerTableRecord
  2
7
 70
     0
 62
     7
  6
CONTINUOUS
370
    -3
390
F
  0
LAYER
  5
24
330
2
100
AcDbSymbolTableRecord
100
AcDbLayerTableRecord
  2
8
 70
     0
 62
     7
  6
CONTINUOUS
370
    -3
390
F
  0
LAYER
  5
25
330
2
100
AcDbSymbolTableRecord
100
AcDbLayerTableRecord
  2
9
 70
     0
 62
     7
  6
CONTINUOUS
370
    -3
390
F
  0
LAYER
  5
26
330
2
100
AcDbSymbolTableRecord
100
AcDbLayerTableRecord
  2
22
 70
     0
 62
     7
  6
CONTINUOUS
370
    -3
390
F
  0
LAYER
  5
27
330
2
100
AcDbSymbolTableRecord
100
AcDbLayerTableRecord
  2
25
 70
     0
 62
     7
  6
CONTINUOUS
370
    -3
390
F
  0
LAYER
  5
7F
330
2
100
AcDbSymbolTableRecord
100
AcDbLayerTableRecord
  2
DEFPOINTS
 70
     0
 62
     7
  6
CONTINUOUS
290
     0
370
    -3
390
F
  0
ENDTAB
  0
TABLE
  2
STYLE
  5
3
330
0
100
AcDbSymbolTable
 70
     2
  0
STYLE
  5
11
330
3
100
AcDbSymbolTableRecord
100
AcDbTextStyleTableRecord
  2
STANDARD
 70
     0
 40
0.0
 41
1.0
 50
0.0
 71
     0
 42
0.2
  3
txt
  4

  0
STYLE
  5
28
330
3
100
AcDbSymbolTableRecord
100
AcDbTextStyleTableRecord
  2
ROMANC
 70
     0
 40
0.0
 41
1.0
 50
0.0
 71
     0
 42
0.2
  3
ROMANC
  4

  0
ENDTAB
  0
TABLE
  2
VIEW
  5
6
330
0
100
AcDbSymbolTable
 70
     0
  0
ENDTAB
  0
TABLE
  2
UCS
  5
7
330
0
100
AcDbSymbolTable
 70
     0
  0
ENDTAB
  0
TABLE
  2
APPID
  5
9
330
0
100
AcDbSymbolTable
 70
     1
  0
APPID
  5
12
330
9
100
AcDbSymbolTableRecord
100
AcDbRegAppTableRecord
  2
ACAD
 70
     0
  0
ENDTAB
  0
TABLE
  2
DIMSTYLE
  5
A
330
0
100
AcDbSymbolTable
 70
     1
100
AcDbDimStyleTable
 71
     1
340
7A
  0
DIMSTYLE
105
7A
102
{ACAD_REACTORS
330
3F7
330
405
330
414
330
42C
330
43A
102
}
330
A
100
AcDbSymbolTableRecord
100
AcDbDimStyleTableRecord
  2
STANDARD
 70
     0
340
11
  0
ENDTAB
  0
TABLE
  2
BLOCK_RECORD
  5
1
330
0
100
AcDbSymbolTable
 70
    33
  0
BLOCK_RECORD
  5
1E
102
{ACAD_XDICTIONARY
360
1AC
102
}
330
1
100
AcDbSymbolTableRecord
100
AcDbBlockTableRecord
  2
*MODEL_SPACE
340
205
  0
BLOCK_RECORD
  5
1A
102
{ACAD_XDICTIONARY
360
1AA
102
}
330
1
100
AcDbSymbolTableRecord
100
AcDbBlockTableRecord
  2
*PAPER_SPACE
340
206
  0
BLOCK_RECORD
  5
C8
330
1
100
AcDbSymbolTableRecord
100
AcDbBlockTableRecord
  2
*D0
340
0
  0
BLOCK_RECORD
  5
D6
330
1
100
AcDbSymbolTableRecord
100
AcDbBlockTableRecord
  2
*D1
340
0
  0
BLOCK_RECORD
  5
E5
330
1
100
AcDbSymbolTableRecord
100
AcDbBlockTableRecord
  2
*D2
340
0
  0
BLOCK_RECORD
  5
F3
330
1
100
AcDbSymbolTableRecord
100
AcDbBlockTableRecord
  2
*D3
340
0
  0
BLOCK_RECORD
  5
102
330
1
100
AcDbSymbolTableRecord
100
AcDbBlockTableRecord
  2
*D4
340
0
  0
BLOCK_RECORD
  5
150
330
1
100
AcDbSymbolTableRecord
100
AcDbBlockTableRecord
  2
*D5
340
0
  0
BLOCK_RECORD
  5
15E
330
1
100
AcDbSymbolTableRecord
100
AcDbBlockTableRecord
  2
*D6
340
0
  0
BLOCK_RECORD
  5
1B8
330
1
100
AcDbSymbolTableRecord
100
AcDbBlockTableRecord
  2
*D7
340
0
  0
BLOCK_RECORD
  5
1C6
330
1
100
AcDbSymbolTableRecord
100
AcDbBlockTableRecord
  2
*D8
340
0
  0
BLOCK_RECORD
  5
21B
330
1
100
AcDbSymbolTableRecord
100
AcDbBlockTableRecord
  2
*D9
340
0
  0
BLOCK_RECORD
  5
229
330
1
100
AcDbSymbolTableRecord
100
AcDbBlockTableRecord
  2
*D10
340
0
  0
BLOCK_RECORD
  5
237
330
1
100
AcDbSymbolTableRecord
100
AcDbBlockTableRecord
  2
*D11
340
0
  0
BLOCK_RECORD
  5
24F
330
1
100
AcDbSymbolTableRecord
100
AcDbBlockTableRecord
  2
*D12
340
0
  0
BLOCK_RECORD
  5
274
330
1
100
AcDbSymbolTableRecord
100
AcDbBlockTableRecord
  2
*D13
340
0
  0
BLOCK_RECORD
  5
28E
330
1
100
AcDbSymbolTableRecord
100
AcDbBlockTableRecord
  2
*D14
340
0
  0
BLOCK_RECORD
  5
29C
330
1
100
AcDbSymbolTableRecord
100
AcDbBlockTableRecord
  2
*D15
340
0
  0
BLOCK_RECORD
  5
2C8
330
1
100
AcDbSymbolTableRecord
100
AcDbBlockTableRecord
  2
*D16
340
0
  0
BLOCK_RECORD
  5
2DC
330
1
100
AcDbSymbolTableRecord
100
AcDbBlockTableRecord
  2
*D17
340
0
  0
BLOCK_RECORD
  5
2EA
330
1
100
AcDbSymbolTableRecord
100
AcDbBlockTableRecord
  2
*D18
340
0
  0
BLOCK_RECORD
  5
304
330
1
100
AcDbSymbolTableRecord
100
AcDbBlockTableRecord
  2
*D19
340
0
  0
BLOCK_RECORD
  5
312
330
1
100
AcDbSymbolTableRecord
100
AcDbBlockTableRecord
  2
*D20
340
0
  0
BLOCK_RECORD
  5
32A
330
1
100
AcDbSymbolTableRecord
100
AcDbBlockTableRecord
  2
*D21
340
0
  0
BLOCK_RECORD
  5
338
330
1
100
AcDbSymbolTableRecord
100
AcDbBlockTableRecord
  2
*D22
340
0
  0
BLOCK_RECORD
  5
358
330
1
100
AcDbSymbolTableRecord
100
AcDbBlockTableRecord
  2
*D23
340
0
  0
BLOCK_RECORD
  5
366
330
1
100
AcDbSymbolTableRecord
100
AcDbBlockTableRecord
  2
*D24
340
0
  0
BLOCK_RECORD
  5
392
330
1
100
AcDbSymbolTableRecord
100
AcDbBlockTableRecord
  2
*D25
340
0
  0
BLOCK_RECORD
  5
3A0
330
1
100
AcDbSymbolTableRecord
100
AcDbBlockTableRecord
  2
*D26
340
0
  0
BLOCK_RECORD
  5
3C4
330
1
100
AcDbSymbolTableRecord
100
AcDbBlockTableRecord
  2
*D27
340
0
  0
BLOCK_RECORD
  5
3F8
330
1
100
AcDbSymbolTableRecord
100
AcDbBlockTableRecord
  2
*D28
340
0
  0
BLOCK_RECORD
  5
406
330
1
100
AcDbSymbolTableRecord
100
AcDbBlockTableRecord
  2
*D29
340
0
  0
BLOCK_RECORD
  5
415
330
1
100
AcDbSymbolTableRecord
100
AcDbBlockTableRecord
  2
*D30
340
0
  0
BLOCK_RECORD
  5
42D
330
1
100
AcDbSymbolTableRecord
100
AcDbBlockTableRecord
  2
*D31
340
0
  0
BLOCK_RECORD
  5
43B
330
1
100
AcDbSymbolTableRecord
100
AcDbBlockTableRecord
  2
*D32
340
0
  0
ENDTAB
  0
ENDSEC
  0
SECTION
  2
BLOCKS
  0
BLOCK
  5
1F
330
1E
100
AcDbEntity
  8
0
100
AcDbBlockBegin
  2
*MODEL_SPACE
 70
     0
 10
0.0
 20
0.0
 30
0.0
  3
*MODEL_SPACE
  1

  0
ENDBLK
  5
20
330
1E
100
AcDbEntity
  8
0
100
AcDbBlockEnd
  0
BLOCK
  5
1B
330
1A
100
AcDbEntity
 67
     1
  8
0
100
AcDbBlockBegin
  2
*PAPER_SPACE
 70
     0
 10
0.0
 20
0.0
 30
0.0
  3
*PAPER_SPACE
  1

  0
ENDBLK
  5
1C
330
1A
100
AcDbEntity
 67
     1
  8
0
100
AcDbBlockEnd
  0
BLOCK
  5
D3
330
C8
100
AcDbEntity
  8
0
100
AcDbBlockBegin
  2
*D0
 70
     1
 10
0.0
 20
0.0
 30
0.0
  3
*D0
  1

  0
LINE
  5
17F
330
C8
100
AcDbEntity
  8
0
 62
     0
100
AcDbLine
 10
286.1242114476576
 20
36.24736563458589
 30
0.0
 11
288.1582790844173
 21
36.24736563458589
 31
0.0
  0
LINE
  5
180
330
C8
100
AcDbEntity
  8
0
 62
     0
100
AcDbLine
 10
286.1242114476576
 20
34.62736563458587
 30
0.0
 11
288.1582790844173
 21
34.62736563458587
 31
0.0
  0
LINE
  5
181
330
C8
100
AcDbEntity
  8
0
 62
     0
100
AcDbLine
 10
287.9782790844175
 20
36.06736563458589
 30
0.0
 11
287.9782790844175
 21
35.612166902036
 31
0.0
  0
LINE
  5
182
330
C8
100
AcDbEntity
  8
0
 62
     0
100
AcDbLine
 10
287.9782790844175
 20
34.80736563458587
 30
0.0
 11
287.9782790844175
 21
35.25216690203601
 31
0.0
  0
SOLID
  5
183
330
C8
100
AcDbEntity
  8
0
 62
     0
100
AcDbTrace
 10
287.9482790844173
 20
36.06736563458589
 30
0.0
 11
288.0082790844173
 21
36.06736563458589
 31
0.0
 12
287.9782790844175
 22
36.24736563458589
 32
0.0
 13
287.9782790844175
 23
36.24736563458589
 33
0.0
  0
SOLID
  5
184
330
C8
100
AcDbEntity
  8
0
 62
     0
100
AcDbTrace
 10
287.9482790844173
 20
34.80736563458587
 30
0.0
 11
288.0082790844173
 21
34.80736563458587
 31
0.0
 12
287.9782790844175
 22
34.62736563458587
 32
0.0
 13
287.9782790844175
 23
34.62736563458587
 33
0.0
  0
MTEXT
  5
185
330
C8
100
AcDbEntity
  8
0
 62
     0
100
AcDbMText
 10
287.9782790844175
 20
35.43216690203603
 30
0.0
 40
0.18
 41
0.0
 71
     5
 72
     1
  1
\A1;1.6200
 73
     1
 44
1.0
1001
ACAD
1000
MTEXTBEGIN
1070
    73
1070
     1
1070
    44
1040
1.0
1070
    74
1070
     0
1000
MTEXTEND
1000
MTEXTBEGIN
1070
    73
1070
     1
1070
    44
1040
1.0
1070
    74
1070
     0
1000
MTEXTEND
  0
POINT
  5
186
330
C8
100
AcDbEntity
  8
DEFPOINTS
 62
     0
100
AcDbPoint
 10
286.0617114476576
 20
36.24736563458589
 30
0.0
  0
POINT
  5
187
330
C8
100
AcDbEntity
  8
DEFPOINTS
 62
     0
100
AcDbPoint
 10
286.0617114476576
 20
34.62736563458587
 30
0.0
  0
POINT
  5
188
330
C8
100
AcDbEntity
  8
DEFPOINTS
 62
     0
100
AcDbPoint
 10
287.9782790844175
 20
34.62736563458587
 30
0.0
  0
ENDBLK
  5
D4
330
C8
100
AcDbEntity
  8
0
100
AcDbBlockEnd
  0
BLOCK
  5
E2
330
D6
100
AcDbEntity
  8
0
100
AcDbBlockBegin
  2
*D1
 70
     1
 10
0.0
 20
0.0
 30
0.0
  3
*D1
  1

  0
LINE
  5
144
330
D6
100
AcDbEntity
  8
0
 62
     0
100
AcDbLine
 10
286.5742114476576
 20
34.77736563458589
 30
0.0
 11
287.8483853356226
 21
34.77736563458589
 31
0.0
  0
LINE
  5
145
330
D6
100
AcDbEntity
  8
0
 62
     0
100
AcDbLine
 10
286.1867114476576
 20
34.62736563458587
 30
0.0
 11
287.8483853356226
 21
34.62736563458587
 31
0.0
  0
LINE
  5
146
330
D6
100
AcDbEntity
  8
0
 62
     0
100
AcDbLine
 10
287.6683853356226
 20
34.95736563458589
 30
0.0
 11
287.6683853356226
 21
35.13736563458589
 31
0.0
  0
LINE
  5
147
330
D6
100
AcDbEntity
  8
0
 62
     0
100
AcDbLine
 10
287.6683853356226
 20
34.44736563458587
 30
0.0
 11
287.6683853356226
 21
34.26736563458582
 31
0.0
  0
LINE
  5
148
330
D6
100
AcDbEntity
  8
0
 62
     0
100
AcDbLine
 10
287.6683853356226
 20
34.26736563458582
 30
0.0
 11
287.4883853356226
 21
34.26736563458582
 31
0.0
  0
SOLID
  5
149
330
D6
100
AcDbEntity
  8
0
 62
     0
100
AcDbTrace
 10
287.6383853356226
 20
34.95736563458589
 30
0.0
 11
287.6983853356226
 21
34.95736563458589
 31
0.0
 12
287.6683853356226
 22
34.77736563458589
 32
0.0
 13
287.6683853356226
 23
34.77736563458589
 33
0.0
  0
SOLID
  5
14A
330
D6
100
AcDbEntity
  8
0
 62
     0
100
AcDbTrace
 10
287.6383853356226
 20
34.44736563458587
 30
0.0
 11
287.6983853356226
 21
34.44736563458587
 31
0.0
 12
287.6683853356226
 22
34.62736563458587
 32
0.0
 13
287.6683853356226
 23
34.62736563458587
 33
0.0
  0
MTEXT
  5
14B
330
D6
100
AcDbEntity
  8
0
 62
     0
100
AcDbMText
 10
287.0233853356226
 20
34.26736563458587
 30
0.0
 40
0.18
 41
0.0
 71
     5
 72
     1
  1
\A1;0.1500
 73
     1
 44
1.0
1001
ACAD
1000
MTEXTBEGIN
1070
    73
1070
     1
1070
    44
1040
1.0
1070
    74
1070
     0
1000
MTEXTEND
1000
MTEXTBEGIN
1070
    73
1070
     1
1070
    44
1040
1.0
1070
    74
1070
     0
1000
MTEXTEND
  0
POINT
  5
14C
330
D6
100
AcDbEntity
  8
DEFPOINTS
 62
     0
100
AcDbPoint
 10
286.5117114476575
 20
34.77736563458589
 30
0.0
  0
POINT
  5
14D
330
D6
100
AcDbEntity
  8
DEFPOINTS
 62
     0
100
AcDbPoint
 10
286.1242114476576
 20
34.62736563458587
 30
0.0
  0
POINT
  5
14E
330
D6
100
AcDbEntity
  8
DEFPOINTS
 62
     0
100
AcDbPoint
 10
287.6683853356226
 20
34.62736563458587
 30
0.0
  0
ENDBLK
  5
E3
330
D6
100
AcDbEntity
  8
0
100
AcDbBlockEnd
  0
BLOCK
  5
F0
330
E5
100
AcDbEntity
  8
0
100
AcDbBlockBegin
  2
*D2
 70
     1
 10
0.0
 20
0.0
 30
0.0
  3
*D2
  1

  0
LINE
  5
110
330
E5
100
AcDbEntity
  8
0
 62
     0
100
AcDbLine
 10
285.5617114476576
 20
35.73986563458588
 30
0.0
 11
285.5617114476576
 21
36.95556457024231
 31
0.0
  0
LINE
  5
111
330
E5
100
AcDbEntity
  8
0
 62
     0
100
AcDbLine
 10
286.5617114476576
 20
35.73986563458642
 30
0.0
 11
286.5617114476576
 21
36.95556457024231
 31
0.0
  0
LINE
  5
112
330
E5
100
AcDbEntity
  8
0
 62
     0
100
AcDbLine
 10
285.3817114476576
 20
36.77556457024229
 30
0.0
 11
285.2017114476576
 21
36.77556457024229
 31
0.0
  0
LINE
  5
113
330
E5
100
AcDbEntity
  8
0
 62
     0
100
AcDbLine
 10
286.7417114476576
 20
36.77556457024229
 30
0.0
 11
286.9217114476576
 21
36.77556457024229
 31
0.0
  0
SOLID
  5
114
330
E5
100
AcDbEntity
  8
0
 62
     0
100
AcDbTrace
 10
285.3817114476576
 20
36.80556457024231
 30
0.0
 11
285.3817114476576
 21
36.74556457024229
 31
0.0
 12
285.5617114476576
 22
36.77556457024229
 32
0.0
 13
285.5617114476576
 23
36.77556457024229
 33
0.0
  0
SOLID
  5
115
330
E5
100
AcDbEntity
  8
0
 62
     0
100
AcDbTrace
 10
286.7417114476576
 20
36.80556457024231
 30
0.0
 11
286.7417114476576
 21
36.74556457024229
 31
0.0
 12
286.5617114476576
 22
36.77556457024229
 32
0.0
 13
286.5617114476576
 23
36.77556457024229
 33
0.0
  0
MTEXT
  5
116
330
E5
100
AcDbEntity
  8
0
 62
     0
100
AcDbMText
 10
286.0617114476576
 20
36.77556457024229
 30
0.0
 40
0.18
 41
0.0
 71
     5
 72
     1
  1
\A1;1.0000
 73
     1
 44
1.0
1001
ACAD
1000
MTEXTBEGIN
1070
    73
1070
     1
1070
    44
1040
1.0
1070
    74
1070
     0
1000
MTEXTEND
1000
MTEXTBEGIN
1070
    73
1070
     1
1070
    44
1040
1.0
1070
    74
1070
     0
1000
MTEXTEND
  0
POINT
  5
117
330
E5
100
AcDbEntity
  8
DEFPOINTS
 62
     0
100
AcDbPoint
 10
285.5617114476576
 20
35.67736563458588
 30
0.0
  0
POINT
  5
118
330
E5
100
AcDbEntity
  8
DEFPOINTS
 62
     0
100
AcDbPoint
 10
286.5617114476576
 20
35.67736563458643
 30
0.0
  0
POINT
  5
119
330
E5
100
AcDbEntity
  8
DEFPOINTS
 62
     0
100
AcDbPoint
 10
286.5617114476576
 20
36.77556457024229
 30
0.0
  0
ENDBLK
  5
F1
330
E5
100
AcDbEntity
  8
0
100
AcDbBlockEnd
  0
BLOCK
  5
FF
330
F3
100
AcDbEntity
  8
0
100
AcDbBlockBegin
  2
*D3
 70
     1
 10
0.0
 20
0.0
 30
0.0
  3
*D3
  1

  0
LINE
  5
F4
330
F3
100
AcDbEntity
  8
0
 62
     0
100
AcDbLine
 10
285.8105925973381
 20
34.3259387771153
 30
0.0
 11
285.0996894655242
 21
34.3259387771153
 31
0.0
  0
LINE
  5
F5
330
F3
100
AcDbEntity
  8
0
 62
     0
100
AcDbLine
 10
285.7605925973383
 20
35.22593877711502
 30
0.0
 11
285.0996894655242
 21
35.22593877711502
 31
0.0
  0
LINE
  5
F6
330
F3
100
AcDbEntity
  8
0
 62
     0
100
AcDbLine
 10
285.2796894655241
 20
34.5059387771153
 30
0.0
 11
285.2796894655241
 21
35.04593877711501
 31
0.0
  0
LINE
  5
F7
330
F3
100
AcDbEntity
  8
0
 62
     0
100
AcDbLine
 10
285.2796894655241
 20
35.22593877711502
 30
0.0
 11
285.2796894655241
 21
35.40593877711502
 31
0.0
  0
LINE
  5
F8
330
F3
100
AcDbEntity
  8
0
 62
     0
100
AcDbLine
 10
285.2796894655241
 20
35.40593877711502
 30
0.0
 11
285.4596894655241
 21
35.40593877711502
 31
0.0
  0
SOLID
  5
F9
330
F3
100
AcDbEntity
  8
0
 62
     0
100
AcDbTrace
 10
285.2496894655241
 20
34.5059387771153
 30
0.0
 11
285.3096894655241
 21
34.5059387771153
 31
0.0
 12
285.2796894655241
 22
34.3259387771153
 32
0.0
 13
285.2796894655241
 23
34.3259387771153
 33
0.0
  0
SOLID
  5
FA
330
F3
100
AcDbEntity
  8
0
 62
     0
100
AcDbTrace
 10
285.2496894655241
 20
35.04593877711501
 30
0.0
 11
285.3096894655241
 21
35.04593877711501
 31
0.0
 12
285.2796894655241
 22
35.22593877711502
 32
0.0
 13
285.2796894655241
 23
35.22593877711502
 33
0.0
  0
MTEXT
  5
FB
330
F3
100
AcDbEntity
  8
0
 62
     0
100
AcDbMText
 10
285.9396894655241
 20
35.40593877711506
 30
0.0
 40
0.18
 41
0.0
 71
     5
 72
     1
  1
\A1;0.9000
 73
     1
 44
1.0
1001
ACAD
1000
MTEXTBEGIN
1070
    73
1070
     1
1070
    44
1040
1.0
1070
    74
1070
     0
1000
MTEXTEND
1000
MTEXTBEGIN
1070
    73
1070
     1
1070
    44
1040
1.0
1070
    74
1070
     0
1000
MTEXTEND
  0
POINT
  5
FC
330
F3
100
AcDbEntity
  8
DEFPOINTS
 62
     0
100
AcDbPoint
 10
285.8730925973381
 20
34.3259387771153
 30
0.0
  0
POINT
  5
FD
330
F3
100
AcDbEntity
  8
DEFPOINTS
 62
     0
100
AcDbPoint
 10
285.8230925973383
 20
35.22593877711502
 30
0.0
  0
POINT
  5
FE
330
F3
100
AcDbEntity
  8
DEFPOINTS
 62
     0
100
AcDbPoint
 10
285.2796894655241
 20
35.22593877711502
 30
0.0
  0
ENDBLK
  5
100
330
F3
100
AcDbEntity
  8
0
100
AcDbBlockEnd
  0
BLOCK
  5
10E
330
102
100
AcDbEntity
  8
0
100
AcDbBlockBegin
  2
*D4
 70
     1
 10
0.0
 20
0.0
 30
0.0
  3
*D4
  1

  0
LINE
  5
12F
330
102
100
AcDbEntity
  8
0
 62
     0
100
AcDbLine
 10
285.4992114476576
 20
35.67736563458588
 30
0.0
 11
284.8683083158433
 21
35.67736563458588
 31
0.0
  0
LINE
  5
130
330
102
100
AcDbEntity
  8
0
 62
     0
100
AcDbLine
 10
285.5492114476577
 20
34.77736563458589
 30
0.0
 11
284.8683083158433
 21
34.77736563458589
 31
0.0
  0
LINE
  5
131
330
102
100
AcDbEntity
  8
0
 62
     0
100
AcDbLine
 10
285.0483083158436
 20
35.49736563458588
 30
0.0
 11
285.0483083158436
 21
34.95736563458589
 31
0.0
  0
LINE
  5
132
330
102
100
AcDbEntity
  8
0
 62
     0
100
AcDbLine
 10
285.0483083158436
 20
34.77736563458589
 30
0.0
 11
285.0483083158436
 21
34.59736563458589
 31
0.0
  0
LINE
  5
133
330
102
100
AcDbEntity
  8
0
 62
     0
100
AcDbLine
 10
285.0483083158436
 20
34.59736563458589
 30
0.0
 11
284.8683083158433
 21
34.59736563458589
 31
0.0
  0
SOLID
  5
134
330
102
100
AcDbEntity
  8
0
 62
     0
100
AcDbTrace
 10
285.0183083158436
 20
35.49736563458588
 30
0.0
 11
285.0783083158436
 21
35.49736563458588
 31
0.0
 12
285.0483083158436
 22
35.67736563458588
 32
0.0
 13
285.0483083158436
 23
35.67736563458588
 33
0.0
  0
SOLID
  5
135
330
102
100
AcDbEntity
  8
0
 62
     0
100
AcDbTrace
 10
285.0183083158436
 20
34.95736563458589
 30
0.0
 11
285.0783083158436
 21
34.95736563458589
 31
0.0
 12
285.0483083158436
 22
34.77736563458589
 32
0.0
 13
285.0483083158436
 23
34.77736563458589
 33
0.0
  0
MTEXT
  5
136
330
102
100
AcDbEntity
  8
0
 62
     0
100
AcDbMText
 10
284.3883083158436
 20
34.59736563458594
 30
0.0
 40
0.18
 41
0.0
 71
     5
 72
     1
  1
\A1;0.9000
 73
     1
 44
1.0
1001
ACAD
1000
MTEXTBEGIN
1070
    73
1070
     1
1070
    44
1040
1.0
1070
    74
1070
     0
1000
MTEXTEND
1000
MTEXTBEGIN
1070
    73
1070
     1
1070
    44
1040
1.0
1070
    74
1070
     0
1000
MTEXTEND
  0
POINT
  5
137
330
102
100
AcDbEntity
  8
DEFPOINTS
 62
     0
100
AcDbPoint
 10
285.5617114476576
 20
35.67736563458588
 30
0.0
  0
POINT
  5
138
330
102
100
AcDbEntity
  8
DEFPOINTS
 62
     0
100
AcDbPoint
 10
285.6117114476576
 20
34.77736563458589
 30
0.0
  0
POINT
  5
139
330
102
100
AcDbEntity
  8
DEFPOINTS
 62
     0
100
AcDbPoint
 10
285.0483083158436
 20
34.77736563458589
 30
0.0
  0
ENDBLK
  5
10F
330
102
100
AcDbEntity
  8
0
100
AcDbBlockEnd
  0
BLOCK
  5
15B
330
150
100
AcDbEntity
  8
0
100
AcDbBlockBegin
  2
*D5
 70
     1
 10
0.0
 20
0.0
 30
0.0
  3
*D5
  1

  0
LINE
  5
151
330
150
100
AcDbEntity
  8
0
 62
     0
100
AcDbLine
 10
286.5117114476575
 20
34.71486563458589
 30
0.0
 11
286.5117114476575
 21
33.55990820404632
 31
0.0
  0
LINE
  5
152
330
150
100
AcDbEntity
  8
0
 62
     0
100
AcDbLine
 10
285.6117114476576
 20
34.71486563458589
 30
0.0
 11
285.6117114476576
 21
33.55990820404632
 31
0.0
  0
LINE
  5
153
330
150
100
AcDbEntity
  8
0
 62
     0
100
AcDbLine
 10
286.3317114476576
 20
33.73990820404632
 30
0.0
 11
285.7917114476576
 21
33.73990820404632
 31
0.0
  0
LINE
  5
154
330
150
100
AcDbEntity
  8
0
 62
     0
100
AcDbLine
 10
285.6117114476576
 20
33.73990820404632
 30
0.0
 11
285.4317114476576
 21
33.73990820404632
 31
0.0
  0
SOLID
  5
155
330
150
100
AcDbEntity
  8
0
 62
     0
100
AcDbTrace
 10
286.3317114476576
 20
33.76990820404632
 30
0.0
 11
286.3317114476576
 21
33.70990820404632
 31
0.0
 12
286.5117114476575
 22
33.73990820404632
 32
0.0
 13
286.5117114476575
 23
33.73990820404632
 33
0.0
  0
SOLID
  5
156
330
150
100
AcDbEntity
  8
0
 62
     0
100
AcDbTrace
 10
285.7917114476576
 20
33.76990820404632
 30
0.0
 11
285.7917114476576
 21
33.70990820404632
 31
0.0
 12
285.6117114476576
 22
33.73990820404632
 32
0.0
 13
285.6117114476576
 23
33.73990820404632
 33
0.0
  0
MTEXT
  5
157
330
150
100
AcDbEntity
  8
0
 62
     0
100
AcDbMText
 10
284.9517114476573
 20
33.73990820404632
 30
0.0
 40
0.18
 41
0.0
 71
     5
 72
     1
  1
\A1;0.9000
 73
     1
 44
1.0
1001
ACAD
1000
MTEXTBEGIN
1070
    73
1070
     1
1070
    44
1040
1.0
1070
    74
1070
     0
1000
MTEXTEND
1000
MTEXTBEGIN
1070
    73
1070
     1
1070
    44
1040
1.0
1070
    74
1070
     0
1000
MTEXTEND
  0
POINT
  5
158
330
150
100
AcDbEntity
  8
DEFPOINTS
 62
     0
100
AcDbPoint
 10
286.5117114476575
 20
34.77736563458589
 30
0.0
  0
POINT
  5
159
330
150
100
AcDbEntity
  8
DEFPOINTS
 62
     0
100
AcDbPoint
 10
285.6117114476576
 20
34.77736563458589
 30
0.0
  0
POINT
  5
15A
330
150
100
AcDbEntity
  8
DEFPOINTS
 62
     0
100
AcDbPoint
 10
285.6117114476576
 20
33.73990820404632
 30
0.0
  0
ENDBLK
  5
15C
330
150
100
AcDbEntity
  8
0
100
AcDbBlockEnd
  0
BLOCK
  5
169
330
15E
100
AcDbEntity
  8
0
100
AcDbBlockBegin
  2
*D6
 70
     1
 10
0.0
 20
0.0
 30
0.0
  3
*D6
  1

  0
LINE
  5
16B
330
15E
100
AcDbEntity
  8
0
 62
     0
100
AcDbLine
 10
286.2270677236876
 20
34.69872330784411
 30
0.0
 11
286.2270677236876
 21
33.84122994766753
 31
0.0
  0
LINE
  5
16C
330
15E
100
AcDbEntity
  8
0
 62
     0
100
AcDbLine
 10
285.8963551716275
 20
34.69872330784411
 30
0.0
 11
285.8963551716275
 21
33.84122994766753
 31
0.0
  0
LINE
  5
16D
330
15E
100
AcDbEntity
  8
0
 62
     0
100
AcDbLine
 10
286.4070677236876
 20
34.02122994766753
 30
0.0
 11
286.5870677236876
 21
34.02122994766753
 31
0.0
  0
LINE
  5
16E
330
15E
100
AcDbEntity
  8
0
 62
     0
100
AcDbLine
 10
285.7163551716275
 20
34.02122994766753
 30
0.0
 11
285.5363551716276
 21
34.02122994766753
 31
0.0
  0
SOLID
  5
16F
330
15E
100
AcDbEntity
  8
0
 62
     0
100
AcDbTrace
 10
286.4070677236876
 20
34.05122994766751
 30
0.0
 11
286.4070677236876
 21
33.99122994766753
 31
0.0
 12
286.2270677236876
 22
34.02122994766753
 32
0.0
 13
286.2270677236876
 23
34.02122994766753
 33
0.0
  0
SOLID
  5
170
330
15E
100
AcDbEntity
  8
0
 62
     0
100
AcDbTrace
 10
285.7163551716275
 20
34.05122994766751
 30
0.0
 11
285.7163551716275
 21
33.99122994766753
 31
0.0
 12
285.8963551716275
 22
34.02122994766753
 32
0.0
 13
285.8963551716275
 23
34.02122994766753
 33
0.0
  0
MTEXT
  5
171
330
15E
100
AcDbEntity
  8
0
 62
     0
100
AcDbMText
 10
285.0563551716276
 20
34.02122994766753
 30
0.0
 40
0.18
 41
0.0
 71
     5
 72
     1
  1
\A1;0.3000
 73
     1
 44
1.0
1001
ACAD
1000
MTEXTBEGIN
1070
    73
1070
     1
1070
    44
1040
1.0
1070
    74
1070
     0
1000
MTEXTEND
1000
MTEXTBEGIN
1070
    73
1070
     1
1070
    44
1040
1.0
1070
    74
1070
     0
1000
MTEXTEND
  0
POINT
  5
172
330
15E
100
AcDbEntity
  8
DEFPOINTS
 62
     0
100
AcDbPoint
 10
286.2270677236876
 20
34.76122330784411
 30
0.0
  0
POINT
  5
173
330
15E
100
AcDbEntity
  8
DEFPOINTS
 62
     0
100
AcDbPoint
 10
285.8963551716275
 20
34.76122330784411
 30
0.0
  0
POINT
  5
174
330
15E
100
AcDbEntity
  8
DEFPOINTS
 62
     0
100
AcDbPoint
 10
285.8963551716275
 20
34.02122994766753
 30
0.0
  0
ENDBLK
  5
16A
330
15E
100
AcDbEntity
  8
0
100
AcDbBlockEnd
  0
BLOCK
  5
1C3
330
1B8
100
AcDbEntity
  8
0
100
AcDbBlockBegin
  2
*D7
 70
     1
 10
0.0
 20
0.0
 30
0.0
  3
*D7
  1

  0
LINE
  5
1B9
330
1B8
100
AcDbEntity
  8
0
 62
     0
100
AcDbLine
 10
286.1367417659177
 20
35.23981668125815
 30
0.0
 11
286.1367417659177
 21
34.38562200535304
 31
0.0
  0
LINE
  5
1BA
330
1B8
100
AcDbEntity
  8
0
 62
     0
100
AcDbLine
 10
286.7367417659178
 20
35.23981668125815
 30
0.0
 11
286.7367417659178
 21
34.38562200535304
 31
0.0
  0
LINE
  5
1BB
330
1B8
100
AcDbEntity
  8
0
 62
     0
100
AcDbLine
 10
286.3167417659178
 20
34.56562200535306
 30
0.0
 11
286.5567417659178
 21
34.56562200535306
 31
0.0
  0
LINE
  5
1BC
330
1B8
100
AcDbEntity
  8
0
 62
     0
100
AcDbLine
 10
286.7367417659178
 20
34.56562200535306
 30
0.0
 11
286.9167417659178
 21
34.56562200535306
 31
0.0
  0
SOLID
  5
1BD
330
1B8
100
AcDbEntity
  8
0
 62
     0
100
AcDbTrace
 10
286.3167417659178
 20
34.59562200535305
 30
0.0
 11
286.3167417659178
 21
34.53562200535306
 31
0.0
 12
286.1367417659177
 22
34.56562200535306
 32
0.0
 13
286.1367417659177
 23
34.56562200535306
 33
0.0
  0
SOLID
  5
1BE
330
1B8
100
AcDbEntity
  8
0
 62
     0
100
AcDbTrace
 10
286.5567417659178
 20
34.59562200535305
 30
0.0
 11
286.5567417659178
 21
34.53562200535306
 31
0.0
 12
286.7367417659178
 22
34.56562200535306
 32
0.0
 13
286.7367417659178
 23
34.56562200535306
 33
0.0
  0
MTEXT
  5
1BF
330
1B8
100
AcDbEntity
  8
0
 62
     0
100
AcDbMText
 10
287.3967417659176
 20
34.56562200535306
 30
0.0
 40
0.18
 41
0.0
 71
     5
 72
     1
  1
\A1;0.6000
 73
     1
 44
1.0
1001
ACAD
1000
MTEXTBEGIN
1070
    73
1070
     1
1070
    44
1040
1.0
1070
    74
1070
     0
1000
MTEXTEND
  0
POINT
  5
1C0
330
1B8
100
AcDbEntity
  8
DEFPOINTS
 62
     0
100
AcDbPoint
 10
286.1367417659177
 20
35.30231668125817
 30
0.0
  0
POINT
  5
1C1
330
1B8
100
AcDbEntity
  8
DEFPOINTS
 62
     0
100
AcDbPoint
 10
286.7367417659178
 20
35.30231668125817
 30
0.0
  0
POINT
  5
1C2
330
1B8
100
AcDbEntity
  8
DEFPOINTS
 62
     0
100
AcDbPoint
 10
286.7367417659178
 20
34.56562200535306
 30
0.0
  0
ENDBLK
  5
1C4
330
1B8
100
AcDbEntity
  8
0
100
AcDbBlockEnd
  0
BLOCK
  5
1D2
330
1C6
100
AcDbEntity
  8
0
100
AcDbBlockBegin
  2
*D8
 70
     1
 10
0.0
 20
0.0
 30
0.0
  3
*D8
  1

  0
LINE
  5
1C7
330
1C6
100
AcDbEntity
  8
0
 62
     0
100
AcDbLine
 10
286.7992417659178
 20
35.30231668125817
 30
0.0
 11
287.5292753889695
 21
35.30231668125817
 31
0.0
  0
LINE
  5
1C8
330
1C6
100
AcDbEntity
  8
0
 62
     0
100
AcDbLine
 10
286.7992417659178
 20
36.05231668125817
 30
0.0
 11
287.5292753889695
 21
36.05231668125817
 31
0.0
  0
LINE
  5
1C9
330
1C6
100
AcDbEntity
  8
0
 62
     0
100
AcDbLine
 10
287.3492753889697
 20
35.48231668125817
 30
0.0
 11
287.3492753889697
 21
35.87231668125815
 31
0.0
  0
LINE
  5
1CA
330
1C6
100
AcDbEntity
  8
0
 62
     0
100
AcDbLine
 10
287.3492753889697
 20
36.05231668125817
 30
0.0
 11
287.3492753889697
 21
36.23231668125814
 31
0.0
  0
LINE
  5
1CB
330
1C6
100
AcDbEntity
  8
0
 62
     0
100
AcDbLine
 10
287.3492753889697
 20
36.23231668125814
 30
0.0
 11
287.5292753889695
 21
36.23231668125814
 31
0.0
  0
SOLID
  5
1CC
330
1C6
100
AcDbEntity
  8
0
 62
     0
100
AcDbTrace
 10
287.3192753889696
 20
35.48231668125817
 30
0.0
 11
287.3792753889696
 21
35.48231668125817
 31
0.0
 12
287.3492753889697
 22
35.30231668125817
 32
0.0
 13
287.3492753889697
 23
35.30231668125817
 33
0.0
  0
SOLID
  5
1CD
330
1C6
100
AcDbEntity
  8
0
 62
     0
100
AcDbTrace
 10
287.3192753889696
 20
35.87231668125815
 30
0.0
 11
287.3792753889696
 21
35.87231668125815
 31
0.0
 12
287.3492753889697
 22
36.05231668125817
 32
0.0
 13
287.3492753889697
 23
36.05231668125817
 33
0.0
  0
MTEXT
  5
1CE
330
1C6
100
AcDbEntity
  8
0
 62
     0
100
AcDbMText
 10
288.0242753889696
 20
36.23231668125821
 30
0.0
 40
0.18
 41
0.0
 71
     5
 72
     1
  1
\A1;0.7500
 73
     1
 44
1.0
1001
ACAD
1000
MTEXTBEGIN
1070
    73
1070
     1
1070
    44
1040
1.0
1070
    74
1070
     0
1000
MTEXTEND
  0
POINT
  5
1CF
330
1C6
100
AcDbEntity
  8
DEFPOINTS
 62
     0
100
AcDbPoint
 10
286.7367417659178
 20
35.30231668125817
 30
0.0
  0
POINT
  5
1D0
330
1C6
100
AcDbEntity
  8
DEFPOINTS
 62
     0
100
AcDbPoint
 10
286.7367417659178
 20
36.05231668125817
 30
0.0
  0
POINT
  5
1D1
330
1C6
100
AcDbEntity
  8
DEFPOINTS
 62
     0
100
AcDbPoint
 10
287.3492753889697
 20
36.05231668125817
 30
0.0
  0
ENDBLK
  5
1D3
330
1C6
100
AcDbEntity
  8
0
100
AcDbBlockEnd
  0
BLOCK
  5
226
330
21B
100
AcDbEntity
  8
0
100
AcDbBlockBegin
  2
*D9
 70
     1
 10
0.0
 20
0.0
 30
0.0
  3
*D9
  1

  0
LINE
  5
2A9
330
21B
100
AcDbEntity
  8
0
 62
     0
370
    -2
100
AcDbLine
 10
286.6762824999731
 20
36.12550726816134
 30
0.0
 11
288.6919391427198
 21
36.12550726816134
 31
0.0
  0
LINE
  5
2AA
330
21B
100
AcDbEntity
  8
0
 62
     0
370
    -2
100
AcDbLine
 10
286.6762824999731
 20
34.37550726816141
 30
0.0
 11
288.6919391427198
 21
34.37550726816141
 31
0.0
  0
LINE
  5
2AB
330
21B
100
AcDbEntity
  8
0
 62
     0
370
    -2
100
AcDbLine
 10
288.5119391427199
 20
36.30550726816134
 30
0.0
 11
288.5119391427199
 21
36.48550726816134
 31
0.0
  0
LINE
  5
2AC
330
21B
100
AcDbEntity
  8
0
 62
     0
370
    -2
100
AcDbLine
 10
288.5119391427199
 20
34.19550726816141
 30
0.0
 11
288.5119391427199
 21
34.01550726816141
 31
0.0
  0
SOLID
  5
2AD
330
21B
100
AcDbEntity
  8
0
 62
     0
100
AcDbTrace
 10
288.4819391427198
 20
36.30550726816134
 30
0.0
 11
288.5419391427198
 21
36.30550726816134
 31
0.0
 12
288.5119391427199
 22
36.12550726816134
 32
0.0
 13
288.5119391427199
 23
36.12550726816134
 33
0.0
  0
SOLID
  5
2AE
330
21B
100
AcDbEntity
  8
0
 62
     0
100
AcDbTrace
 10
288.4819391427198
 20
34.19550726816141
 30
0.0
 11
288.5419391427198
 21
34.19550726816141
 31
0.0
 12
288.5119391427199
 22
34.37550726816141
 32
0.0
 13
288.5119391427199
 23
34.37550726816141
 33
0.0
  0
MTEXT
  5
2AF
330
21B
100
AcDbEntity
  8
0
 62
     0
100
AcDbMText
 10
288.5119391427199
 20
35.80040747188592
 30
0.0
 40
0.18
 41
0.0
 71
     5
 72
     1
  1
\A1;1.7500
 73
     1
 44
1.0
  0
POINT
  5
2B0
330
21B
100
AcDbEntity
  8
DEFPOINTS
 62
     0
100
AcDbPoint
 10
286.6137824999731
 20
36.12550726816134
 30
0.0
  0
POINT
  5
2B1
330
21B
100
AcDbEntity
  8
DEFPOINTS
 62
     0
100
AcDbPoint
 10
286.6137824999731
 20
34.37550726816141
 30
0.0
  0
POINT
  5
2B2
330
21B
100
AcDbEntity
  8
DEFPOINTS
 62
     0
100
AcDbPoint
 10
288.5119391427199
 20
34.37550726816141
 30
0.0
  0
ENDBLK
  5
227
330
21B
100
AcDbEntity
  8
0
100
AcDbBlockEnd
  0
BLOCK
  5
234
330
229
100
AcDbEntity
  8
0
100
AcDbBlockBegin
  2
*D10
 70
     1
 10
0.0
 20
0.0
 30
0.0
  3
*D10
  1

  0
LINE
  5
22A
330
229
100
AcDbEntity
  8
0
 62
     0
370
    -2
100
AcDbLine
 10
286.9637824999731
 20
34.46300726816132
 30
0.0
 11
286.9637824999731
 21
33.5960696095071
 31
0.0
  0
LINE
  5
22B
330
229
100
AcDbEntity
  8
0
 62
     0
370
    -2
100
AcDbLine
 10
286.2637824999731
 20
34.46300726816134
 30
0.0
 11
286.2637824999731
 21
33.5960696095071
 31
0.0
  0
LINE
  5
22C
330
229
100
AcDbEntity
  8
0
 62
     0
370
    -2
100
AcDbLine
 10
286.783782499973
 20
33.7760696095071
 30
0.0
 11
286.4437824999731
 21
33.7760696095071
 31
0.0
  0
LINE
  5
22D
330
229
100
AcDbEntity
  8
0
 62
     0
370
    -2
100
AcDbLine
 10
286.2637824999731
 20
33.7760696095071
 30
0.0
 11
286.083782499973
 21
33.7760696095071
 31
0.0
  0
SOLID
  5
22E
330
229
100
AcDbEntity
  8
0
 62
     0
100
AcDbTrace
 10
286.783782499973
 20
33.8060696095071
 30
0.0
 11
286.783782499973
 21
33.7460696095071
 31
0.0
 12
286.9637824999731
 22
33.7760696095071
 32
0.0
 13
286.9637824999731
 23
33.7760696095071
 33
0.0
  0
SOLID
  5
22F
330
229
100
AcDbEntity
  8
0
 62
     0
100
AcDbTrace
 10
286.4437824999731
 20
33.8060696095071
 30
0.0
 11
286.4437824999731
 21
33.7460696095071
 31
0.0
 12
286.2637824999731
 22
33.7760696095071
 32
0.0
 13
286.2637824999731
 23
33.7760696095071
 33
0.0
  0
MTEXT
  5
230
330
229
100
AcDbEntity
  8
0
 62
     0
100
AcDbMText
 10
285.6037824999731
 20
33.7760696095071
 30
0.0
 40
0.18
 41
0.0
 71
     5
 72
     1
  1
\A1;0.7000
 73
     1
 44
1.0
  0
POINT
  5
231
330
229
100
AcDbEntity
  8
DEFPOINTS
 62
     0
100
AcDbPoint
 10
286.9637824999731
 20
34.52550726816133
 30
0.0
  0
POINT
  5
232
330
229
100
AcDbEntity
  8
DEFPOINTS
 62
     0
100
AcDbPoint
 10
286.2637824999731
 20
34.52550726816134
 30
0.0
  0
POINT
  5
233
330
229
100
AcDbEntity
  8
DEFPOINTS
 62
     0
100
AcDbPoint
 10
286.2637824999731
 20
33.7760696095071
 30
0.0
  0
ENDBLK
  5
235
330
229
100
AcDbEntity
  8
0
100
AcDbBlockEnd
  0
BLOCK
  5
242
330
237
100
AcDbEntity
  8
0
100
AcDbBlockBegin
  2
*D11
 70
     1
 10
0.0
 20
0.0
 30
0.0
  3
*D11
  1

  0
LINE
  5
244
330
237
100
AcDbEntity
  8
0
 62
     0
370
    -2
100
AcDbLine
 10
286.4637824999732
 20
34.46300726816135
 30
0.0
 11
286.4637824999732
 21
33.83231958795693
 31
0.0
  0
LINE
  5
245
330
237
100
AcDbEntity
  8
0
 62
     0
370
    -2
100
AcDbLine
 10
286.763782499973
 20
34.46300726816134
 30
0.0
 11
286.763782499973
 21
33.83231958795693
 31
0.0
  0
LINE
  5
246
330
237
100
AcDbEntity
  8
0
 62
     0
370
    -2
100
AcDbLine
 10
286.9437824999729
 20
34.01231958795694
 30
0.0
 11
287.123782499973
 21
34.01231958795694
 31
0.0
  0
LINE
  5
247
330
237
100
AcDbEntity
  8
0
 62
     0
370
    -2
100
AcDbLine
 10
286.2837824999731
 20
34.01231958795694
 30
0.0
 11
286.1037824999732
 21
34.01231958795694
 31
0.0
  0
SOLID
  5
248
330
237
100
AcDbEntity
  8
0
 62
     0
100
AcDbTrace
 10
286.9437824999729
 20
34.04231958795694
 30
0.0
 11
286.9437824999729
 21
33.98231958795693
 31
0.0
 12
286.763782499973
 22
34.01231958795694
 32
0.0
 13
286.763782499973
 23
34.01231958795694
 33
0.0
  0
SOLID
  5
249
330
237
100
AcDbEntity
  8
0
 62
     0
100
AcDbTrace
 10
286.2837824999731
 20
34.04231958795694
 30
0.0
 11
286.2837824999731
 21
33.98231958795693
 31
0.0
 12
286.4637824999732
 22
34.01231958795694
 32
0.0
 13
286.4637824999732
 23
34.01231958795694
 33
0.0
  0
MTEXT
  5
24A
330
237
100
AcDbEntity
  8
0
 62
     0
100
AcDbMText
 10
285.6237824999731
 20
34.01231958795694
 30
0.0
 40
0.18
 41
0.0
 71
     5
 72
     1
  1
\A1;0.3000
 73
     1
 44
1.0
  0
POINT
  5
24B
330
237
100
AcDbEntity
  8
DEFPOINTS
 62
     0
100
AcDbPoint
 10
286.4637824999732
 20
34.52550726816134
 30
0.0
  0
POINT
  5
24C
330
237
100
AcDbEntity
  8
DEFPOINTS
 62
     0
100
AcDbPoint
 10
286.763782499973
 20
34.52550726816134
 30
0.0
  0
POINT
  5
24D
330
237
100
AcDbEntity
  8
DEFPOINTS
 62
     0
100
AcDbPoint
 10
286.763782499973
 20
34.01231958795694
 30
0.0
  0
ENDBLK
  5
243
330
237
100
AcDbEntity
  8
0
100
AcDbBlockEnd
  0
BLOCK
  5
25B
330
24F
100
AcDbEntity
  8
0
100
AcDbBlockBegin
  2
*D12
 70
     1
 10
0.0
 20
0.0
 30
0.0
  3
*D12
  1

  0
LINE
  5
268
330
24F
100
AcDbEntity
  8
0
 62
     0
370
    -2
100
AcDbLine
 10
286.6762824999731
 20
34.37550726816141
 30
0.0
 11
288.735042614037
 21
34.37550726816141
 31
0.0
  0
LINE
  5
269
330
24F
100
AcDbEntity
  8
0
 62
     0
370
    -2
100
AcDbLine
 10
287.0262824999731
 20
34.52550726816133
 30
0.0
 11
288.735042614037
 21
34.52550726816133
 31
0.0
  0
LINE
  5
26A
330
24F
100
AcDbEntity
  8
0
 62
     0
370
    -2
100
AcDbLine
 10
288.5550426140369
 20
34.70550726816132
 30
0.0
 11
288.5550426140369
 21
34.88550726816133
 31
0.0
  0
LINE
  5
26B
330
24F
100
AcDbEntity
  8
0
 62
     0
370
    -2
100
AcDbLine
 10
288.5550426140369
 20
34.19550726816141
 30
0.0
 11
288.5550426140369
 21
34.01550726816141
 31
0.0
  0
LINE
  5
26C
330
24F
100
AcDbEntity
  8
0
 62
     0
370
    -2
100
AcDbLine
 10
288.5550426140369
 20
34.01550726816141
 30
0.0
 11
288.375042614037
 21
34.01550726816141
 31
0.0
  0
SOLID
  5
26D
330
24F
100
AcDbEntity
  8
0
 62
     0
100
AcDbTrace
 10
288.525042614037
 20
34.70550726816132
 30
0.0
 11
288.5850426140368
 21
34.70550726816132
 31
0.0
 12
288.5550426140369
 22
34.52550726816133
 32
0.0
 13
288.5550426140369
 23
34.52550726816133
 33
0.0
  0
SOLID
  5
26E
330
24F
100
AcDbEntity
  8
0
 62
     0
100
AcDbTrace
 10
288.525042614037
 20
34.19550726816141
 30
0.0
 11
288.5850426140368
 21
34.19550726816141
 31
0.0
 12
288.5550426140369
 22
34.37550726816141
 32
0.0
 13
288.5550426140369
 23
34.37550726816141
 33
0.0
  0
MTEXT
  5
26F
330
24F
100
AcDbEntity
  8
0
 62
     0
100
AcDbMText
 10
287.910042614037
 20
34.01550726816145
 30
0.0
 40
0.18
 41
0.0
 71
     5
 72
     1
  1
\A1;0.1500
 73
     1
 44
1.0
  0
POINT
  5
270
330
24F
100
AcDbEntity
  8
DEFPOINTS
 62
     0
100
AcDbPoint
 10
286.6137824999731
 20
34.37550726816141
 30
0.0
  0
POINT
  5
271
330
24F
100
AcDbEntity
  8
DEFPOINTS
 62
     0
100
AcDbPoint
 10
286.9637824999731
 20
34.52550726816133
 30
0.0
  0
POINT
  5
272
330
24F
100
AcDbEntity
  8
DEFPOINTS
 62
     0
100
AcDbPoint
 10
288.5550426140369
 20
34.52550726816133
 30
0.0
  0
ENDBLK
  5
25C
330
24F
100
AcDbEntity
  8
0
100
AcDbBlockEnd
  0
BLOCK
  5
280
330
274
100
AcDbEntity
  8
0
100
AcDbBlockBegin
  2
*D13
 70
     1
 10
0.0
 20
0.0
 30
0.0
  3
*D13
  1

  0
LINE
  5
282
330
274
100
AcDbEntity
  8
0
 62
     0
370
    -2
100
AcDbLine
 10
286.9012824999732
 20
34.52550726816133
 30
0.0
 11
284.9674019678
 21
34.52550726816133
 31
0.0
  0
LINE
  5
283
330
274
100
AcDbEntity
  8
0
 62
     0
370
    -2
100
AcDbLine
 10
286.5512824999731
 20
34.37550726816141
 30
0.0
 11
284.9674019678
 21
34.37550726816141
 31
0.0
  0
LINE
  5
284
330
274
100
AcDbEntity
  8
0
 62
     0
370
    -2
100
AcDbLine
 10
285.1474019677999
 20
34.70550726816132
 30
0.0
 11
285.1474019677999
 21
34.88550726816133
 31
0.0
  0
LINE
  5
285
330
274
100
AcDbEntity
  8
0
 62
     0
370
    -2
100
AcDbLine
 10
285.1474019677999
 20
34.19550726816141
 30
0.0
 11
285.1474019677999
 21
34.01550726816141
 31
0.0
  0
LINE
  5
286
330
274
100
AcDbEntity
  8
0
 62
     0
370
    -2
100
AcDbLine
 10
285.1474019677999
 20
34.01550726816141
 30
0.0
 11
284.9674019678
 21
34.01550726816141
 31
0.0
  0
SOLID
  5
287
330
274
100
AcDbEntity
  8
0
 62
     0
100
AcDbTrace
 10
285.1174019677999
 20
34.70550726816132
 30
0.0
 11
285.1774019678
 21
34.70550726816132
 31
0.0
 12
285.1474019677999
 22
34.52550726816133
 32
0.0
 13
285.1474019677999
 23
34.52550726816133
 33
0.0
  0
SOLID
  5
288
330
274
100
AcDbEntity
  8
0
 62
     0
100
AcDbTrace
 10
285.1174019677999
 20
34.19550726816141
 30
0.0
 11
285.1774019678
 21
34.19550726816141
 31
0.0
 12
285.1474019677999
 22
34.37550726816141
 32
0.0
 13
285.1474019677999
 23
34.37550726816141
 33
0.0
  0
MTEXT
  5
289
330
274
100
AcDbEntity
  8
0
 62
     0
100
AcDbMText
 10
284.5024019677999
 20
34.01550726816145
 30
0.0
 40
0.18
 41
0.0
 71
     5
 72
     1
  1
\A1;0.1500
 73
     1
 44
1.0
  0
POINT
  5
28A
330
274
100
AcDbEntity
  8
DEFPOINTS
 62
     0
100
AcDbPoint
 10
286.9637824999731
 20
34.52550726816133
 30
0.0
  0
POINT
  5
28B
330
274
100
AcDbEntity
  8
DEFPOINTS
 62
     0
100
AcDbPoint
 10
286.6137824999731
 20
34.37550726816141
 30
0.0
  0
POINT
  5
28C
330
274
100
AcDbEntity
  8
DEFPOINTS
 62
     0
100
AcDbPoint
 10
285.1474019677999
 20
34.37550726816141
 30
0.0
  0
ENDBLK
  5
281
330
274
100
AcDbEntity
  8
0
100
AcDbBlockEnd
  0
BLOCK
  5
299
330
28E
100
AcDbEntity
  8
0
100
AcDbBlockBegin
  2
*D14
 70
     1
 10
0.0
 20
0.0
 30
0.0
  3
*D14
  1

  0
LINE
  5
2BD
330
28E
100
AcDbEntity
  8
0
 62
     0
370
    -2
100
AcDbLine
 10
286.6762824999731
 20
34.37550726816141
 30
0.0
 11
288.4277268621358
 21
34.37550726816141
 31
0.0
  0
LINE
  5
2BE
330
28E
100
AcDbEntity
  8
0
 62
     0
370
    -2
100
AcDbLine
 10
287.1762824999732
 20
35.62550726816132
 30
0.0
 11
288.4277268621358
 21
35.62550726816132
 31
0.0
  0
LINE
  5
2BF
330
28E
100
AcDbEntity
  8
0
 62
     0
370
    -2
100
AcDbLine
 10
288.2477268621359
 20
34.55550726816141
 30
0.0
 11
288.2477268621359
 21
34.82050726816138
 31
0.0
  0
LINE
  5
2C0
330
28E
100
AcDbEntity
  8
0
 62
     0
370
    -2
100
AcDbLine
 10
288.2477268621359
 20
35.44550726816133
 30
0.0
 11
288.2477268621359
 21
35.18050726816138
 31
0.0
  0
SOLID
  5
2C1
330
28E
100
AcDbEntity
  8
0
 62
     0
100
AcDbTrace
 10
288.2177268621358
 20
34.55550726816141
 30
0.0
 11
288.2777268621357
 21
34.55550726816141
 31
0.0
 12
288.2477268621359
 22
34.37550726816141
 32
0.0
 13
288.2477268621359
 23
34.37550726816141
 33
0.0
  0
SOLID
  5
2C2
330
28E
100
AcDbEntity
  8
0
 62
     0
100
AcDbTrace
 10
288.2177268621358
 20
35.44550726816133
 30
0.0
 11
288.2777268621357
 21
35.44550726816133
 31
0.0
 12
288.2477268621359
 22
35.62550726816132
 32
0.0
 13
288.2477268621359
 23
35.62550726816132
 33
0.0
  0
MTEXT
  5
2C3
330
28E
100
AcDbEntity
  8
0
 62
     0
100
AcDbMText
 10
288.2477268621359
 20
35.00050726816143
 30
0.0
 40
0.18
 41
0.0
 71
     5
 72
     1
  1
\A1;1.2500
 73
     1
 44
1.0
  0
POINT
  5
2C4
330
28E
100
AcDbEntity
  8
DEFPOINTS
 62
     0
100
AcDbPoint
 10
286.6137824999731
 20
34.37550726816141
 30
0.0
  0
POINT
  5
2C5
330
28E
100
AcDbEntity
  8
DEFPOINTS
 62
     0
100
AcDbPoint
 10
287.1137824999731
 20
35.62550726816132
 30
0.0
  0
POINT
  5
2C6
330
28E
100
AcDbEntity
  8
DEFPOINTS
 62
     0
100
AcDbPoint
 10
288.2477268621359
 20
35.62550726816132
 30
0.0
  0
ENDBLK
  5
29A
330
28E
100
AcDbEntity
  8
0
100
AcDbBlockEnd
  0
BLOCK
  5
2A7
330
29C
100
AcDbEntity
  8
0
100
AcDbBlockBegin
  2
*D15
 70
     1
 10
0.0
 20
0.0
 30
0.0
  3
*D15
  1

  0
LINE
  5
29D
330
29C
100
AcDbEntity
  8
0
 62
     0
370
    -2
100
AcDbLine
 10
287.1137824999731
 20
35.68800726816133
 30
0.0
 11
287.1137824999731
 21
36.55481912805964
 31
0.0
  0
LINE
  5
29E
330
29C
100
AcDbEntity
  8
0
 62
     0
370
    -2
100
AcDbLine
 10
286.1137824999731
 20
35.68800726816133
 30
0.0
 11
286.1137824999731
 21
36.55481912805964
 31
0.0
  0
LINE
  5
29F
330
29C
100
AcDbEntity
  8
0
 62
     0
370
    -2
100
AcDbLine
 10
287.2937824999731
 20
36.37481912805964
 30
0.0
 11
287.4737824999732
 21
36.37481912805964
 31
0.0
  0
LINE
  5
2A0
330
29C
100
AcDbEntity
  8
0
 62
     0
370
    -2
100
AcDbLine
 10
285.9337824999731
 20
36.37481912805964
 30
0.0
 11
285.7537824999731
 21
36.37481912805964
 31
0.0
  0
SOLID
  5
2A1
330
29C
100
AcDbEntity
  8
0
 62
     0
100
AcDbTrace
 10
287.2937824999731
 20
36.40481912805964
 30
0.0
 11
287.2937824999731
 21
36.34481912805964
 31
0.0
 12
287.1137824999731
 22
36.37481912805964
 32
0.0
 13
287.1137824999731
 23
36.37481912805964
 33
0.0
  0
SOLID
  5
2A2
330
29C
100
AcDbEntity
  8
0
 62
     0
100
AcDbTrace
 10
285.9337824999731
 20
36.40481912805964
 30
0.0
 11
285.9337824999731
 21
36.34481912805964
 31
0.0
 12
286.1137824999731
 22
36.37481912805964
 32
0.0
 13
286.1137824999731
 23
36.37481912805964
 33
0.0
  0
MTEXT
  5
2A3
330
29C
100
AcDbEntity
  8
0
 62
     0
100
AcDbMText
 10
286.6137824999731
 20
36.37481912805964
 30
0.0
 40
0.18
 41
0.0
 71
     5
 72
     1
  1
\A1;1.0000
 73
     1
 44
1.0
  0
POINT
  5
2A4
330
29C
100
AcDbEntity
  8
DEFPOINTS
 62
     0
100
AcDbPoint
 10
287.1137824999731
 20
35.62550726816132
 30
0.0
  0
POINT
  5
2A5
330
29C
100
AcDbEntity
  8
DEFPOINTS
 62
     0
100
AcDbPoint
 10
286.1137824999731
 20
35.62550726816132
 30
0.0
  0
POINT
  5
2A6
330
29C
100
AcDbEntity
  8
DEFPOINTS
 62
     0
100
AcDbPoint
 10
286.1137824999731
 20
36.37481912805964
 30
0.0
  0
ENDBLK
  5
2A8
330
29C
100
AcDbEntity
  8
0
100
AcDbBlockEnd
  0
BLOCK
  5
2D4
330
2C8
100
AcDbEntity
  8
0
100
AcDbBlockBegin
  2
*D16
 70
     1
 10
0.0
 20
0.0
 30
0.0
  3
*D16
  1

  0
LINE
  5
2C9
330
2C8
100
AcDbEntity
  8
0
 62
     0
370
    -2
100
AcDbLine
 10
286.5512824999731
 20
34.37550726816141
 30
0.0
 11
284.8832736286218
 21
34.37550726816141
 31
0.0
  0
LINE
  5
2CA
330
2C8
100
AcDbEntity
  8
0
 62
     0
370
    -2
100
AcDbLine
 10
286.2012824999731
 20
34.52550726816134
 30
0.0
 11
284.8832736286218
 21
34.52550726816134
 31
0.0
  0
LINE
  5
2CB
330
2C8
100
AcDbEntity
  8
0
 62
     0
370
    -2
100
AcDbLine
 10
285.0632736286218
 20
34.19550726816141
 30
0.0
 11
285.0632736286218
 21
34.01550726816141
 31
0.0
  0
LINE
  5
2CC
330
2C8
100
AcDbEntity
  8
0
 62
     0
370
    -2
100
AcDbLine
 10
285.0632736286218
 20
34.70550726816134
 30
0.0
 11
285.0632736286218
 21
34.88550726816134
 31
0.0
  0
LINE
  5
2CD
330
2C8
100
AcDbEntity
  8
0
 62
     0
370
    -2
100
AcDbLine
 10
285.0632736286218
 20
34.88550726816134
 30
0.0
 11
285.2432736286218
 21
34.88550726816134
 31
0.0
  0
SOLID
  5
2CE
330
2C8
100
AcDbEntity
  8
0
 62
     0
100
AcDbTrace
 10
285.0332736286219
 20
34.19550726816141
 30
0.0
 11
285.0932736286218
 21
34.19550726816141
 31
0.0
 12
285.0632736286218
 22
34.37550726816141
 32
0.0
 13
285.0632736286218
 23
34.37550726816141
 33
0.0
  0
SOLID
  5
2CF
330
2C8
100
AcDbEntity
  8
0
 62
     0
100
AcDbTrace
 10
285.0332736286219
 20
34.70550726816134
 30
0.0
 11
285.0932736286218
 21
34.70550726816134
 31
0.0
 12
285.0632736286218
 22
34.52550726816134
 32
0.0
 13
285.0632736286218
 23
34.52550726816134
 33
0.0
  0
MTEXT
  5
2D0
330
2C8
100
AcDbEntity
  8
0
 62
     0
100
AcDbMText
 10
285.7082736286218
 20
34.88550726816139
 30
0.0
 40
0.18
 41
0.0
 71
     5
 72
     1
  1
\A1;0.1500
 73
     1
 44
1.0
  0
POINT
  5
2D1
330
2C8
100
AcDbEntity
  8
DEFPOINTS
 62
     0
100
AcDbPoint
 10
286.6137824999731
 20
34.37550726816141
 30
0.0
  0
POINT
  5
2D2
330
2C8
100
AcDbEntity
  8
DEFPOINTS
 62
     0
100
AcDbPoint
 10
286.2637824999731
 20
34.52550726816134
 30
0.0
  0
POINT
  5
2D3
330
2C8
100
AcDbEntity
  8
DEFPOINTS
 62
     0
100
AcDbPoint
 10
285.0632736286218
 20
34.52550726816134
 30
0.0
  0
ENDBLK
  5
2D5
330
2C8
100
AcDbEntity
  8
0
100
AcDbBlockEnd
  0
BLOCK
  5
2E7
330
2DC
100
AcDbEntity
  8
0
100
AcDbBlockBegin
  2
*D17
 70
     1
 10
0.0
 20
0.0
 30
0.0
  3
*D17
  1

  0
LINE
  5
2DD
330
2DC
100
AcDbEntity
  8
0
 62
     0
370
    -2
100
AcDbLine
 10
287.487939324066
 20
37.20491309510154
 30
0.0
 11
288.5059051481901
 21
37.20491309510154
 31
0.0
  0
LINE
  5
2DE
330
2DC
100
AcDbEntity
  8
0
 62
     0
370
    -2
100
AcDbLine
 10
287.487939324066
 20
33.30491309510155
 30
0.0
 11
288.5059051481901
 21
33.30491309510155
 31
0.0
  0
LINE
  5
2DF
330
2DC
100
AcDbEntity
  8
0
 62
     0
370
    -2
100
AcDbLine
 10
288.3259051481901
 20
37.02491309510154
 30
0.0
 11
288.3259051481901
 21
35.43491309510155
 31
0.0
  0
LINE
  5
2E0
330
2DC
100
AcDbEntity
  8
0
 62
     0
370
    -2
100
AcDbLine
 10
288.3259051481901
 20
33.48491309510155
 30
0.0
 11
288.3259051481901
 21
35.07491309510155
 31
0.0
  0
SOLID
  5
2E1
330
2DC
100
AcDbEntity
  8
0
 62
     0
100
AcDbTrace
 10
288.2959051481901
 20
37.02491309510154
 30
0.0
 11
288.3559051481901
 21
37.02491309510154
 31
0.0
 12
288.3259051481901
 22
37.20491309510154
 32
0.0
 13
288.3259051481901
 23
37.20491309510154
 33
0.0
  0
SOLID
  5
2E2
330
2DC
100
AcDbEntity
  8
0
 62
     0
100
AcDbTrace
 10
288.2959051481901
 20
33.48491309510155
 30
0.0
 11
288.3559051481901
 21
33.48491309510155
 31
0.0
 12
288.3259051481901
 22
33.30491309510155
 32
0.0
 13
288.3259051481901
 23
33.30491309510155
 33
0.0
  0
MTEXT
  5
2E3
330
2DC
100
AcDbEntity
  8
0
 62
     0
100
AcDbMText
 10
288.3259051481901
 20
35.2549130951016
 30
0.0
 40
0.18
 41
0.0
 71
     5
 72
     1
  1
\A1;3.9000
 73
     1
 44
1.0
  0
POINT
  5
2E4
330
2DC
100
AcDbEntity
  8
DEFPOINTS
 62
     0
100
AcDbPoint
 10
287.425439324066
 20
37.20491309510154
 30
0.0
  0
POINT
  5
2E5
330
2DC
100
AcDbEntity
  8
DEFPOINTS
 62
     0
100
AcDbPoint
 10
287.425439324066
 20
33.30491309510155
 30
0.0
  0
POINT
  5
2E6
330
2DC
100
AcDbEntity
  8
DEFPOINTS
 62
     0
100
AcDbPoint
 10
288.3259051481901
 20
33.30491309510155
 30
0.0
  0
ENDBLK
  5
2E8
330
2DC
100
AcDbEntity
  8
0
100
AcDbBlockEnd
  0
BLOCK
  5
2F5
330
2EA
100
AcDbEntity
  8
0
100
AcDbBlockBegin
  2
*D18
 70
     1
 10
0.0
 20
0.0
 30
0.0
  3
*D18
  1

  0
LINE
  5
2EB
330
2EA
100
AcDbEntity
  8
0
 62
     0
370
    -2
100
AcDbLine
 10
287.425439324066
 20
33.24241309510155
 30
0.0
 11
287.425439324066
 21
32.48308429019843
 31
0.0
  0
LINE
  5
2EC
330
2EA
100
AcDbEntity
  8
0
 62
     0
370
    -2
100
AcDbLine
 10
284.925439324066
 20
33.24241309510155
 30
0.0
 11
284.925439324066
 21
32.48308429019843
 31
0.0
  0
LINE
  5
2ED
330
2EA
100
AcDbEntity
  8
0
 62
     0
370
    -2
100
AcDbLine
 10
287.245439324066
 20
32.66308429019843
 30
0.0
 11
286.670439324066
 21
32.66308429019843
 31
0.0
  0
LINE
  5
2EE
330
2EA
100
AcDbEntity
  8
0
 62
     0
370
    -2
100
AcDbLine
 10
285.105439324066
 20
32.66308429019843
 30
0.0
 11
285.680439324066
 21
32.66308429019843
 31
0.0
  0
SOLID
  5
2EF
330
2EA
100
AcDbEntity
  8
0
 62
     0
100
AcDbTrace
 10
287.245439324066
 20
32.69308429019842
 30
0.0
 11
287.245439324066
 21
32.63308429019843
 31
0.0
 12
287.425439324066
 22
32.66308429019843
 32
0.0
 13
287.425439324066
 23
32.66308429019843
 33
0.0
  0
SOLID
  5
2F0
330
2EA
100
AcDbEntity
  8
0
 62
     0
100
AcDbTrace
 10
285.105439324066
 20
32.69308429019842
 30
0.0
 11
285.105439324066
 21
32.63308429019843
 31
0.0
 12
284.925439324066
 22
32.66308429019843
 32
0.0
 13
284.925439324066
 23
32.66308429019843
 33
0.0
  0
MTEXT
  5
2F1
330
2EA
100
AcDbEntity
  8
0
 62
     0
100
AcDbMText
 10
286.175439324066
 20
32.66308429019843
 30
0.0
 40
0.18
 41
0.0
 71
     5
 72
     1
  1
\A1;2.5000
 73
     1
 44
1.0
  0
POINT
  5
2F2
330
2EA
100
AcDbEntity
  8
DEFPOINTS
 62
     0
100
AcDbPoint
 10
287.425439324066
 20
33.30491309510155
 30
0.0
  0
POINT
  5
2F3
330
2EA
100
AcDbEntity
  8
DEFPOINTS
 62
     0
100
AcDbPoint
 10
284.925439324066
 20
33.30491309510155
 30
0.0
  0
POINT
  5
2F4
330
2EA
100
AcDbEntity
  8
DEFPOINTS
 62
     0
100
AcDbPoint
 10
284.925439324066
 20
32.66308429019843
 30
0.0
  0
ENDBLK
  5
2F6
330
2EA
100
AcDbEntity
  8
0
100
AcDbBlockEnd
  0
BLOCK
  5
30F
330
304
100
AcDbEntity
  8
0
100
AcDbBlockBegin
  2
*D19
 70
     1
 10
0.0
 20
0.0
 30
0.0
  3
*D19
  1

  0
LINE
  5
31F
330
304
100
AcDbEntity
  8
0
 62
     0
370
    -2
100
AcDbLine
 10
287.2970725808044
 20
35.5015985131209
 30
0.0
 11
288.6262723142237
 21
35.5015985131209
 31
0.0
  0
LINE
  5
320
330
304
100
AcDbEntity
  8
0
 62
     0
370
    -2
100
AcDbLine
 10
285.9970725808044
 20
32.40159851312091
 30
0.0
 11
288.6262723142237
 21
32.40159851312091
 31
0.0
  0
LINE
  5
321
330
304
100
AcDbEntity
  8
0
 62
     0
370
    -2
100
AcDbLine
 10
288.4462723142236
 20
35.3215985131209
 30
0.0
 11
288.4462723142236
 21
34.13159851312089
 31
0.0
  0
LINE
  5
322
330
304
100
AcDbEntity
  8
0
 62
     0
370
    -2
100
AcDbLine
 10
288.4462723142236
 20
32.58159851312091
 30
0.0
 11
288.4462723142236
 21
33.77159851312089
 31
0.0
  0
SOLID
  5
323
330
304
100
AcDbEntity
  8
0
 62
     0
100
AcDbTrace
 10
288.4162723142236
 20
35.3215985131209
 30
0.0
 11
288.4762723142236
 21
35.3215985131209
 31
0.0
 12
288.4462723142236
 22
35.5015985131209
 32
0.0
 13
288.4462723142236
 23
35.5015985131209
 33
0.0
  0
SOLID
  5
324
330
304
100
AcDbEntity
  8
0
 62
     0
100
AcDbTrace
 10
288.4162723142236
 20
32.58159851312091
 30
0.0
 11
288.4762723142236
 21
32.58159851312091
 31
0.0
 12
288.4462723142236
 22
32.40159851312091
 32
0.0
 13
288.4462723142236
 23
32.40159851312091
 33
0.0
  0
MTEXT
  5
325
330
304
100
AcDbEntity
  8
0
 62
     0
100
AcDbMText
 10
288.4462723142236
 20
33.95159851312095
 30
0.0
 40
0.18
 41
0.0
 71
     5
 72
     1
  1
\A1;3.1000
 73
     1
 44
1.0
  0
POINT
  5
326
330
304
100
AcDbEntity
  8
DEFPOINTS
 62
     0
100
AcDbPoint
 10
287.2345725808044
 20
35.5015985131209
 30
0.0
  0
POINT
  5
327
330
304
100
AcDbEntity
  8
DEFPOINTS
 62
     0
100
AcDbPoint
 10
285.9345725808044
 20
32.40159851312091
 30
0.0
  0
POINT
  5
328
330
304
100
AcDbEntity
  8
DEFPOINTS
 62
     0
100
AcDbPoint
 10
288.4462723142236
 20
32.40159851312091
 30
0.0
  0
ENDBLK
  5
310
330
304
100
AcDbEntity
  8
0
100
AcDbBlockEnd
  0
BLOCK
  5
31D
330
312
100
AcDbEntity
  8
0
100
AcDbBlockBegin
  2
*D20
 70
     1
 10
0.0
 20
0.0
 30
0.0
  3
*D20
  1

  0
LINE
  5
313
330
312
100
AcDbEntity
  8
0
 62
     0
370
    -2
100
AcDbLine
 10
287.2970725808044
 20
32.8015985131209
 30
0.0
 11
287.9609367520515
 21
32.8015985131209
 31
0.0
  0
LINE
  5
314
330
312
100
AcDbEntity
  8
0
 62
     0
370
    -2
100
AcDbLine
 10
285.9970725808044
 20
32.40159851312091
 30
0.0
 11
287.9609367520515
 21
32.40159851312091
 31
0.0
  0
LINE
  5
315
330
312
100
AcDbEntity
  8
0
 62
     0
370
    -2
100
AcDbLine
 10
287.7809367520514
 20
32.98159851312091
 30
0.0
 11
287.7809367520514
 21
33.1615985131209
 31
0.0
  0
LINE
  5
316
330
312
100
AcDbEntity
  8
0
 62
     0
370
    -2
100
AcDbLine
 10
287.7809367520514
 20
32.22159851312091
 30
0.0
 11
287.7809367520514
 21
32.04159851312091
 31
0.0
  0
SOLID
  5
317
330
312
100
AcDbEntity
  8
0
 62
     0
100
AcDbTrace
 10
287.7509367520515
 20
32.98159851312091
 30
0.0
 11
287.8109367520514
 21
32.98159851312091
 31
0.0
 12
287.7809367520514
 22
32.8015985131209
 32
0.0
 13
287.7809367520514
 23
32.8015985131209
 33
0.0
  0
SOLID
  5
318
330
312
100
AcDbEntity
  8
0
 62
     0
100
AcDbTrace
 10
287.7509367520515
 20
32.22159851312091
 30
0.0
 11
287.8109367520514
 21
32.22159851312091
 31
0.0
 12
287.7809367520514
 22
32.40159851312091
 32
0.0
 13
287.7809367520514
 23
32.40159851312091
 33
0.0
  0
MTEXT
  5
319
330
312
100
AcDbEntity
  8
0
 62
     0
100
AcDbMText
 10
287.7809367520514
 20
32.60159851312096
 30
0.0
 40
0.18
 41
0.0
 71
     5
 72
     1
  1
\A1;0.4000
 73
     1
 44
1.0
  0
POINT
  5
31A
330
312
100
AcDbEntity
  8
DEFPOINTS
 62
     0
100
AcDbPoint
 10
287.2345725808044
 20
32.8015985131209
 30
0.0
  0
POINT
  5
31B
330
312
100
AcDbEntity
  8
DEFPOINTS
 62
     0
100
AcDbPoint
 10
285.9345725808044
 20
32.40159851312091
 30
0.0
  0
POINT
  5
31C
330
312
100
AcDbEntity
  8
DEFPOINTS
 62
     0
100
AcDbPoint
 10
287.7809367520514
 20
32.40159851312091
 30
0.0
  0
ENDBLK
  5
31E
330
312
100
AcDbEntity
  8
0
100
AcDbBlockEnd
  0
BLOCK
  5
335
330
32A
100
AcDbEntity
  8
0
100
AcDbBlockBegin
  2
*D21
 70
     1
 10
0.0
 20
0.0
 30
0.0
  3
*D21
  1

  0
LINE
  5
32B
330
32A
100
AcDbEntity
  8
0
 62
     0
370
    -2
100
AcDbLine
 10
287.2345725808044
 20
32.7390985131209
 30
0.0
 11
287.2345725808044
 21
31.27124961803954
 31
0.0
  0
LINE
  5
32C
330
32A
100
AcDbEntity
  8
0
 62
     0
370
    -2
100
AcDbLine
 10
285.2345725808044
 20
32.33909851312091
 30
0.0
 11
285.2345725808044
 21
31.27124961803954
 31
0.0
  0
LINE
  5
32D
330
32A
100
AcDbEntity
  8
0
 62
     0
370
    -2
100
AcDbLine
 10
287.0545725808046
 20
31.45124961803954
 30
0.0
 11
286.7145725808045
 21
31.45124961803954
 31
0.0
  0
LINE
  5
32E
330
32A
100
AcDbEntity
  8
0
 62
     0
370
    -2
100
AcDbLine
 10
285.4145725808044
 20
31.45124961803954
 30
0.0
 11
285.7545725808045
 21
31.45124961803954
 31
0.0
  0
SOLID
  5
32F
330
32A
100
AcDbEntity
  8
0
 62
     0
100
AcDbTrace
 10
287.0545725808046
 20
31.48124961803954
 30
0.0
 11
287.0545725808046
 21
31.42124961803954
 31
0.0
 12
287.2345725808044
 22
31.45124961803954
 32
0.0
 13
287.2345725808044
 23
31.45124961803954
 33
0.0
  0
SOLID
  5
330
330
32A
100
AcDbEntity
  8
0
 62
     0
100
AcDbTrace
 10
285.4145725808044
 20
31.48124961803954
 30
0.0
 11
285.4145725808044
 21
31.42124961803954
 31
0.0
 12
285.2345725808044
 22
31.45124961803954
 32
0.0
 13
285.2345725808044
 23
31.45124961803954
 33
0.0
  0
MTEXT
  5
331
330
32A
100
AcDbEntity
  8
0
 62
     0
100
AcDbMText
 10
286.2345725808046
 20
31.45124961803954
 30
0.0
 40
0.18
 41
0.0
 71
     5
 72
     1
  1
\A1;2.0000
 73
     1
 44
1.0
  0
POINT
  5
332
330
32A
100
AcDbEntity
  8
DEFPOINTS
 62
     0
100
AcDbPoint
 10
287.2345725808044
 20
32.8015985131209
 30
0.0
  0
POINT
  5
333
330
32A
100
AcDbEntity
  8
DEFPOINTS
 62
     0
100
AcDbPoint
 10
285.2345725808044
 20
32.40159851312091
 30
0.0
  0
POINT
  5
334
330
32A
100
AcDbEntity
  8
DEFPOINTS
 62
     0
100
AcDbPoint
 10
285.2345725808044
 20
31.45124961803954
 30
0.0
  0
ENDBLK
  5
336
330
32A
100
AcDbEntity
  8
0
100
AcDbBlockEnd
  0
BLOCK
  5
343
330
338
100
AcDbEntity
  8
0
100
AcDbBlockBegin
  2
*D22
 70
     1
 10
0.0
 20
0.0
 30
0.0
  3
*D22
  1

  0
LINE
  5
339
330
338
100
AcDbEntity
  8
0
 62
     0
370
    -2
100
AcDbLine
 10
285.9345725808044
 20
32.33909851312091
 30
0.0
 11
285.9345725808044
 21
31.71868757648136
 31
0.0
  0
LINE
  5
33A
330
338
100
AcDbEntity
  8
0
 62
     0
370
    -2
100
AcDbLine
 10
287.2345725808044
 20
32.7390985131209
 30
0.0
 11
287.2345725808044
 21
31.71868757648136
 31
0.0
  0
LINE
  5
33B
330
338
100
AcDbEntity
  8
0
 62
     0
370
    -2
100
AcDbLine
 10
285.7545725808045
 20
31.89868757648136
 30
0.0
 11
285.5745725808045
 21
31.89868757648136
 31
0.0
  0
LINE
  5
33C
330
338
100
AcDbEntity
  8
0
 62
     0
370
    -2
100
AcDbLine
 10
287.4145725808046
 20
31.89868757648136
 30
0.0
 11
287.5945725808044
 21
31.89868757648136
 31
0.0
  0
SOLID
  5
33D
330
338
100
AcDbEntity
  8
0
 62
     0
100
AcDbTrace
 10
285.7545725808045
 20
31.92868757648136
 30
0.0
 11
285.7545725808045
 21
31.86868757648136
 31
0.0
 12
285.9345725808044
 22
31.89868757648136
 32
0.0
 13
285.9345725808044
 23
31.89868757648136
 33
0.0
  0
SOLID
  5
33E
330
338
100
AcDbEntity
  8
0
 62
     0
100
AcDbTrace
 10
287.4145725808046
 20
31.92868757648136
 30
0.0
 11
287.4145725808046
 21
31.86868757648136
 31
0.0
 12
287.2345725808044
 22
31.89868757648136
 32
0.0
 13
287.2345725808044
 23
31.89868757648136
 33
0.0
  0
MTEXT
  5
33F
330
338
100
AcDbEntity
  8
0
 62
     0
100
AcDbMText
 10
286.5845725808044
 20
31.89868757648136
 30
0.0
 40
0.18
 41
0.0
 71
     5
 72
     1
  1
\A1;1.3000
 73
     1
 44
1.0
  0
POINT
  5
340
330
338
100
AcDbEntity
  8
DEFPOINTS
 62
     0
100
AcDbPoint
 10
285.9345725808044
 20
32.40159851312091
 30
0.0
  0
POINT
  5
341
330
338
100
AcDbEntity
  8
DEFPOINTS
 62
     0
100
AcDbPoint
 10
287.2345725808044
 20
32.8015985131209
 30
0.0
  0
POINT
  5
342
330
338
100
AcDbEntity
  8
DEFPOINTS
 62
     0
100
AcDbPoint
 10
287.2345725808044
 20
31.89868757648136
 30
0.0
  0
ENDBLK
  5
344
330
338
100
AcDbEntity
  8
0
100
AcDbBlockEnd
  0
BLOCK
  5
363
330
358
100
AcDbEntity
  8
0
100
AcDbBlockBegin
  2
*D23
 70
     1
 10
0.0
 20
0.0
 30
0.0
  3
*D23
  1

  0
LINE
  5
359
330
358
100
AcDbEntity
  8
0
 62
     0
370
    -2
100
AcDbLine
 10
287.1735466631391
 20
34.96624213153646
 30
0.0
 11
287.1735466631391
 21
33.76674186509102
 31
0.0
  0
LINE
  5
35A
330
358
100
AcDbEntity
  8
0
 62
     0
370
    -2
100
AcDbLine
 10
285.6735466631391
 20
34.96624213153646
 30
0.0
 11
285.6735466631391
 21
33.76674186509102
 31
0.0
  0
LINE
  5
35B
330
358
100
AcDbEntity
  8
0
 62
     0
370
    -2
100
AcDbLine
 10
286.9935466631391
 20
33.94674186509103
 30
0.0
 11
286.8885466631392
 21
33.94674186509103
 31
0.0
  0
LINE
  5
35C
330
358
100
AcDbEntity
  8
0
 62
     0
370
    -2
100
AcDbLine
 10
285.8535466631392
 20
33.94674186509103
 30
0.0
 11
285.9585466631392
 21
33.94674186509103
 31
0.0
  0
SOLID
  5
35D
330
358
100
AcDbEntity
  8
0
 62
     0
100
AcDbTrace
 10
286.9935466631391
 20
33.97674186509103
 30
0.0
 11
286.9935466631391
 21
33.91674186509102
 31
0.0
 12
287.1735466631391
 22
33.94674186509103
 32
0.0
 13
287.1735466631391
 23
33.94674186509103
 33
0.0
  0
SOLID
  5
35E
330
358
100
AcDbEntity
  8
0
 62
     0
100
AcDbTrace
 10
285.8535466631392
 20
33.97674186509103
 30
0.0
 11
285.8535466631392
 21
33.91674186509102
 31
0.0
 12
285.6735466631391
 22
33.94674186509103
 32
0.0
 13
285.6735466631391
 23
33.94674186509103
 33
0.0
  0
MTEXT
  5
35F
330
358
100
AcDbEntity
  8
0
 62
     0
100
AcDbMText
 10
286.4235466631391
 20
33.94674186509103
 30
0.0
 40
0.18
 41
0.0
 71
     5
 72
     1
  1
\A1;1.5000
 73
     1
 44
1.0
  0
POINT
  5
360
330
358
100
AcDbEntity
  8
DEFPOINTS
 62
     0
100
AcDbPoint
 10
287.1735466631391
 20
35.02874213153646
 30
0.0
  0
POINT
  5
361
330
358
100
AcDbEntity
  8
DEFPOINTS
 62
     0
100
AcDbPoint
 10
285.6735466631391
 20
35.02874213153646
 30
0.0
  0
POINT
  5
362
330
358
100
AcDbEntity
  8
DEFPOINTS
 62
     0
100
AcDbPoint
 10
285.6735466631391
 20
33.94674186509103
 30
0.0
  0
ENDBLK
  5
364
330
358
100
AcDbEntity
  8
0
100
AcDbBlockEnd
  0
BLOCK
  5
371
330
366
100
AcDbEntity
  8
0
100
AcDbBlockBegin
  2
*D24
 70
     1
 10
0.0
 20
0.0
 30
0.0
  3
*D24
  1

  0
LINE
  5
3AE
330
366
100
AcDbEntity
  8
0
 62
     0
370
    -2
100
AcDbLine
 10
286.1735466631391
 20
34.96624213153646
 30
0.0
 11
286.1735466631391
 21
34.17085627323894
 31
0.0
  0
LINE
  5
3AF
330
366
100
AcDbEntity
  8
0
 62
     0
370
    -2
100
AcDbLine
 10
286.6735466631391
 20
34.96624213153646
 30
0.0
 11
286.6735466631391
 21
34.17085627323894
 31
0.0
  0
LINE
  5
3B0
330
366
100
AcDbEntity
  8
0
 62
     0
370
    -2
100
AcDbLine
 10
286.8535466631391
 20
34.35085627323894
 30
0.0
 11
287.0335466631392
 21
34.35085627323894
 31
0.0
  0
LINE
  5
3B1
330
366
100
AcDbEntity
  8
0
 62
     0
370
    -2
100
AcDbLine
 10
285.9935466631391
 20
34.35085627323894
 30
0.0
 11
285.5718956885901
 21
34.35085627323894
 31
0.0
  0
SOLID
  5
3B2
330
366
100
AcDbEntity
  8
0
 62
     0
100
AcDbTrace
 10
286.8535466631391
 20
34.38085627323895
 30
0.0
 11
286.8535466631391
 21
34.32085627323893
 31
0.0
 12
286.6735466631391
 22
34.35085627323894
 32
0.0
 13
286.6735466631391
 23
34.35085627323894
 33
0.0
  0
SOLID
  5
3B3
330
366
100
AcDbEntity
  8
0
 62
     0
100
AcDbTrace
 10
285.9935466631391
 20
34.38085627323895
 30
0.0
 11
285.9935466631391
 21
34.32085627323893
 31
0.0
 12
286.1735466631391
 22
34.35085627323894
 32
0.0
 13
286.1735466631391
 23
34.35085627323894
 33
0.0
  0
MTEXT
  5
3B4
330
366
100
AcDbEntity
  8
0
 62
     0
100
AcDbMText
 10
285.0918956885901
 20
34.35085627323894
 30
0.0
 40
0.18
 41
0.0
 71
     5
 72
     1
  1
\A1;0.5000
 73
     1
 44
1.0
  0
POINT
  5
3B5
330
366
100
AcDbEntity
  8
DEFPOINTS
 62
     0
100
AcDbPoint
 10
286.1735466631391
 20
35.02874213153646
 30
0.0
  0
POINT
  5
3B6
330
366
100
AcDbEntity
  8
DEFPOINTS
 62
     0
100
AcDbPoint
 10
286.6735466631391
 20
35.02874213153646
 30
0.0
  0
POINT
  5
3B7
330
366
100
AcDbEntity
  8
DEFPOINTS
 62
     0
100
AcDbPoint
 10
286.6735466631391
 20
34.35085627323894
 30
0.0
  0
ENDBLK
  5
372
330
366
100
AcDbEntity
  8
0
100
AcDbBlockEnd
  0
BLOCK
  5
39D
330
392
100
AcDbEntity
  8
0
100
AcDbBlockBegin
  2
*D25
 70
     1
 10
0.0
 20
0.0
 30
0.0
  3
*D25
  1

  0
LINE
  5
3DB
330
392
100
AcDbEntity
  8
0
 62
     0
370
    -2
100
AcDbLine
 10
286.4860466631391
 20
34.77874213153647
 30
0.0
 11
289.0663768802136
 21
34.77874213153647
 31
0.0
  0
LINE
  5
3DC
330
392
100
AcDbEntity
  8
0
 62
     0
370
    -2
100
AcDbLine
 10
286.4860466631391
 20
36.8287421315365
 30
0.0
 11
289.0663768802136
 21
36.8287421315365
 31
0.0
  0
LINE
  5
3DD
330
392
100
AcDbEntity
  8
0
 62
     0
370
    -2
100
AcDbLine
 10
288.8863768802136
 20
34.95874213153646
 30
0.0
 11
288.8863768802136
 21
36.14388544859289
 31
0.0
  0
LINE
  5
3DE
330
392
100
AcDbEntity
  8
0
 62
     0
370
    -2
100
AcDbLine
 10
288.8863768802136
 20
36.6487421315365
 30
0.0
 11
288.8863768802136
 21
36.50388544859289
 31
0.0
  0
SOLID
  5
3DF
330
392
100
AcDbEntity
  8
0
 62
     0
100
AcDbTrace
 10
288.8563768802137
 20
34.95874213153646
 30
0.0
 11
288.9163768802136
 21
34.95874213153646
 31
0.0
 12
288.8863768802136
 22
34.77874213153647
 32
0.0
 13
288.8863768802136
 23
34.77874213153647
 33
0.0
  0
SOLID
  5
3E0
330
392
100
AcDbEntity
  8
0
 62
     0
100
AcDbTrace
 10
288.8563768802137
 20
36.6487421315365
 30
0.0
 11
288.9163768802136
 21
36.6487421315365
 31
0.0
 12
288.8863768802136
 22
36.8287421315365
 32
0.0
 13
288.8863768802136
 23
36.8287421315365
 33
0.0
  0
MTEXT
  5
3E1
330
392
100
AcDbEntity
  8
0
 62
     0
100
AcDbMText
 10
288.8863768802136
 20
36.32388544859294
 30
0.0
 40
0.18
 41
0.0
 71
     5
 72
     1
  1
\A1;2.0500
 73
     1
 44
1.0
  0
POINT
  5
3E2
330
392
100
AcDbEntity
  8
DEFPOINTS
 62
     0
100
AcDbPoint
 10
286.4235466631391
 20
34.77874213153647
 30
0.0
  0
POINT
  5
3E3
330
392
100
AcDbEntity
  8
DEFPOINTS
 62
     0
100
AcDbPoint
 10
286.4235466631391
 20
36.8287421315365
 30
0.0
  0
POINT
  5
3E4
330
392
100
AcDbEntity
  8
DEFPOINTS
 62
     0
100
AcDbPoint
 10
288.8863768802136
 20
36.8287421315365
 30
0.0
  0
ENDBLK
  5
39E
330
392
100
AcDbEntity
  8
0
100
AcDbBlockEnd
  0
BLOCK
  5
3AC
330
3A0
100
AcDbEntity
  8
0
100
AcDbBlockBegin
  2
*D26
 70
     1
 10
0.0
 20
0.0
 30
0.0
  3
*D26
  1

  0
LINE
  5
3B8
330
3A0
100
AcDbEntity
  8
0
 62
     0
370
    -2
100
AcDbLine
 10
287.2360466631391
 20
35.02874213153646
 30
0.0
 11
288.5772436234751
 21
35.02874213153646
 31
0.0
  0
LINE
  5
3B9
330
3A0
100
AcDbEntity
  8
0
 62
     0
370
    -2
100
AcDbLine
 10
286.4860466631391
 20
34.77874213153647
 30
0.0
 11
288.5772436234751
 21
34.77874213153647
 31
0.0
  0
LINE
  5
3BA
330
3A0
100
AcDbEntity
  8
0
 62
     0
370
    -2
100
AcDbLine
 10
288.3972436234751
 20
35.20874213153646
 30
0.0
 11
288.3972436234751
 21
35.38874213153647
 31
0.0
  0
LINE
  5
3BB
330
3A0
100
AcDbEntity
  8
0
 62
     0
370
    -2
100
AcDbLine
 10
288.3972436234751
 20
34.59874213153646
 30
0.0
 11
288.3972436234751
 21
34.41874213153647
 31
0.0
  0
LINE
  5
3BC
330
3A0
100
AcDbEntity
  8
0
 62
     0
370
    -2
100
AcDbLine
 10
288.3972436234751
 20
34.41874213153647
 30
0.0
 11
288.2172436234751
 21
34.41874213153647
 31
0.0
  0
SOLID
  5
3BD
330
3A0
100
AcDbEntity
  8
0
 62
     0
100
AcDbTrace
 10
288.3672436234752
 20
35.20874213153646
 30
0.0
 11
288.4272436234751
 21
35.20874213153646
 31
0.0
 12
288.3972436234751
 22
35.02874213153646
 32
0.0
 13
288.3972436234751
 23
35.02874213153646
 33
0.0
  0
SOLID
  5
3BE
330
3A0
100
AcDbEntity
  8
0
 62
     0
100
AcDbTrace
 10
288.3672436234752
 20
34.59874213153646
 30
0.0
 11
288.4272436234751
 21
34.59874213153646
 31
0.0
 12
288.3972436234751
 22
34.77874213153647
 32
0.0
 13
288.3972436234751
 23
34.77874213153647
 33
0.0
  0
MTEXT
  5
3BF
330
3A0
100
AcDbEntity
  8
0
 62
     0
100
AcDbMText
 10
287.7222436234751
 20
34.41874213153651
 30
0.0
 40
0.18
 41
0.0
 71
     5
 72
     1
  1
\A1;0.2500
 73
     1
 44
1.0
  0
POINT
  5
3C0
330
3A0
100
AcDbEntity
  8
DEFPOINTS
 62
     0
100
AcDbPoint
 10
287.1735466631391
 20
35.02874213153646
 30
0.0
  0
POINT
  5
3C1
330
3A0
100
AcDbEntity
  8
DEFPOINTS
 62
     0
100
AcDbPoint
 10
286.4235466631391
 20
34.77874213153647
 30
0.0
  0
POINT
  5
3C2
330
3A0
100
AcDbEntity
  8
DEFPOINTS
 62
     0
100
AcDbPoint
 10
288.3972436234751
 20
34.77874213153647
 30
0.0
  0
ENDBLK
  5
3AD
330
3A0
100
AcDbEntity
  8
0
100
AcDbBlockEnd
  0
BLOCK
  5
3CF
330
3C4
100
AcDbEntity
  8
0
100
AcDbBlockBegin
  2
*D27
 70
     1
 10
0.0
 20
0.0
 30
0.0
  3
*D27
  1

  0
LINE
  5
3C5
330
3C4
100
AcDbEntity
  8
0
 62
     0
370
    -2
100
AcDbLine
 10
287.2360466631391
 20
35.02874213153646
 30
0.0
 11
288.5772436234751
 21
35.02874213153646
 31
0.0
  0
LINE
  5
3C6
330
3C4
100
AcDbEntity
  8
0
 62
     0
370
    -2
100
AcDbLine
 10
287.2360466631391
 20
36.02874213153647
 30
0.0
 11
288.5772436234751
 21
36.02874213153647
 31
0.0
  0
LINE
  5
3C7
330
3C4
100
AcDbEntity
  8
0
 62
     0
370
    -2
100
AcDbLine
 10
288.3972436234751
 20
35.20874213153646
 30
0.0
 11
288.3972436234751
 21
35.34874213153647
 31
0.0
  0
LINE
  5
3C8
330
3C4
100
AcDbEntity
  8
0
 62
     0
370
    -2
100
AcDbLine
 10
288.3972436234751
 20
35.84874213153646
 30
0.0
 11
288.3972436234751
 21
35.70874213153647
 31
0.0
  0
SOLID
  5
3C9
330
3C4
100
AcDbEntity
  8
0
 62
     0
100
AcDbTrace
 10
288.3672436234752
 20
35.20874213153646
 30
0.0
 11
288.4272436234751
 21
35.20874213153646
 31
0.0
 12
288.3972436234751
 22
35.02874213153646
 32
0.0
 13
288.3972436234751
 23
35.02874213153646
 33
0.0
  0
SOLID
  5
3CA
330
3C4
100
AcDbEntity
  8
0
 62
     0
100
AcDbTrace
 10
288.3672436234752
 20
35.84874213153646
 30
0.0
 11
288.4272436234751
 21
35.84874213153646
 31
0.0
 12
288.3972436234751
 22
36.02874213153647
 32
0.0
 13
288.3972436234751
 23
36.02874213153647
 33
0.0
  0
MTEXT
  5
3CB
330
3C4
100
AcDbEntity
  8
0
 62
     0
100
AcDbMText
 10
288.3972436234751
 20
35.52874213153652
 30
0.0
 40
0.18
 41
0.0
 71
     5
 72
     1
  1
\A1;1.0000
 73
     1
 44
1.0
  0
POINT
  5
3CC
330
3C4
100
AcDbEntity
  8
DEFPOINTS
 62
     0
100
AcDbPoint
 10
287.1735466631391
 20
35.02874213153646
 30
0.0
  0
POINT
  5
3CD
330
3C4
100
AcDbEntity
  8
DEFPOINTS
 62
     0
100
AcDbPoint
 10
287.1735466631391
 20
36.02874213153647
 30
0.0
  0
POINT
  5
3CE
330
3C4
100
AcDbEntity
  8
DEFPOINTS
 62
     0
100
AcDbPoint
 10
288.3972436234751
 20
36.02874213153647
 30
0.0
  0
ENDBLK
  5
3D0
330
3C4
100
AcDbEntity
  8
0
100
AcDbBlockEnd
  0
BLOCK
  5
403
330
3F8
100
AcDbEntity
  8
0
100
AcDbBlockBegin
  2
*D28
 70
     1
 10
0.0
 20
0.0
 30
0.0
  3
*D28
  1

  0
LINE
  5
3F9
330
3F8
100
AcDbEntity
  8
0
 62
     0
370
    -2
100
AcDbLine
 10
286.2244723510201
 20
37.72051328032699
 30
0.0
 11
290.1942483240972
 21
37.72051328032699
 31
0.0
  0
LINE
  5
3FA
330
3F8
100
AcDbEntity
  8
0
 62
     0
370
    -2
100
AcDbLine
 10
286.2244723510201
 20
33.97051328032698
 30
0.0
 11
290.1942483240972
 21
33.97051328032698
 31
0.0
  0
LINE
  5
3FB
330
3F8
100
AcDbEntity
  8
0
 62
     0
370
    -2
100
AcDbLine
 10
290.0142483240973
 20
37.54051328032699
 30
0.0
 11
290.0142483240973
 21
36.02551328032699
 31
0.0
  0
LINE
  5
3FC
330
3F8
100
AcDbEntity
  8
0
 62
     0
370
    -2
100
AcDbLine
 10
290.0142483240973
 20
34.15051328032698
 30
0.0
 11
290.0142483240973
 21
35.66551328032699
 31
0.0
  0
SOLID
  5
3FD
330
3F8
100
AcDbEntity
  8
0
 62
     0
100
AcDbTrace
 10
289.9842483240973
 20
37.54051328032699
 30
0.0
 11
290.0442483240971
 21
37.54051328032699
 31
0.0
 12
290.0142483240973
 22
37.72051328032699
 32
0.0
 13
290.0142483240973
 23
37.72051328032699
 33
0.0
  0
SOLID
  5
3FE
330
3F8
100
AcDbEntity
  8
0
 62
     0
100
AcDbTrace
 10
289.9842483240973
 20
34.15051328032698
 30
0.0
 11
290.0442483240971
 21
34.15051328032698
 31
0.0
 12
290.0142483240973
 22
33.97051328032698
 32
0.0
 13
290.0142483240973
 23
33.97051328032698
 33
0.0
  0
MTEXT
  5
3FF
330
3F8
100
AcDbEntity
  8
0
 62
     0
100
AcDbMText
 10
290.0142483240973
 20
35.84551328032704
 30
0.0
 40
0.18
 41
0.0
 71
     5
 72
     1
  1
\A1;3.7500
 73
     1
 44
1.0
  0
POINT
  5
400
330
3F8
100
AcDbEntity
  8
DEFPOINTS
 62
     0
100
AcDbPoint
 10
286.1619723510202
 20
37.72051328032699
 30
0.0
  0
POINT
  5
401
330
3F8
100
AcDbEntity
  8
DEFPOINTS
 62
     0
100
AcDbPoint
 10
286.1619723510202
 20
33.97051328032698
 30
0.0
  0
POINT
  5
402
330
3F8
100
AcDbEntity
  8
DEFPOINTS
 62
     0
100
AcDbPoint
 10
290.0142483240973
 20
33.97051328032698
 30
0.0
  0
ENDBLK
  5
404
330
3F8
100
AcDbEntity
  8
0
100
AcDbBlockEnd
  0
BLOCK
  5
412
330
406
100
AcDbEntity
  8
0
100
AcDbBlockBegin
  2
*D29
 70
     1
 10
0.0
 20
0.0
 30
0.0
  3
*D29
  1

  0
LINE
  5
407
330
406
100
AcDbEntity
  8
0
 62
     0
370
    -2
100
AcDbLine
 10
287.8744723510201
 20
34.27051328032698
 30
0.0
 11
289.4333049184056
 21
34.27051328032698
 31
0.0
  0
LINE
  5
408
330
406
100
AcDbEntity
  8
0
 62
     0
370
    -2
100
AcDbLine
 10
286.2244723510201
 20
33.97051328032698
 30
0.0
 11
289.4333049184056
 21
33.97051328032698
 31
0.0
  0
LINE
  5
409
330
406
100
AcDbEntity
  8
0
 62
     0
370
    -2
100
AcDbLine
 10
289.2533049184056
 20
34.45051328032699
 30
0.0
 11
289.2533049184056
 21
34.63051328032697
 31
0.0
  0
LINE
  5
40A
330
406
100
AcDbEntity
  8
0
 62
     0
370
    -2
100
AcDbLine
 10
289.2533049184056
 20
33.79051328032698
 30
0.0
 11
289.2533049184056
 21
33.61051328032698
 31
0.0
  0
LINE
  5
40B
330
406
100
AcDbEntity
  8
0
 62
     0
370
    -2
100
AcDbLine
 10
289.2533049184056
 20
33.61051328032698
 30
0.0
 11
289.0733049184057
 21
33.61051328032698
 31
0.0
  0
SOLID
  5
40C
330
406
100
AcDbEntity
  8
0
 62
     0
100
AcDbTrace
 10
289.2233049184058
 20
34.45051328032699
 30
0.0
 11
289.2833049184056
 21
34.45051328032699
 31
0.0
 12
289.2533049184056
 22
34.27051328032698
 32
0.0
 13
289.2533049184056
 23
34.27051328032698
 33
0.0
  0
SOLID
  5
40D
330
406
100
AcDbEntity
  8
0
 62
     0
100
AcDbTrace
 10
289.2233049184058
 20
33.79051328032698
 30
0.0
 11
289.2833049184056
 21
33.79051328032698
 31
0.0
 12
289.2533049184056
 22
33.97051328032698
 32
0.0
 13
289.2533049184056
 23
33.97051328032698
 33
0.0
  0
MTEXT
  5
40E
330
406
100
AcDbEntity
  8
0
 62
     0
100
AcDbMText
 10
288.5933049184056
 20
33.61051328032703
 30
0.0
 40
0.18
 41
0.0
 71
     5
 72
     1
  1
\A1;0.3000
 73
     1
 44
1.0
  0
POINT
  5
40F
330
406
100
AcDbEntity
  8
DEFPOINTS
 62
     0
100
AcDbPoint
 10
287.8119723510201
 20
34.27051328032698
 30
0.0
  0
POINT
  5
410
330
406
100
AcDbEntity
  8
DEFPOINTS
 62
     0
100
AcDbPoint
 10
286.1619723510202
 20
33.97051328032698
 30
0.0
  0
POINT
  5
411
330
406
100
AcDbEntity
  8
DEFPOINTS
 62
     0
100
AcDbPoint
 10
289.2533049184056
 20
33.97051328032698
 30
0.0
  0
ENDBLK
  5
413
330
406
100
AcDbEntity
  8
0
100
AcDbBlockEnd
  0
BLOCK
  5
420
330
415
100
AcDbEntity
  8
0
100
AcDbBlockBegin
  2
*D30
 70
     1
 10
0.0
 20
0.0
 30
0.0
  3
*D30
  1

  0
LINE
  5
422
330
415
100
AcDbEntity
  8
0
 62
     0
370
    -2
100
AcDbLine
 10
287.8744723510201
 20
34.27051328032698
 30
0.0
 11
289.4333049184056
 21
34.27051328032698
 31
0.0
  0
LINE
  5
423
330
415
100
AcDbEntity
  8
0
 62
     0
370
    -2
100
AcDbLine
 10
287.8744723510201
 20
36.07051328032698
 30
0.0
 11
289.4333049184056
 21
36.07051328032698
 31
0.0
  0
LINE
  5
424
330
415
100
AcDbEntity
  8
0
 62
     0
370
    -2
100
AcDbLine
 10
289.2533049184056
 20
34.45051328032699
 30
0.0
 11
289.2533049184056
 21
34.99051328032698
 31
0.0
  0
LINE
  5
425
330
415
100
AcDbEntity
  8
0
 62
     0
370
    -2
100
AcDbLine
 10
289.2533049184056
 20
35.89051328032697
 30
0.0
 11
289.2533049184056
 21
35.35051328032698
 31
0.0
  0
SOLID
  5
426
330
415
100
AcDbEntity
  8
0
 62
     0
100
AcDbTrace
 10
289.2233049184058
 20
34.45051328032699
 30
0.0
 11
289.2833049184056
 21
34.45051328032699
 31
0.0
 12
289.2533049184056
 22
34.27051328032698
 32
0.0
 13
289.2533049184056
 23
34.27051328032698
 33
0.0
  0
SOLID
  5
427
330
415
100
AcDbEntity
  8
0
 62
     0
100
AcDbTrace
 10
289.2233049184058
 20
35.89051328032697
 30
0.0
 11
289.2833049184056
 21
35.89051328032697
 31
0.0
 12
289.2533049184056
 22
36.07051328032698
 32
0.0
 13
289.2533049184056
 23
36.07051328032698
 33
0.0
  0
MTEXT
  5
428
330
415
100
AcDbEntity
  8
0
 62
     0
100
AcDbMText
 10
289.2533049184056
 20
35.17051328032703
 30
0.0
 40
0.18
 41
0.0
 71
     5
 72
     1
  1
\A1;1.8000
 73
     1
 44
1.0
  0
POINT
  5
429
330
415
100
AcDbEntity
  8
DEFPOINTS
 62
     0
100
AcDbPoint
 10
287.8119723510201
 20
34.27051328032698
 30
0.0
  0
POINT
  5
42A
330
415
100
AcDbEntity
  8
DEFPOINTS
 62
     0
100
AcDbPoint
 10
287.8119723510201
 20
36.07051328032698
 30
0.0
  0
POINT
  5
42B
330
415
100
AcDbEntity
  8
DEFPOINTS
 62
     0
100
AcDbPoint
 10
289.2533049184056
 20
36.07051328032698
 30
0.0
  0
ENDBLK
  5
421
330
415
100
AcDbEntity
  8
0
100
AcDbBlockEnd
  0
BLOCK
  5
438
330
42D
100
AcDbEntity
  8
0
100
AcDbBlockBegin
  2
*D31
 70
     1
 10
0.0
 20
0.0
 30
0.0
  3
*D31
  1

  0
LINE
  5
42E
330
42D
100
AcDbEntity
  8
0
 62
     0
370
    -2
100
AcDbLine
 10
287.8119723510201
 20
34.20801328032698
 30
0.0
 11
287.8119723510201
 21
32.62571292126883
 31
0.0
  0
LINE
  5
42F
330
42D
100
AcDbEntity
  8
0
 62
     0
370
    -2
100
AcDbLine
 10
284.5119723510201
 20
34.20801328032698
 30
0.0
 11
284.5119723510201
 21
32.62571292126883
 31
0.0
  0
LINE
  5
430
330
42D
100
AcDbEntity
  8
0
 62
     0
370
    -2
100
AcDbLine
 10
287.6319723510201
 20
32.80571292126882
 30
0.0
 11
286.6569723510202
 21
32.80571292126882
 31
0.0
  0
LINE
  5
431
330
42D
100
AcDbEntity
  8
0
 62
     0
370
    -2
100
AcDbLine
 10
284.6919723510201
 20
32.80571292126882
 30
0.0
 11
285.6669723510202
 21
32.80571292126882
 31
0.0
  0
SOLID
  5
432
330
42D
100
AcDbEntity
  8
0
 62
     0
100
AcDbTrace
 10
287.6319723510201
 20
32.83571292126882
 30
0.0
 11
287.6319723510201
 21
32.77571292126882
 31
0.0
 12
287.8119723510201
 22
32.80571292126882
 32
0.0
 13
287.8119723510201
 23
32.80571292126882
 33
0.0
  0
SOLID
  5
433
330
42D
100
AcDbEntity
  8
0
 62
     0
100
AcDbTrace
 10
284.6919723510201
 20
32.83571292126882
 30
0.0
 11
284.6919723510201
 21
32.77571292126882
 31
0.0
 12
284.5119723510201
 22
32.80571292126882
 32
0.0
 13
284.5119723510201
 23
32.80571292126882
 33
0.0
  0
MTEXT
  5
434
330
42D
100
AcDbEntity
  8
0
 62
     0
100
AcDbMText
 10
286.1619723510202
 20
32.80571292126882
 30
0.0
 40
0.18
 41
0.0
 71
     5
 72
     1
  1
\A1;3.3000
 73
     1
 44
1.0
  0
POINT
  5
435
330
42D
100
AcDbEntity
  8
DEFPOINTS
 62
     0
100
AcDbPoint
 10
287.8119723510201
 20
34.27051328032698
 30
0.0
  0
POINT
  5
436
330
42D
100
AcDbEntity
  8
DEFPOINTS
 62
     0
100
AcDbPoint
 10
284.5119723510201
 20
34.27051328032698
 30
0.0
  0
POINT
  5
437
330
42D
100
AcDbEntity
  8
DEFPOINTS
 62
     0
100
AcDbPoint
 10
284.5119723510201
 20
32.80571292126882
 30
0.0
  0
ENDBLK
  5
439
330
42D
100
AcDbEntity
  8
0
100
AcDbBlockEnd
  0
BLOCK
  5
446
330
43B
100
AcDbEntity
  8
0
100
AcDbBlockBegin
  2
*D32
 70
     1
 10
0.0
 20
0.0
 30
0.0
  3
*D32
  1

  0
LINE
  5
43C
330
43B
100
AcDbEntity
  8
0
 62
     0
370
    -2
100
AcDbLine
 10
286.6619723510202
 20
34.20801328032698
 30
0.0
 11
286.6619723510202
 21
33.24377027602233
 31
0.0
  0
LINE
  5
43D
330
43B
100
AcDbEntity
  8
0
 62
     0
370
    -2
100
AcDbLine
 10
285.6619723510202
 20
34.20801328032698
 30
0.0
 11
285.6619723510202
 21
33.24377027602233
 31
0.0
  0
LINE
  5
43E
330
43B
100
AcDbEntity
  8
0
 62
     0
370
    -2
100
AcDbLine
 10
286.8419723510202
 20
33.42377027602233
 30
0.0
 11
287.0219723510203
 21
33.42377027602233
 31
0.0
  0
LINE
  5
43F
330
43B
100
AcDbEntity
  8
0
 62
     0
370
    -2
100
AcDbLine
 10
285.4819723510201
 20
33.42377027602233
 30
0.0
 11
285.3019723510202
 21
33.42377027602233
 31
0.0
  0
SOLID
  5
440
330
43B
100
AcDbEntity
  8
0
 62
     0
100
AcDbTrace
 10
286.8419723510202
 20
33.45377027602233
 30
0.0
 11
286.8419723510202
 21
33.39377027602233
 31
0.0
 12
286.6619723510202
 22
33.42377027602233
 32
0.0
 13
286.6619723510202
 23
33.42377027602233
 33
0.0
  0
SOLID
  5
441
330
43B
100
AcDbEntity
  8
0
 62
     0
100
AcDbTrace
 10
285.4819723510201
 20
33.45377027602233
 30
0.0
 11
285.4819723510201
 21
33.39377027602233
 31
0.0
 12
285.6619723510202
 22
33.42377027602233
 32
0.0
 13
285.6619723510202
 23
33.42377027602233
 33
0.0
  0
MTEXT
  5
442
330
43B
100
AcDbEntity
  8
0
 62
     0
100
AcDbMText
 10
286.1619723510202
 20
33.42377027602233
 30
0.0
 40
0.18
 41
0.0
 71
     5
 72
     1
  1
\A1;1.0000
 73
     1
 44
1.0
  0
POINT
  5
443
330
43B
100
AcDbEntity
  8
DEFPOINTS
 62
     0
100
AcDbPoint
 10
286.6619723510202
 20
34.27051328032698
 30
0.0
  0
POINT
  5
444
330
43B
100
AcDbEntity
  8
DEFPOINTS
 62
     0
100
AcDbPoint
 10
285.6619723510202
 20
34.27051328032698
 30
0.0
  0
POINT
  5
445
330
43B
100
AcDbEntity
  8
DEFPOINTS
 62
     0
100
AcDbPoint
 10
285.6619723510202
 20
33.42377027602233
 30
0.0
  0
ENDBLK
  5
447
330
43B
100
AcDbEntity
  8
0
100
AcDbBlockEnd
  0
ENDSEC
  0
SECTION
  2
ENTITIES
  0
TEXT
  5
2C
330
1E
100
AcDbEntity
  8
0
  6
Continuous
100
AcDbText
 10
287.2805487186718
 20
41.39364127471099
 30
0.0
 40
0.1
  1
2
  7
ROMANC
100
AcDbText
  0
TEXT
  5
2D
330
1E
100
AcDbEntity
  8
0
  6
Continuous
100
AcDbText
 10
283.9259999999999
 20
41.768
 30
0.0
 40
0.3
  1
ESCALA  1:50
  7
ROMANC
100
AcDbText
  0
LWPOLYLINE
  5
2E
330
1E
100
AcDbEntity
  8
0
  6
Continuous
100
AcDbPolyline
 90
        4
 70
     1
 43
0.0
 10
281.3959999999998
 20
44.747
 10
291.8959999999998
 20
44.747
 10
291.8959999999998
 20
29.897
 10
281.3959999999998
 20
29.897
  0
TEXT
  5
34
330
1E
100
AcDbEntity
  8
0
  6
Continuous
100
AcDbText
 10
283.9259999999999
 20
42.381
 30
0.0
 40
0.3
  1
TIPUS   NT1043
  7
ROMANC
100
AcDbText
  0
TEXT
  5
3C
330
1E
100
AcDbEntity
  8
0
  6
Continuous
100
AcDbText
 10
283.9449999999999
 20
41.09899999999997
 30
0.0
 40
0.3
  1
S = 1043 dm
  7
ROMANC
100
AcDbText
  0
TEXT
  5
3D
330
1E
100
AcDbEntity
  8
0
  6
Continuous
100
AcDbText
 10
283.922
 20
40.529
 30
0.0
 40
0.3
  1
P = 123 dm
  7
ROMANC
100
AcDbText
  0
LWPOLYLINE
  5
3F5
330
1E
100
AcDbEntity
  8
0
100
AcDbPolyline
 90
        6
 70
     1
 43
0.0
 10
285.6619723510202
 20
34.27051328032698
 42
0.6000000000000087
 10
286.6619723510202
 20
34.27051328032698
 10
287.8119723510201
 20
34.27051328032698
 10
287.8119723510201
 20
36.07051328032698
 42
1.000000000000017
 10
284.5119723510201
 20
36.07051328032698
 10
284.5119723510201
 20
34.27051328032698
  0
DIMENSION
  5
3F7
330
1E
100
AcDbEntity
  8
0
100
AcDbDimension
  2
*D28
 10
290.0142483240973
 20
33.97051328032698
 30
0.0
 11
290.0142483240973
 21
35.84551328032704
 31
0.0
 70
    32
 71
     5
 42
3.750000000000006
  3
STANDARD
100
AcDbAlignedDimension
 13
286.1619723510202
 23
37.72051328032699
 33
0.0
 14
286.1619723510202
 24
33.97051328032698
 34
0.0
 50
90.0
100
AcDbRotatedDimension
  0
DIMENSION
  5
405
330
1E
100
AcDbEntity
  8
0
100
AcDbDimension
  2
*D29
 10
289.2533049184056
 20
33.97051328032698
 30
0.0
 11
288.5933049184056
 21
33.61051328032703
 31
0.0
 70
    32
 71
     5
 42
0.3000000000000043
  3
STANDARD
100
AcDbAlignedDimension
 13
287.8119723510201
 23
34.27051328032698
 33
0.0
 14
286.1619723510202
 24
33.97051328032698
 34
0.0
 50
90.0
100
AcDbRotatedDimension
  0
DIMENSION
  5
414
330
1E
100
AcDbEntity
  8
0
100
AcDbDimension
  2
*D30
 10
289.2533049184056
 20
36.07051328032698
 30
0.0
 11
289.2533049184056
 21
35.17051328032703
 31
0.0
 70
    32
 71
     5
 42
1.799999999999996
  3
STANDARD
100
AcDbAlignedDimension
 13
287.8119723510201
 23
34.27051328032698
 33
0.0
 14
287.8119723510201
 24
36.07051328032698
 34
0.0
 50
90.0
100
AcDbRotatedDimension
  0
DIMENSION
  5
42C
330
1E
100
AcDbEntity
  8
0
100
AcDbDimension
  2
*D31
 10
284.5119723510201
 20
32.80571292126882
 30
0.0
 11
286.1619723510202
 21
32.80571292126882
 31
0.0
 70
    32
 71
     5
 42
3.299999999999953
  3
STANDARD
100
AcDbAlignedDimension
 13
287.8119723510201
 23
34.27051328032698
 33
0.0
 14
284.5119723510201
 24
34.27051328032698
 34
0.0
100
AcDbRotatedDimension
  0
DIMENSION
  5
43A
330
1E
100
AcDbEntity
  8
0
100
AcDbDimension
  2
*D32
 10
285.6619723510202
 20
33.42377027602233
 30
0.0
 11
286.1619723510202
 21
33.42377027602233
 31
0.0
 70
    32
 71
     5
 42
-1.0
  3
STANDARD
100
AcDbAlignedDimension
 13
286.6619723510202
 23
34.27051328032698
 33
0.0
 14
285.6619723510202
 24
34.27051328032698
 34
0.0
100
AcDbRotatedDimension
  0
LWPOLYLINE
  5
448
330
1E
100
AcDbEntity
  8
0
100
AcDbPolyline
 90
        6
 70
     1
 43
0.0
 10
285.6560079253931
 20
34.260513280327
 42
0.5929270612816177
 10
286.6679367766471
 20
34.26051328032698
 10
287.8219723510202
 20
34.26051328032698
 10
287.8219723510202
 20
36.07051328032698
 42
1.0
 10
284.5019723510203
 20
36.07051328032704
 10
284.5019723510203
 20
34.26051328032698
  0
LWPOLYLINE
  5
449
330
1E
100
AcDbEntity
  8
0
100
AcDbPolyline
 90
        6
 70
     1
 43
0.0
 10
285.6680087896111
 20
34.28051328032697
 42
0.6073322476342148
 10
286.6559359124294
 20
34.28051328032697
 10
287.8019723510202
 20
34.28051328032697
 10
287.8019723510202
 20
36.07051328032698
 42
1.0
 10
284.5219723510203
 20
36.07051328032704
 10
284.5219723510203
 20
34.28051328032697
  0
VIEWPORT
  5
1D9
330
1A
100
AcDbEntity
 67
     1
  8
0
100
AcDbViewport
 10
99.980751991272
 20
143.3935842514038
 30
0.0
 40
440.9297543499659
 41
314.2372683715819
 68
     1
 69
     1
 12
99.980751991272
 22
143.3935842514038
 13
0.0
 23
0.0
 14
10.0
 24
10.0
 15
10.0
 25
10.0
 16
0.0
 26
0.0
 36
1.0
 17
0.0
 27
0.0
 37
0.0
 42
50.0
 43
0.0
 44
0.0
 45
314.2372683715819
 50
0.0
 51
0.0
 72
   100
 90
    32800
  1

281
     0
 71
     1
 74
     0
110
0.0
120
0.0
130
0.0
111
1.0
121
0.0
131
0.0
112
0.0
122
1.0
132
0.0
 79
     0
146
0.0
  0
VIEWPORT
  5
1DB
330
1A
100
AcDbEntity
 67
     1
  8
0
100
AcDbViewport
 10
99.980751991272
 20
143.3935842514036
 30
0.0
 40
199.2902839821538
 41
285.8513345476648
 68
     2
 69
     2
 12
286.6488322780006
 22
37.31916769001135
 13
0.0
 23
0.0
 14
1.0
 24
1.0
 15
0.0
 25
0.0
 16
0.0
 26
0.0
 36
1.0
 17
0.0
 27
0.0
 37
0.0
 42
50.0
 43
0.0
 44
0.0
 45
15.39450171875231
 50
0.0
 51
0.0
 72
   100
 90
    32800
  1

281
     0
 71
     1
 74
     0
110
0.0
120
0.0
130
0.0
111
1.0
121
0.0
131
0.0
112
0.0
122
1.0
132
0.0
 79
     0
146
0.0
  0
ENDSEC
  0
SECTION
  2
OBJECTS
  0
DICTIONARY
  5
C
330
0
100
AcDbDictionary
281
     1
  3
ACAD_GROUP
350
D
  3
ACAD_LAYOUT
350
19
  3
ACAD_MLINESTYLE
350
16
  3
ACAD_PLOTSETTINGS
350
18
  3
ACAD_PLOTSTYLENAME
350
E
  0
DICTIONARY
  5
1AC
330
1E
100
AcDbDictionary
280
     1
281
     1
  3
ACAD_LAYOUTSELFREF
360
1FE
  0
DICTIONARY
  5
1AA
330
1A
100
AcDbDictionary
280
     1
281
     1
  3
ACAD_LAYOUTSELFREF
360
1FD
  0
DICTIONARY
  5
D
102
{ACAD_REACTORS
330
C
102
}
330
C
100
AcDbDictionary
281
     1
  0
DICTIONARY
  5
19
102
{ACAD_REACTORS
330
C
102
}
330
C
100
AcDbDictionary
281
     1
  3
Model
350
205
  3
Presentación1
350
206
  0
DICTIONARY
  5
16
102
{ACAD_REACTORS
330
C
102
}
330
C
100
AcDbDictionary
281
     1
  3
STANDARD
350
17
  0
DICTIONARY
  5
18
102
{ACAD_REACTORS
330
C
102
}
330
C
100
AcDbDictionary
281
     1
  0
ACDBDICTIONARYWDFLT
  5
E
102
{ACAD_REACTORS
330
C
102
}
330
C
100
AcDbDictionary
281
     1
  3
Normal
350
F
100
AcDbDictionaryWithDefault
340
F
  0
XRECORD
  5
1FE
102
{ACAD_REACTORS
330
1AC
102
}
330
1AC
100
AcDbXrecord
280
     1
340
1E
  0
XRECORD
  5
1FD
102
{ACAD_REACTORS
330
1AA
102
}
330
1AA
100
AcDbXrecord
280
     1
340
1A
  0
LAYOUT
  5
205
102
{ACAD_REACTORS
330
19
102
}
330
19
100
AcDbPlotSettings
  1

  2
HP DesignJet 750C/PS FILE
  4

  6

 40
0.0
 41
0.0
 42
0.0
 43
0.0
 44
0.0
 45
0.0
 46
0.0
 47
0.0
 48
0.0
 49
0.0
140
0.0
141
0.0
142
1.0
143
1.0
 70
 11952
 72
     0
 73
     1
 74
     0
  7

 75
     0
147
1.0
148
-7192.474718523945
149
-757.4889017949957
100
AcDbLayout
  1
Model
 70
     1
 71
     0
 10
0.0
 20
0.0
 11
12.0
 21
9.0
 12
0.0
 22
0.0
 32
0.0
 14
0.0
 24
0.0
 34
0.0
 15
0.0
 25
0.0
 35
0.0
146
0.0
 13
0.0
 23
0.0
 33
0.0
 16
1.0
 26
0.0
 36
0.0
 17
0.0
 27
1.0
 37
0.0
 76
     0
330
1E
  0
LAYOUT
  5
206
102
{ACAD_REACTORS
330
19
102
}
330
19
100
AcDbPlotSettings
  1

  2
HP DesignJet 750C/PS FILE
  4

  6

 40
0.0
 41
0.0
 42
0.0
 43
0.0
 44
0.0
 45
0.0
 46
0.0
 47
0.0
 48
0.0
 49
0.0
140
0.0
141
0.0
142
1.0
143
1.0
 70
   688
 72
     0
 73
     0
 74
     5
  7

 75
    16
147
1.0
148
0.0
149
0.0
100
AcDbLayout
  1
Presentación1
 70
     1
 71
     1
 10
-5.027083396911621
 20
-5.111741065979003
 11
204.9885873794554
 21
291.8989095687866
 12
0.0
 22
0.0
 32
0.0
 14
0.3356100001950608
 24
0.467916977571349
 34
0.0
 15
199.6258939823488
 25
286.3192515252361
 35
0.0
146
0.0
 13
0.0
 23
0.0
 33
0.0
 16
1.0
 26
0.0
 36
0.0
 17
0.0
 27
1.0
 37
0.0
 76
     0
330
1A
331
1D9
  0
MLINESTYLE
  5
17
102
{ACAD_REACTORS
330
16
102
}
330
16
100
AcDbMlineStyle
  2
STANDARD
 70
     0
  3

 62
   256
 51
90.0
 52
90.0
 71
     2
 49
0.5
 62
   256
  6
BYLAYER
 49
-0.5
 62
   256
  6
BYLAYER
  0
ACDBPLACEHOLDER
  5
F
102
{ACAD_REACTORS
330
E
102
}
330
E
  0
ENDSEC
  0
EOF
