  0
SECTION
  2
HEADER
  9
$ACADVER
  1
AC1018
  9
$ACADMAINTVER
 70
   104
  9
$DWGCODEPAGE
  3
ANSI_1252
  9
$LASTSAVEDBY
  1
Victor
  9
$INSBASE
 10
0.0
 20
0.0
 30
0.0
  9
$EXTMIN
 10
318.8195814271685
 20
29.85589672235756
 30
-0.0000000349181948
  9
$EXTMAX
 10
329.3618783137783
 20
44.72039834703366
 30
0.0000000814935747
  9
$LIMMIN
 10
0.0
 20
0.0
  9
$LIMMAX
 10
420.0
 20
297.0
  9
$ORTHOMODE
 70
     1
  9
$REGENMODE
 70
     1
  9
$FILLMODE
 70
     1
  9
$QTEXTMODE
 70
     0
  9
$MIRRTEXT
 70
     0
  9
$LTSCALE
 40
1.0
  9
$ATTMODE
 70
     1
  9
$TEXTSIZE
 40
2.5
  9
$TRACEWID
 40
1.0
  9
$TEXTSTYLE
  7
Arial 1.5-3mm
  9
$CLAYER
  8
0
  9
$CELTYPE
  6
ByLayer
  9
$CECOLOR
 62
   256
  9
$CELTSCALE
 40
1.0
  9
$DISPSILH
 70
     0
  9
$DIMSCALE
 40
0.3
  9
$DIMASZ
 40
1.5
  9
$DIMEXO
 40
1.0
  9
$DIMDLI
 40
1.0
  9
$DIMRND
 40
0.0
  9
$DIMDLE
 40
1.0
  9
$DIMEXE
 40
2.0
  9
$DIMTP
 40
0.0
  9
$DIMTM
 40
0.0
  9
$DIMTXT
 40
3.0
  9
$DIMCEN
 40
0.5
  9
$DIMTSZ
 40
0.0
  9
$DIMTOL
 70
     0
  9
$DIMLIM
 70
     0
  9
$DIMTIH
 70
     0
  9
$DIMTOH
 70
     0
  9
$DIMSE1
 70
     0
  9
$DIMSE2
 70
     0
  9
$DIMTAD
 70
     0
  9
$DIMZIN
 70
     0
  9
$DIMBLK
  1
ArchTick
  9
$DIMASO
 70
     1
  9
$DIMSHO
 70
     1
  9
$DIMPOST
  1

  9
$DIMAPOST
  1

  9
$DIMALT
 70
     0
  9
$DIMALTD
 70
     2
  9
$DIMALTF
 40
25.4
  9
$DIMLFAC
 40
1.0
  9
$DIMTOFL
 70
     0
  9
$DIMTVP
 40
0.0
  9
$DIMTIX
 70
     0
  9
$DIMSOXD
 70
     0
  9
$DIMSAH
 70
     0
  9
$DIMBLK1
  1

  9
$DIMBLK2
  1

  9
$DIMSTYLE
  2
Cota Anotativa (A3)
  9
$DIMCLRD
 70
     0
  9
$DIMCLRE
 70
     0
  9
$DIMCLRT
 70
   256
  9
$DIMTFAC
 40
1.0
  9
$DIMGAP
 40
1.5
  9
$DIMJUST
 70
     0
  9
$DIMSD1
 70
     0
  9
$DIMSD2
 70
     0
  9
$DIMTOLJ
 70
     1
  9
$DIMTZIN
 70
     0
  9
$DIMALTZ
 70
     0
  9
$DIMALTTZ
 70
     0
  9
$DIMUPT
 70
     0
  9
$DIMDEC
 70
     2
  9
$DIMTDEC
 70
     2
  9
$DIMALTU
 70
     2
  9
$DIMALTTD
 70
     2
  9
$DIMTXSTY
  7
ROMANS
  9
$DIMAUNIT
 70
     0
  9
$DIMADEC
 70
     2
  9
$DIMALTRND
 40
0.0
  9
$DIMAZIN
 70
     0
  9
$DIMDSEP
 70
    46
  9
$DIMATFIT
 70
     3
  9
$DIMFRAC
 70
     0
  9
$DIMLDRBLK
  1

  9
$DIMLUNIT
 70
     2
  9
$DIMLWD
 70
    -1
  9
$DIMLWE
 70
    -1
  9
$DIMTMOVE
 70
     2
  9
$LUNITS
 70
     2
  9
$LUPREC
 70
     2
  9
$SKETCHINC
 40
1.0
  9
$FILLETRAD
 40
0.0
  9
$AUNITS
 70
     0
  9
$AUPREC
 70
     2
  9
$MENU
  1
.
  9
$ELEVATION
 40
0.0
  9
$PELEVATION
 40
0.0
  9
$THICKNESS
 40
0.0
  9
$LIMCHECK
 70
     0
  9
$CHAMFERA
 40
0.0
  9
$CHAMFERB
 40
0.0
  9
$CHAMFERC
 40
0.0
  9
$CHAMFERD
 40
0.0
  9
$SKPOLY
 70
     0
  9
$TDCREATE
 40
2454767.672133276
  9
$TDUCREATE
 40
2454767.630466609
  9
$TDUPDATE
 40
2454769.559221505
  9
$TDUUPDATE
 40
2454769.517554838
  9
$TDINDWG
 40
0.0419181481
  9
$TDUSRTIMER
 40
0.0419176157
  9
$USRTIMER
 70
     1
  9
$ANGBASE
 50
0.0
  9
$ANGDIR
 70
     0
  9
$PDMODE
 70
     0
  9
$PDSIZE
 40
0.0
  9
$PLINEWID
 40
0.0
  9
$SPLFRAME
 70
     0
  9
$SPLINETYPE
 70
     6
  9
$SPLINESEGS
 70
     8
  9
$HANDSEED
  5
202A
  9
$SURFTAB1
 70
     6
  9
$SURFTAB2
 70
     6
  9
$SURFTYPE
 70
     6
  9
$SURFU
 70
     6
  9
$SURFV
 70
     6
  9
$UCSBASE
  2

  9
$UCSNAME
  2

  9
$UCSORG
 10
0.0
 20
0.0
 30
0.0
  9
$UCSXDIR
 10
1.0
 20
0.0
 30
0.0
  9
$UCSYDIR
 10
0.0
 20
1.0
 30
0.0
  9
$UCSORTHOREF
  2

  9
$UCSORTHOVIEW
 70
     0
  9
$UCSORGTOP
 10
0.0
 20
0.0
 30
0.0
  9
$UCSORGBOTTOM
 10
0.0
 20
0.0
 30
0.0
  9
$UCSORGLEFT
 10
0.0
 20
0.0
 30
0.0
  9
$UCSORGRIGHT
 10
0.0
 20
0.0
 30
0.0
  9
$UCSORGFRONT
 10
0.0
 20
0.0
 30
0.0
  9
$UCSORGBACK
 10
0.0
 20
0.0
 30
0.0
  9
$PUCSBASE
  2

  9
$PUCSNAME
  2

  9
$PUCSORG
 10
0.0
 20
0.0
 30
0.0
  9
$PUCSXDIR
 10
1.0
 20
0.0
 30
0.0
  9
$PUCSYDIR
 10
0.0
 20
1.0
 30
0.0
  9
$PUCSORTHOREF
  2

  9
$PUCSORTHOVIEW
 70
     0
  9
$PUCSORGTOP
 10
0.0
 20
0.0
 30
0.0
  9
$PUCSORGBOTTOM
 10
0.0
 20
0.0
 30
0.0
  9
$PUCSORGLEFT
 10
0.0
 20
0.0
 30
0.0
  9
$PUCSORGRIGHT
 10
0.0
 20
0.0
 30
0.0
  9
$PUCSORGFRONT
 10
0.0
 20
0.0
 30
0.0
  9
$PUCSORGBACK
 10
0.0
 20
0.0
 30
0.0
  9
$USERI1
 70
     0
  9
$USERI2
 70
     0
  9
$USERI3
 70
     0
  9
$USERI4
 70
     0
  9
$USERI5
 70
     0
  9
$USERR1
 40
0.0
  9
$USERR2
 40
0.0
  9
$USERR3
 40
0.0
  9
$USERR4
 40
0.0
  9
$USERR5
 40
0.0
  9
$WORLDVIEW
 70
     1
  9
$SHADEDGE
 70
     3
  9
$SHADEDIF
 70
    70
  9
$TILEMODE
 70
     1
  9
$MAXACTVP
 70
    64
  9
$PINSBASE
 10
0.0
 20
0.0
 30
0.0
  9
$PLIMCHECK
 70
     0
  9
$PEXTMIN
 10
417.4221373833173
 20
4.219996831597851
 30
0.0
  9
$PEXTMAX
 10
796.2098947907698
 20
559.6425649167598
 30
0.0
  9
$PLIMMIN
 10
-21.3768310546875
 20
-14.05413818359375
  9
$PLIMMAX
 10
818.9398193359375
 20
580.0518798828123
  9
$UNITMODE
 70
     0
  9
$VISRETAIN
 70
     1
  9
$PLINEGEN
 70
     0
  9
$PSLTSCALE
 70
     1
  9
$TREEDEPTH
 70
  3020
  9
$CMLSTYLE
  2
Standard
  9
$CMLJUST
 70
     0
  9
$CMLSCALE
 40
20.0
  9
$PROXYGRAPHICS
 70
     1
  9
$MEASUREMENT
 70
     1
  9
$CELWEIGHT
370
    -1
  9
$ENDCAPS
280
     0
  9
$JOINSTYLE
280
     0
  9
$LWDISPLAY
290
     0
  9
$INSUNITS
 70
     6
  9
$HYPERLINKBASE
  1

  9
$STYLESHEET
  1
Blanc i negre.ctb
  9
$XEDIT
290
     1
  9
$CEPSNTYPE
380
     0
  9
$PSTYLEMODE
290
     1
  9
$FINGERPRINTGUID
  2
{0BECD7C7-5870-40D2-A14E-92A111847CA1}
  9
$VERSIONGUID
  2
{D5610FE7-4D35-42DF-B514-23ADBAA6F3E0}
  9
$EXTNAMES
290
     1
  9
$PSVPSCALE
 40
0.0
  9
$OLESTARTUP
290
     0
  9
$SORTENTS
280
   127
  9
$INDEXCTL
280
     0
  9
$HIDETEXT
280
     1
  9
$XCLIPFRAME
290
     0
  9
$HALOGAP
280
     0
  9
$OBSCOLOR
 70
   257
  9
$OBSLTYPE
280
     0
  9
$INTERSECTIONDISPLAY
280
     0
  9
$INTERSECTIONCOLOR
 70
   257
  9
$DIMASSOC
280
     2
  9
$PROJECTNAME
  1

  0
ENDSEC
  0
SECTION
  2
CLASSES
  0
CLASS
  1
ACDBDICTIONARYWDFLT
  2
AcDbDictionaryWithDefault
  3
ObjectDBX Classes
 90
        0
 91
        1
280
     0
281
     0
  0
CLASS
  1
MATERIAL
  2
AcDbMaterial
  3
ObjectDBX Classes
 90
     1153
 91
        3
280
     0
281
     0
  0
CLASS
  1
VISUALSTYLE
  2
AcDbVisualStyle
  3
ObjectDBX Classes
 90
     4095
 91
       16
280
     0
281
     0
  0
CLASS
  1
SCALE
  2
AcDbScale
  3
ObjectDBX Classes
 90
     1153
 91
       44
280
     0
281
     0
  0
CLASS
  1
TABLESTYLE
  2
AcDbTableStyle
  3
ObjectDBX Classes
 90
     4095
 91
        3
280
     0
281
     0
  0
CLASS
  1
MLEADERSTYLE
  2
AcDbMLeaderStyle
  3
ACDB_MLEADERSTYLE_CLASS
 90
     4095
 91
        3
280
     0
281
     0
  0
CLASS
  1
SORTENTSTABLE
  2
AcDbSortentsTable
  3
ObjectDBX Classes
 90
        0
 91
        4
280
     0
281
     0
  0
CLASS
  1
FIELD
  2
AcDbField
  3
ObjectDBX Classes
 90
     1152
 91
       14
280
     0
281
     0
  0
CLASS
  1
AEC_DISP_REP_CONFIG
  2
AecDbDispRepConfig
  3
AecBase50|Product Desc: Autodesk Architectural Desktop 2007 |Company: Autodesk,Inc. |WEB Address: www.autodesk.com
 90
      129
 91
        0
280
     0
281
     0
  0
CLASS
  1
AEC_DISP_REP_SET
  2
AecDbDispRepSet
  3
AecBase50|Product Desc: Autodesk Architectural Desktop 2007 |Company: Autodesk,Inc. |WEB Address: www.autodesk.com
 90
      129
 91
        0
280
     0
281
     0
  0
CLASS
  1
AEC_DISP_REP_2D_SECTION
  2
AecDbDispRep2dSection
  3
AecBase50|Product Desc: Autodesk Architectural Desktop 2007 |Company: Autodesk,Inc. |WEB Address: www.autodesk.com
 90
      129
 91
        0
280
     0
281
     0
  0
CLASS
  1
AEC_DISP_REP_ANCHOR_BUB_TO_GRID
  2
AecDbDispRepAnchorBubToGrid
  3
AecStructureBase50|Product Desc: Autodesk Architectural Desktop 2007 |Company: Autodesk,Inc. |WEB Address: www.autodesk.com
 90
      129
 91
        0
280
     0
281
     0
  0
CLASS
  1
AEC_DISP_REP_ANCHOR_BUB_TO_GRID_MODEL
  2
AecDbDispRepAnchorBubToGridMdl
  3
AecStructureBase50|Product Desc: Autodesk Architectural Desktop 2007 |Company: Autodesk,Inc. |WEB Address: www.autodesk.com
 90
      129
 91
        0
280
     0
281
     0
  0
CLASS
  1
AEC_DISP_REP_ANCHOR_BUB_TO_GRID_RCP
  2
AecDbDispRepAnchorBubToGridRcp
  3
AecStructureBase50|Product Desc: Autodesk Architectural Desktop 2007 |Company: Autodesk,Inc. |WEB Address: www.autodesk.com
 90
      129
 91
        0
280
     0
281
     0
  0
CLASS
  1
AEC_DISP_REP_ANCHOR_ENT_TO_NODE
  2
AecDbDispRepAnchorEntToNode
  3
AecBase50|Product Desc: Autodesk Architectural Desktop 2007 |Company: Autodesk,Inc. |WEB Address: www.autodesk.com
 90
      129
 91
        0
280
     0
281
     0
  0
CLASS
  1
AEC_DISP_REP_BDG_ELEVLINE_MODEL
  2
AecDbDispRepBdgElevLineModel
  3
AecArchBase50|Product Desc: Autodesk Architectural Desktop 2007 |Company: Autodesk,Inc. |WEB Address: www.autodesk.com
 90
      129
 91
        0
280
     0
281
     0
  0
CLASS
  1
AEC_DISP_REP_BDG_SECTIONLINE_PLAN
  2
AecDbDispRepBdgElevLinePlan
  3
AecArchBase50|Product Desc: Autodesk Architectural Desktop 2007 |Company: Autodesk,Inc. |WEB Address: www.autodesk.com
 90
      129
 91
        0
280
     0
281
     0
  0
CLASS
  1
AEC_AECDBDISPREPBDGELEVLINEPLAN100
  2
AecDbDispRepBdgElevLinePlan100
  3
AecArchDACHBase50|Product Desc: Autodesk Architectural Desktop 2007 |Company: Autodesk,Inc. |WEB Address: www.autodesk.com
 90
      129
 91
        0
280
     0
281
     0
  0
CLASS
  1
AEC_AECDBDISPREPBDGELEVLINEPLAN50
  2
AecDbDispRepBdgElevLinePlan50
  3
AecArchDACHBase50|Product Desc: Autodesk Architectural Desktop 2007 |Company: Autodesk,Inc. |WEB Address: www.autodesk.com
 90
      129
 91
        0
280
     0
281
     0
  0
CLASS
  1
AEC_DISP_REP_BDG_ELEVLINE_RCP
  2
AecDbDispRepBdgElevLineRcp
  3
AecArchBase50|Product Desc: Autodesk Architectural Desktop 2007 |Company: Autodesk,Inc. |WEB Address: www.autodesk.com
 90
      129
 91
        0
280
     0
281
     0
  0
CLASS
  1
AEC_DISP_REP_BDG_SECTIONLINE_MODEL
  2
AecDbDispRepBdgSectionLineModel
  3
AecArchBase50|Product Desc: Autodesk Architectural Desktop 2007 |Company: Autodesk,Inc. |WEB Address: www.autodesk.com
 90
      129
 91
        0
280
     0
281
     0
  0
CLASS
  1
AEC_DISP_REP_BDG_SECTIONLINE_PLAN
  2
AecDbDispRepBdgSectionLinePlan
  3
AecArchBase50|Product Desc: Autodesk Architectural Desktop 2007 |Company: Autodesk,Inc. |WEB Address: www.autodesk.com
 90
      129
 91
        0
280
     0
281
     0
  0
CLASS
  1
AEC_AECDBDISPREPBDGSECTIONLINEPLAN100
  2
AecDbDispRepBdgSectionLinePlan100
  3
AecArchDACHBase50|Product Desc: Autodesk Architectural Desktop 2007 |Company: Autodesk,Inc. |WEB Address: www.autodesk.com
 90
      129
 91
        0
280
     0
281
     0
  0
CLASS
  1
AEC_AECDBDISPREPBDGSECTIONLINEPLAN50
  2
AecDbDispRepBdgSectionLinePlan50
  3
AecArchDACHBase50|Product Desc: Autodesk Architectural Desktop 2007 |Company: Autodesk,Inc. |WEB Address: www.autodesk.com
 90
      129
 91
        0
280
     0
281
     0
  0
CLASS
  1
AEC_DISP_REP_BDG_SECTIONLINE_RCP
  2
AecDbDispRepBdgSectionLineRcp
  3
AecArchBase50|Product Desc: Autodesk Architectural Desktop 2007 |Company: Autodesk,Inc. |WEB Address: www.autodesk.com
 90
      129
 91
        0
280
     0
281
     0
  0
CLASS
  1
AEC_DISP_REP_BDG_SECTION_MODEL
  2
AecDbDispRepBdgSectionModel
  3
AecArchBase50|Product Desc: Autodesk Architectural Desktop 2007 |Company: Autodesk,Inc. |WEB Address: www.autodesk.com
 90
      129
 91
        0
280
     0
281
     0
  0
CLASS
  1
AEC_DISP_REP_BDG_SECTION_SUBDIV
  2
AecDbDispRepBdgSectionSubDiv
  3
AecArchBase50|Product Desc: Autodesk Architectural Desktop 2007 |Company: Autodesk,Inc. |WEB Address: www.autodesk.com
 90
      129
 91
        0
280
     0
281
     0
  0
CLASS
  1
AEC_DISP_REP_CEILING_GRID
  2
AecDbDispRepCeilingGrid
  3
AecArchBase50|Product Desc: Autodesk Architectural Desktop 2007 |Company: Autodesk,Inc. |WEB Address: www.autodesk.com
 90
      893
 91
        0
280
     0
281
     0
  0
CLASS
  1
AEC_DISP_REP_CEILING_GRID_MODEL
  2
AecDbDispRepCeilingGridModel
  3
AecArchBase50|Product Desc: Autodesk Architectural Desktop 2007 |Company: Autodesk,Inc. |WEB Address: www.autodesk.com
 90
      129
 91
        0
280
     0
281
     0
  0
CLASS
  1
AEC_AECDBDISPREPCEILINGGRIDPLAN100
  2
AecDbDispRepCeilingGridPlan100
  3
AecArchDACHBase50|Product Desc: Autodesk Architectural Desktop 2007 |Company: Autodesk,Inc. |WEB Address: www.autodesk.com
 90
      129
 91
        0
280
     0
281
     0
  0
CLASS
  1
AEC_AECDBDISPREPCEILINGGRIDPLAN50
  2
AecDbDispRepCeilingGridPlan50
  3
AecArchDACHBase50|Product Desc: Autodesk Architectural Desktop 2007 |Company: Autodesk,Inc. |WEB Address: www.autodesk.com
 90
      129
 91
        0
280
     0
281
     0
  0
CLASS
  1
AEC_DISP_REP_CEILING_GRID_RCP
  2
AecDbDispRepCeilingGridRcp
  3
AecArchBase50|Product Desc: Autodesk Architectural Desktop 2007 |Company: Autodesk,Inc. |WEB Address: www.autodesk.com
 90
      129
 91
        0
280
     0
281
     0
  0
CLASS
  1
AEC_DISP_REP_CLIP_VOLUME_MODEL
  2
AecDbDispRepClipVolModel
  3
AecBase50|Product Desc: Autodesk Architectural Desktop 2007 |Company: Autodesk,Inc. |WEB Address: www.autodesk.com
 90
      129
 91
        0
280
     0
281
     0
  0
CLASS
  1
AEC_DISP_REP_CLIP_VOLUME_PLAN
  2
AecDbDispRepClipVolPlan
  3
AecBase50|Product Desc: Autodesk Architectural Desktop 2007 |Company: Autodesk,Inc. |WEB Address: www.autodesk.com
 90
      129
 91
        0
280
     0
281
     0
  0
CLASS
  1
AEC_DISP_REP_CLIP_VOLUME_RESULT_SUBDIV
  2
AecDbDispRepClipVolResSubDiv
  3
AecBase50|Product Desc: Autodesk Architectural Desktop 2007 |Company: Autodesk,Inc. |WEB Address: www.autodesk.com
 90
      129
 91
        0
280
     0
281
     0
  0
CLASS
  1
AEC_DISP_REP_CLIP_VOLUME_RESULT
  2
AecDbDispRepClipVolResult
  3
AecBase50|Product Desc: Autodesk Architectural Desktop 2007 |Company: Autodesk,Inc. |WEB Address: www.autodesk.com
 90
      129
 91
        0
280
     0
281
     0
  0
CLASS
  1
AEC_DISP_REP_COLUMN_GRID
  2
AecDbDispRepColumnGrid
  3
AecStructureBase50|Product Desc: Autodesk Architectural Desktop 2007 |Company: Autodesk,Inc. |WEB Address: www.autodesk.com
 90
      129
 91
        0
280
     0
281
     0
  0
CLASS
  1
AEC_DISP_REP_COLUMN_GRID_MODEL
  2
AecDbDispRepColumnGridModel
  3
AecStructureBase50|Product Desc: Autodesk Architectural Desktop 2007 |Company: Autodesk,Inc. |WEB Address: www.autodesk.com
 90
      129
 91
        0
280
     0
281
     0
  0
CLASS
  1
AEC_AECDBDISPREPCOLUMNGRIDPLAN100
  2
AecDbDispRepColumnGridPlan100
  3
AecArchDACHBase50|Product Desc: Autodesk Architectural Desktop 2007 |Company: Autodesk,Inc. |WEB Address: www.autodesk.com
 90
      129
 91
        0
280
     0
281
     0
  0
CLASS
  1
AEC_AECDBDISPREPCOLUMNGRIDPLAN50
  2
AecDbDispRepColumnGridPlan50
  3
AecArchDACHBase50|Product Desc: Autodesk Architectural Desktop 2007 |Company: Autodesk,Inc. |WEB Address: www.autodesk.com
 90
      129
 91
        0
280
     0
281
     0
  0
CLASS
  1
AEC_DISP_REP_COLUMN_GRID_RCP
  2
AecDbDispRepColumnGridRcp
  3
AecStructureBase50|Product Desc: Autodesk Architectural Desktop 2007 |Company: Autodesk,Inc. |WEB Address: www.autodesk.com
 90
      129
 91
        0
280
     0
281
     0
  0
CLASS
  1
AEC_DISP_REP_CURTAIN_WALL_LAYOUT_MODEL
  2
AecDbDispRepCurtainWallLayoutModel
  3
AecArchBase50|Product Desc: Autodesk Architectural Desktop 2007 |Company: Autodesk,Inc. |WEB Address: www.autodesk.com
 90
      129
 91
        0
280
     0
281
     0
  0
CLASS
  1
AEC_DISP_REP_CURTAIN_WALL_LAYOUT_PLAN
  2
AecDbDispRepCurtainWallLayoutPlan
  3
AecArchBase50|Product Desc: Autodesk Architectural Desktop 2007 |Company: Autodesk,Inc. |WEB Address: www.autodesk.com
 90
      129
 91
        0
280
     0
281
     0
  0
CLASS
  1
AEC_AECDBDISPREPCURTAINWALLLAYOUTPLAN100
  2
AecDbDispRepCurtainWallLayoutPlan100
  3
AecArchDACHBase50|Product Desc: Autodesk Architectural Desktop 2007 |Company: Autodesk,Inc. |WEB Address: www.autodesk.com
 90
      129
 91
        0
280
     0
281
     0
  0
CLASS
  1
AEC_AECDBDISPREPCURTAINWALLLAYOUTPLAN50
  2
AecDbDispRepCurtainWallLayoutPlan50
  3
AecArchDACHBase50|Product Desc: Autodesk Architectural Desktop 2007 |Company: Autodesk,Inc. |WEB Address: www.autodesk.com
 90
      129
 91
        0
280
     0
281
     0
  0
CLASS
  1
AEC_DISP_REP_CURTAIN_WALL_UNIT_MODEL
  2
AecDbDispRepCurtainWallUnitModel
  3
AecArchBase50|Product Desc: Autodesk Architectural Desktop 2007 |Company: Autodesk,Inc. |WEB Address: www.autodesk.com
 90
      129
 91
        0
280
     0
281
     0
  0
CLASS
  1
AEC_DISP_REP_CURTAIN_WALL_UNIT_PLAN
  2
AecDbDispRepCurtainWallUnitPlan
  3
AecArchBase50|Product Desc: Autodesk Architectural Desktop 2007 |Company: Autodesk,Inc. |WEB Address: www.autodesk.com
 90
      129
 91
        0
280
     0
281
     0
  0
CLASS
  1
AEC_AECDBDISPREPCURTAINWALLUNITPLAN100
  2
AecDbDispRepCurtainWallUnitPlan100
  3
AecArchDACHBase50|Product Desc: Autodesk Architectural Desktop 2007 |Company: Autodesk,Inc. |WEB Address: www.autodesk.com
 90
      129
 91
        0
280
     0
281
     0
  0
CLASS
  1
AEC_AECDBDISPREPCURTAINWALLUNITPLAN50
  2
AecDbDispRepCurtainWallUnitPlan50
  3
AecArchDACHBase50|Product Desc: Autodesk Architectural Desktop 2007 |Company: Autodesk,Inc. |WEB Address: www.autodesk.com
 90
      129
 91
        0
280
     0
281
     0
  0
CLASS
  1
AEC_DB_DISP_REP_DIM_GROUP_PLAN
  2
AecDbDispRepDimGroupPlan
  3
AecArchDACHBase50|Product Desc: Autodesk Architectural Desktop 2007 |Company: Autodesk,Inc. |WEB Address: www.autodesk.com
 90
      129
 91
        0
280
     0
281
     0
  0
CLASS
  1
AEC_DB_DISP_REP_DIM_GROUP_PLAN100
  2
AecDbDispRepDimGroupPlan100
  3
AecArchDACHBase50|Product Desc: Autodesk Architectural Desktop 2007 |Company: Autodesk,Inc. |WEB Address: www.autodesk.com
 90
      129
 91
        0
280
     0
281
     0
  0
CLASS
  1
AEC_DB_DISP_REP_DIM_GROUP_PLAN50
  2
AecDbDispRepDimGroupPlan50
  3
AecArchDACHBase50|Product Desc: Autodesk Architectural Desktop 2007 |Company: Autodesk,Inc. |WEB Address: www.autodesk.com
 90
      129
 91
        0
280
     0
281
     0
  0
CLASS
  1
AEC_DISP_REP_DISPLAYTHEME
  2
AecDbDispRepDisplayTheme
  3
AecBase50|Product Desc: Autodesk Architectural Desktop 2007 |Company: Autodesk,Inc. |WEB Address: www.autodesk.com
 90
      129
 91
        0
280
     0
281
     0
  0
CLASS
  1
AEC_DISP_REP_DOOR_ELEV
  2
AecDbDispRepDoorElev
  3
AecArchBase50|Product Desc: Autodesk Architectural Desktop 2007 |Company: Autodesk,Inc. |WEB Address: www.autodesk.com
 90
      129
 91
        0
280
     0
281
     0
  0
CLASS
  1
AEC_DISP_REP_DOOR_MODEL
  2
AecDbDispRepDoorModel
  3
AecArchBase50|Product Desc: Autodesk Architectural Desktop 2007 |Company: Autodesk,Inc. |WEB Address: www.autodesk.com
 90
      129
 91
        0
280
     0
281
     0
  0
CLASS
  1
AEC_DISP_REP_DOOR_PLAN
  2
AecDbDispRepDoorPlan
  3
AecArchBase50|Product Desc: Autodesk Architectural Desktop 2007 |Company: Autodesk,Inc. |WEB Address: www.autodesk.com
 90
      129
 91
        0
280
     0
281
     0
  0
CLASS
  1
AEC_DISP_REP_DOOR_PLAN_50
  2
AecDbDispRepDoorPlan50
  3
AecArchDACHBase50|Product Desc: Autodesk Architectural Desktop 2007 |Company: Autodesk,Inc. |WEB Address: www.autodesk.com
 90
      129
 91
        0
280
     0
281
     0
  0
CLASS
  1
AEC_DISP_REP_DOOR_PLAN_HEKTO
  2
AecDbDispRepDoorPlanHekto
  3
AecArchDACHBase50|Product Desc: Autodesk Architectural Desktop 2007 |Company: Autodesk,Inc. |WEB Address: www.autodesk.com
 90
      129
 91
        0
280
     0
281
     0
  0
CLASS
  1
AEC_DISP_REP_DOOR_RCP
  2
AecDbDispRepDoorRcp
  3
AecArchBase50|Product Desc: Autodesk Architectural Desktop 2007 |Company: Autodesk,Inc. |WEB Address: www.autodesk.com
 90
      129
 91
        0
280
     0
281
     0
  0
CLASS
  1
AEC_DISP_REP_DOOR_THRESHOLD_SYMBOL_PLAN
  2
AecDbDispRepDoorThresholdSymbolPlan
  3
AecArchDACHBase50|Product Desc: Autodesk Architectural Desktop 2007 |Company: Autodesk,Inc. |WEB Address: www.autodesk.com
 90
      129
 91
        0
280
     0
281
     0
  0
CLASS
  1
AEC_DISP_REP_EDITINPLACEPROFILE
  2
AecDbDispRepEditInPlaceProfile
  3
AecBase50|Product Desc: Autodesk Architectural Desktop 2007 |Company: Autodesk,Inc. |WEB Address: www.autodesk.com
 90
      129
 91
        0
280
     0
281
     0
  0
CLASS
  1
AEC_DISP_REP_ENT_REF
  2
AecDbDispRepEntRef
  3
AecBase50|Product Desc: Autodesk Architectural Desktop 2007 |Company: Autodesk,Inc. |WEB Address: www.autodesk.com
 90
      129
 91
        0
280
     0
281
     0
  0
CLASS
  1
AEC_DISP_REP_LAYOUT_CURVE
  2
AecDbDispRepLayoutCurve
  3
AecBase50|Product Desc: Autodesk Architectural Desktop 2007 |Company: Autodesk,Inc. |WEB Address: www.autodesk.com
 90
      129
 91
        0
280
     0
281
     0
  0
CLASS
  1
AEC_DISP_REP_LAYOUT_GRID2D
  2
AecDbDispRepLayoutGrid2d
  3
AecBase50|Product Desc: Autodesk Architectural Desktop 2007 |Company: Autodesk,Inc. |WEB Address: www.autodesk.com
 90
      129
 91
        0
280
     0
281
     0
  0
CLASS
  1
AEC_DISP_REP_LAYOUT_GRID3D
  2
AecDbDispRepLayoutGrid3d
  3
AecBase50|Product Desc: Autodesk Architectural Desktop 2007 |Company: Autodesk,Inc. |WEB Address: www.autodesk.com
 90
      129
 91
        0
280
     0
281
     0
  0
CLASS
  1
AEC_DISP_REP_MASKBLOCK_REF
  2
AecDbDispRepMaskBlockRef
  3
AecBase50|Product Desc: Autodesk Architectural Desktop 2007 |Company: Autodesk,Inc. |WEB Address: www.autodesk.com
 90
      129
 91
        0
280
     0
281
     0
  0
CLASS
  1
AEC_DISP_REP_MASKBLOCK_REF_RCP
  2
AecDbDispRepMaskBlockRefRcp
  3
AecArchBase50|Product Desc: Autodesk Architectural Desktop 2007 |Company: Autodesk,Inc. |WEB Address: www.autodesk.com
 90
      129
 91
        0
280
     0
281
     0
  0
CLASS
  1
AEC_DISP_REP_MASS_ELEM_MODEL
  2
AecDbDispRepMassElemModel
  3
AecBaseEx50|Product Desc: Autodesk Architectural Desktop 2007 |Company: Autodesk,Inc. |WEB Address: www.autodesk.com
 90
      129
 91
        0
280
     0
281
     0
  0
CLASS
  1
AEC_DISPREPAECDBDISPREPMASSELEMPLAN100
  2
AecDbDispRepMassElemPlan100
  3
AecArchDACHBase50|Product Desc: Autodesk Architectural Desktop 2007 |Company: Autodesk,Inc. |WEB Address: www.autodesk.com
 90
      129
 91
        0
280
     0
281
     0
  0
CLASS
  1
AEC_DISPREPAECDBDISPREPMASSELEMPLAN50
  2
AecDbDispRepMassElemPlan50
  3
AecArchDACHBase50|Product Desc: Autodesk Architectural Desktop 2007 |Company: Autodesk,Inc. |WEB Address: www.autodesk.com
 90
      129
 91
        0
280
     0
281
     0
  0
CLASS
  1
AEC_DISP_REP_MASS_ELEM_RCP
  2
AecDbDispRepMassElemRcp
  3
AecArchBase50|Product Desc: Autodesk Architectural Desktop 2007 |Company: Autodesk,Inc. |WEB Address: www.autodesk.com
 90
      129
 91
        0
280
     0
281
     0
  0
CLASS
  1
AEC_DISP_REP_MASS_ELEM_SCHEM
  2
AecDbDispRepMassElemSchem
  3
AecBaseEx50|Product Desc: Autodesk Architectural Desktop 2007 |Company: Autodesk,Inc. |WEB Address: www.autodesk.com
 90
      129
 91
        0
280
     0
281
     0
  0
CLASS
  1
AEC_DISP_REP_MASS_GROUP_MODEL
  2
AecDbDispRepMassGroupModel
  3
AecBaseEx50|Product Desc: Autodesk Architectural Desktop 2007 |Company: Autodesk,Inc. |WEB Address: www.autodesk.com
 90
      129
 91
        0
280
     0
281
     0
  0
CLASS
  1
AEC_DISP_REP_MASS_GROUP_PLAN
  2
AecDbDispRepMassGroupPlan
  3
AecBaseEx50|Product Desc: Autodesk Architectural Desktop 2007 |Company: Autodesk,Inc. |WEB Address: www.autodesk.com
 90
      129
 91
        0
280
     0
281
     0
  0
CLASS
  1
AEC_DISPREPAECDBDISPREPMASSGROUPPLAN100
  2
AecDbDispRepMassGroupPlan100
  3
AecArchDACHBase50|Product Desc: Autodesk Architectural Desktop 2007 |Company: Autodesk,Inc. |WEB Address: www.autodesk.com
 90
      129
 91
        0
280
     0
281
     0
  0
CLASS
  1
AEC_DISPREPAECDBDISPREPMASSGROUPPLAN50
  2
AecDbDispRepMassGroupPlan50
  3
AecArchDACHBase50|Product Desc: Autodesk Architectural Desktop 2007 |Company: Autodesk,Inc. |WEB Address: www.autodesk.com
 90
      129
 91
        0
280
     0
281
     0
  0
CLASS
  1
AEC_DISP_REP_MASS_GROUP_RCP
  2
AecDbDispRepMassGroupRcp
  3
AecArchBase50|Product Desc: Autodesk Architectural Desktop 2007 |Company: Autodesk,Inc. |WEB Address: www.autodesk.com
 90
      129
 91
        0
280
     0
281
     0
  0
CLASS
  1
AEC_DISP_REP_MATERIAL
  2
AecDbDispRepMaterial
  3
AecBase50|Product Desc: Autodesk Architectural Desktop 2007 |Company: Autodesk,Inc. |WEB Address: www.autodesk.com
 90
      129
 91
        0
280
     0
281
     0
  0
CLASS
  1
AEC_DISP_REP_MVBLOCK_REF
  2
AecDbDispRepMvBlockRef
  3
AecBase50|Product Desc: Autodesk Architectural Desktop 2007 |Company: Autodesk,Inc. |WEB Address: www.autodesk.com
 90
      129
 91
        0
280
     0
281
     0
  0
CLASS
  1
AEC_DISP_REP_MVBLOCK_REF_MODEL
  2
AecDbDispRepMvBlockRefModel
  3
AecBase50|Product Desc: Autodesk Architectural Desktop 2007 |Company: Autodesk,Inc. |WEB Address: www.autodesk.com
 90
      129
 91
        0
280
     0
281
     0
  0
CLASS
  1
AEC_AECDBDISPREPMVBLOCKREFPLAN100
  2
AecDbDispRepMvBlockRefPlan100
  3
AecArchDACHBase50|Product Desc: Autodesk Architectural Desktop 2007 |Company: Autodesk,Inc. |WEB Address: www.autodesk.com
 90
      129
 91
        0
280
     0
281
     0
  0
CLASS
  1
AEC_AECDBDISPREPMVBLOCKREFPLAN50
  2
AecDbDispRepMvBlockRefPlan50
  3
AecArchDACHBase50|Product Desc: Autodesk Architectural Desktop 2007 |Company: Autodesk,Inc. |WEB Address: www.autodesk.com
 90
      129
 91
        0
280
     0
281
     0
  0
CLASS
  1
AEC_DISP_REP_MVBLOCK_REF_RCP
  2
AecDbDispRepMvBlockRefRcp
  3
AecArchBase50|Product Desc: Autodesk Architectural Desktop 2007 |Company: Autodesk,Inc. |WEB Address: www.autodesk.com
 90
      129
 91
        0
280
     0
281
     0
  0
CLASS
  1
AEC_DISP_REP_OPENING
  2
AecDbDispRepOpening
  3
AecArchBase50|Product Desc: Autodesk Architectural Desktop 2007 |Company: Autodesk,Inc. |WEB Address: www.autodesk.com
 90
      129
 91
        0
280
     0
281
     0
  0
CLASS
  1
AEC_DISP_REP_OPENING_MODEL
  2
AecDbDispRepOpeningModel
  3
AecArchBase50|Product Desc: Autodesk Architectural Desktop 2007 |Company: Autodesk,Inc. |WEB Address: www.autodesk.com
 90
      129
 91
        0
280
     0
281
     0
  0
CLASS
  1
AEC_DISPREPAECDBDISPREPOPENINGPLAN100
  2
AecDbDispRepOpeningPlan100
  3
AecArchDACHBase50|Product Desc: Autodesk Architectural Desktop 2007 |Company: Autodesk,Inc. |WEB Address: www.autodesk.com
 90
      129
 91
        0
280
     0
281
     0
  0
CLASS
  1
AEC_DISPREPAECDBDISPREPOPENINGPLAN50
  2
AecDbDispRepOpeningPlan50
  3
AecArchDACHBase50|Product Desc: Autodesk Architectural Desktop 2007 |Company: Autodesk,Inc. |WEB Address: www.autodesk.com
 90
      129
 91
        0
280
     0
281
     0
  0
CLASS
  1
AEC_DISPREPAECDBDISPREPOPENINGPLANREFLECTED
  2
AecDbDispRepOpeningPlanReflected
  3
AecArchDACHBase50|Product Desc: Autodesk Architectural Desktop 2007 |Company: Autodesk,Inc. |WEB Address: www.autodesk.com
 90
      129
 91
        0
280
     0
281
     0
  0
CLASS
  1
AEC_DISPREPAECDBDISPREPOPENINGSILLPLAN
  2
AecDbDispRepOpeningSillPlan
  3
AecArchDACHBase50|Product Desc: Autodesk Architectural Desktop 2007 |Company: Autodesk,Inc. |WEB Address: www.autodesk.com
 90
      129
 91
        0
280
     0
281
     0
  0
CLASS
  1
AEC_DISP_REP_POLYGON_MODEL
  2
AecDbDispRepPolygonModel
  3
AecBase50|Product Desc: Autodesk Architectural Desktop 2007 |Company: Autodesk,Inc. |WEB Address: www.autodesk.com
 90
      129
 91
        0
280
     0
281
     0
  0
CLASS
  1
AEC_DISP_REP_RAILING_MODEL
  2
AecDbDispRepRailingModel
  3
AecArchBase50|Product Desc: Autodesk Architectural Desktop 2007 |Company: Autodesk,Inc. |WEB Address: www.autodesk.com
 90
      129
 91
        0
280
     0
281
     0
  0
CLASS
  1
AEC_DISP_REP_RAILING_PLAN
  2
AecDbDispRepRailingPlan
  3
AecArchBase50|Product Desc: Autodesk Architectural Desktop 2007 |Company: Autodesk,Inc. |WEB Address: www.autodesk.com
 90
      129
 91
        0
280
     0
281
     0
  0
CLASS
  1
AEC_DISP_REP_RAILING_PLAN_100
  2
AecDbDispRepRailingPlan100
  3
AecArchDACHBase50|Product Desc: Autodesk Architectural Desktop 2007 |Company: Autodesk,Inc. |WEB Address: www.autodesk.com
 90
      129
 91
        0
280
     0
281
     0
  0
CLASS
  1
AEC_DISP_REP_RAILING_PLAN_50
  2
AecDbDispRepRailingPlan50
  3
AecArchDACHBase50|Product Desc: Autodesk Architectural Desktop 2007 |Company: Autodesk,Inc. |WEB Address: www.autodesk.com
 90
      129
 91
        0
280
     0
281
     0
  0
CLASS
  1
AEC_DISP_REP_ROOF_MODEL
  2
AecDbDispRepRoofModel
  3
AecArchBase50|Product Desc: Autodesk Architectural Desktop 2007 |Company: Autodesk,Inc. |WEB Address: www.autodesk.com
 90
      129
 91
        0
280
     0
281
     0
  0
CLASS
  1
AEC_DISP_REP_ROOF_PLAN
  2
AecDbDispRepRoofPlan
  3
AecArchBase50|Product Desc: Autodesk Architectural Desktop 2007 |Company: Autodesk,Inc. |WEB Address: www.autodesk.com
 90
      129
 91
        0
280
     0
281
     0
  0
CLASS
  1
AEC_AECDBDISPREPROOFPLAN100
  2
AecDbDispRepRoofPlan100
  3
AecArchDACHBase50|Product Desc: Autodesk Architectural Desktop 2007 |Company: Autodesk,Inc. |WEB Address: www.autodesk.com
 90
      129
 91
        0
280
     0
281
     0
  0
CLASS
  1
AEC_AECDBDISPREPROOFPLAN50
  2
AecDbDispRepRoofPlan50
  3
AecArchDACHBase50|Product Desc: Autodesk Architectural Desktop 2007 |Company: Autodesk,Inc. |WEB Address: www.autodesk.com
 90
      129
 91
        0
280
     0
281
     0
  0
CLASS
  1
AEC_DISP_REP_ROOF_RCP
  2
AecDbDispRepRoofRcp
  3
AecArchBase50|Product Desc: Autodesk Architectural Desktop 2007 |Company: Autodesk,Inc. |WEB Address: www.autodesk.com
 90
      129
 91
        0
280
     0
281
     0
  0
CLASS
  1
AEC_DISP_REP_ROOFSLAB_MODEL
  2
AecDbDispRepRoofSlabModel
  3
AecArchBase50|Product Desc: Autodesk Architectural Desktop 2007 |Company: Autodesk,Inc. |WEB Address: www.autodesk.com
 90
      129
 91
        0
280
     0
281
     0
  0
CLASS
  1
AEC_DISP_REP_ROOFSLAB_PLAN
  2
AecDbDispRepRoofSlabPlan
  3
AecArchBase50|Product Desc: Autodesk Architectural Desktop 2007 |Company: Autodesk,Inc. |WEB Address: www.autodesk.com
 90
      129
 91
        0
280
     0
281
     0
  0
CLASS
  1
AEC_AECDBDISPREPROOFSLABPLAN100
  2
AecDbDispRepRoofSlabPlan100
  3
AecArchDACHBase50|Product Desc: Autodesk Architectural Desktop 2007 |Company: Autodesk,Inc. |WEB Address: www.autodesk.com
 90
      129
 91
        0
280
     0
281
     0
  0
CLASS
  1
AEC_AECDBDISPREPROOFSLABPLAN50
  2
AecDbDispRepRoofSlabPlan50
  3
AecArchDACHBase50|Product Desc: Autodesk Architectural Desktop 2007 |Company: Autodesk,Inc. |WEB Address: www.autodesk.com
 90
      129
 91
        0
280
     0
281
     0
  0
CLASS
  1
AEC_DISP_REP_SCHEDULE_TABLE
  2
AecDbDispRepScheduleTable
  3
AecSchedule50|Product Desc: Autodesk Architectural Desktop 2007 |Company: Autodesk,Inc. |WEB Address: www.autodesk.com
 90
      129
 91
        0
280
     0
281
     0
  0
CLASS
  1
AEC_DISP_REP_SLAB_MODEL
  2
AecDbDispRepSlabModel
  3
AecArchBase50|Product Desc: Autodesk Architectural Desktop 2007 |Company: Autodesk,Inc. |WEB Address: www.autodesk.com
 90
      129
 91
        0
280
     0
281
     0
  0
CLASS
  1
AEC_DISP_REP_SLAB_PLAN
  2
AecDbDispRepSlabPlan
  3
AecArchBase50|Product Desc: Autodesk Architectural Desktop 2007 |Company: Autodesk,Inc. |WEB Address: www.autodesk.com
 90
      129
 91
        0
280
     0
281
     0
  0
CLASS
  1
AEC_AECDBDISPREPSLABPLAN100
  2
AecDbDispRepSlabPlan100
  3
AecArchDACHBase50|Product Desc: Autodesk Architectural Desktop 2007 |Company: Autodesk,Inc. |WEB Address: www.autodesk.com
 90
      129
 91
        0
280
     0
281
     0
  0
CLASS
  1
AEC_AECDBDISPREPSLABPLAN50
  2
AecDbDispRepSlabPlan50
  3
AecArchDACHBase50|Product Desc: Autodesk Architectural Desktop 2007 |Company: Autodesk,Inc. |WEB Address: www.autodesk.com
 90
      129
 91
        0
280
     0
281
     0
  0
CLASS
  1
AEC_DISP_REP_SLICE
  2
AecDbDispRepSlice
  3
AecBase50|Product Desc: Autodesk Architectural Desktop 2007 |Company: Autodesk,Inc. |WEB Address: www.autodesk.com
 90
      129
 91
        0
280
     0
281
     0
  0
CLASS
  1
AEC_DISP_REP_SPACE_DECOMPOSED
  2
AecDbDispRepSpaceDecomposed
  3
AecArchBase50|Product Desc: Autodesk Architectural Desktop 2007 |Company: Autodesk,Inc. |WEB Address: www.autodesk.com
 90
      129
 91
        0
280
     0
281
     0
  0
CLASS
  1
AEC_DISP_REP_SPACE_MODEL
  2
AecDbDispRepSpaceModel
  3
AecArchBase50|Product Desc: Autodesk Architectural Desktop 2007 |Company: Autodesk,Inc. |WEB Address: www.autodesk.com
 90
      129
 91
        0
280
     0
281
     0
  0
CLASS
  1
AEC_DISP_REP_SPACE_PLAN
  2
AecDbDispRepSpacePlan
  3
AecArchBase50|Product Desc: Autodesk Architectural Desktop 2007 |Company: Autodesk,Inc. |WEB Address: www.autodesk.com
 90
      129
 91
        0
280
     0
281
     0
  0
CLASS
  1
AEC_AECDBDISPREPSPACEPLAN100
  2
AecDbDispRepSpacePlan100
  3
AecArchDACHBase50|Product Desc: Autodesk Architectural Desktop 2007 |Company: Autodesk,Inc. |WEB Address: www.autodesk.com
 90
      129
 91
        0
280
     0
281
     0
  0
CLASS
  1
AEC_AECDBDISPREPSPACEPLAN50
  2
AecDbDispRepSpacePlan50
  3
AecArchDACHBase50|Product Desc: Autodesk Architectural Desktop 2007 |Company: Autodesk,Inc. |WEB Address: www.autodesk.com
 90
      129
 91
        0
280
     0
281
     0
  0
CLASS
  1
AEC_DISP_REP_SPACE_RCP
  2
AecDbDispRepSpaceRcp
  3
AecArchBase50|Product Desc: Autodesk Architectural Desktop 2007 |Company: Autodesk,Inc. |WEB Address: www.autodesk.com
 90
      129
 91
        0
280
     0
281
     0
  0
CLASS
  1
AEC_DISP_REP_STAIR_MODEL
  2
AecDbDispRepStairModel
  3
AecArchBase50|Product Desc: Autodesk Architectural Desktop 2007 |Company: Autodesk,Inc. |WEB Address: www.autodesk.com
 90
      129
 91
        0
280
     0
281
     0
  0
CLASS
  1
AEC_DISP_REP_STAIR_PLAN
  2
AecDbDispRepStairPlan
  3
AecArchBase50|Product Desc: Autodesk Architectural Desktop 2007 |Company: Autodesk,Inc. |WEB Address: www.autodesk.com
 90
      129
 91
        0
280
     0
281
     0
  0
CLASS
  1
AEC_DISP_REP_STAIR_PLAN_100
  2
AecDbDispRepStairPlan100
  3
AecArchDACHBase50|Product Desc: Autodesk Architectural Desktop 2007 |Company: Autodesk,Inc. |WEB Address: www.autodesk.com
 90
      129
 91
        0
280
     0
281
     0
  0
CLASS
  1
AEC_DISP_REP_STAIR_PLAN_50
  2
AecDbDispRepStairPlan50
  3
AecArchDACHBase50|Product Desc: Autodesk Architectural Desktop 2007 |Company: Autodesk,Inc. |WEB Address: www.autodesk.com
 90
      129
 91
        0
280
     0
281
     0
  0
CLASS
  1
AEC_DISP_REP_STAIR_RCP
  2
AecDbDispRepStairRcp
  3
AecArchBase50|Product Desc: Autodesk Architectural Desktop 2007 |Company: Autodesk,Inc. |WEB Address: www.autodesk.com
 90
      129
 91
        0
280
     0
281
     0
  0
CLASS
  1
AEC_DISP_REP_WALL_MODEL
  2
AecDbDispRepWallModel
  3
AecArchBase50|Product Desc: Autodesk Architectural Desktop 2007 |Company: Autodesk,Inc. |WEB Address: www.autodesk.com
 90
      129
 91
        0
280
     0
281
     0
  0
CLASS
  1
AEC_DISP_REP_WALL_PLAN
  2
AecDbDispRepWallPlan
  3
AecArchBase50|Product Desc: Autodesk Architectural Desktop 2007 |Company: Autodesk,Inc. |WEB Address: www.autodesk.com
 90
      129
 91
        0
280
     0
281
     0
  0
CLASS
  1
AEC_AECDBDISPREPWALLPLAN100
  2
AecDbDispRepWallPlan100
  3
AecArchDACHBase50|Product Desc: Autodesk Architectural Desktop 2007 |Company: Autodesk,Inc. |WEB Address: www.autodesk.com
 90
      129
 91
        0
280
     0
281
     0
  0
CLASS
  1
AEC_AECDBDISPREPWALLPLAN50
  2
AecDbDispRepWallPlan50
  3
AecArchDACHBase50|Product Desc: Autodesk Architectural Desktop 2007 |Company: Autodesk,Inc. |WEB Address: www.autodesk.com
 90
      129
 91
        0
280
     0
281
     0
  0
CLASS
  1
AEC_DISP_REP_WALL_RCP
  2
AecDbDispRepWallRcp
  3
AecArchBase50|Product Desc: Autodesk Architectural Desktop 2007 |Company: Autodesk,Inc. |WEB Address: www.autodesk.com
 90
      129
 91
        0
280
     0
281
     0
  0
CLASS
  1
AEC_DISP_REP_WINDOW_ASSEMBLY_MODEL
  2
AecDbDispRepWindowAssemblyModel
  3
AecArchBase50|Product Desc: Autodesk Architectural Desktop 2007 |Company: Autodesk,Inc. |WEB Address: www.autodesk.com
 90
      129
 91
        0
280
     0
281
     0
  0
CLASS
  1
AEC_DISP_REP_WINDOW_ASSEMBLY_PLAN
  2
AecDbDispRepWindowAssemblyPlan
  3
AecArchBase50|Product Desc: Autodesk Architectural Desktop 2007 |Company: Autodesk,Inc. |WEB Address: www.autodesk.com
 90
      129
 91
        0
280
     0
281
     0
  0
CLASS
  1
AEC_AECDBDISPREPWINDOWASSEMBLYPLAN100
  2
AecDbDispRepWindowAssemblyPlan100
  3
AecArchDACHBase50|Product Desc: Autodesk Architectural Desktop 2007 |Company: Autodesk,Inc. |WEB Address: www.autodesk.com
 90
      129
 91
        0
280
     0
281
     0
  0
CLASS
  1
AEC_AECDBDISPREPWINDOWASSEMBLYPLAN50
  2
AecDbDispRepWindowAssemblyPlan50
  3
AecArchDACHBase50|Product Desc: Autodesk Architectural Desktop 2007 |Company: Autodesk,Inc. |WEB Address: www.autodesk.com
 90
      129
 91
        0
280
     0
281
     0
  0
CLASS
  1
AEC_DISP_REP_WINDOW_ELEV
  2
AecDbDispRepWindowElev
  3
AecArchBase50|Product Desc: Autodesk Architectural Desktop 2007 |Company: Autodesk,Inc. |WEB Address: www.autodesk.com
 90
      129
 91
        0
280
     0
281
     0
  0
CLASS
  1
AEC_DISP_REP_WINDOW_MODEL
  2
AecDbDispRepWindowModel
  3
AecArchBase50|Product Desc: Autodesk Architectural Desktop 2007 |Company: Autodesk,Inc. |WEB Address: www.autodesk.com
 90
      129
 91
        0
280
     0
281
     0
  0
CLASS
  1
AEC_DISP_REP_WINDOW_PLAN
  2
AecDbDispRepWindowPlan
  3
AecArchBase50|Product Desc: Autodesk Architectural Desktop 2007 |Company: Autodesk,Inc. |WEB Address: www.autodesk.com
 90
      129
 91
        0
280
     0
281
     0
  0
CLASS
  1
AEC_DISP_REP_WINDOW_PLAN_100
  2
AecDbDispRepWindowPlan100
  3
AecArchDACHBase50|Product Desc: Autodesk Architectural Desktop 2007 |Company: Autodesk,Inc. |WEB Address: www.autodesk.com
 90
      129
 91
        0
280
     0
281
     0
  0
CLASS
  1
AEC_DISP_REP_WINDOW_PLAN_50
  2
AecDbDispRepWindowPlan50
  3
AecArchDACHBase50|Product Desc: Autodesk Architectural Desktop 2007 |Company: Autodesk,Inc. |WEB Address: www.autodesk.com
 90
      129
 91
        0
280
     0
281
     0
  0
CLASS
  1
AEC_DISP_REP_WINDOW_RCP
  2
AecDbDispRepWindowRcp
  3
AecArchBase50|Product Desc: Autodesk Architectural Desktop 2007 |Company: Autodesk,Inc. |WEB Address: www.autodesk.com
 90
      129
 91
        0
280
     0
281
     0
  0
CLASS
  1
AEC_DISP_REP_ZONE
  2
AecDbDispRepZone
  3
AecArchBase50|Product Desc: Autodesk Architectural Desktop 2007 |Company: Autodesk,Inc. |WEB Address: www.autodesk.com
 90
      129
 91
        0
280
     0
281
     0
  0
CLASS
  1
AEC_AECDBDISPREPZONE100
  2
AecDbDispRepZonePlan100
  3
AecArchDACHBase50|Product Desc: Autodesk Architectural Desktop 2007 |Company: Autodesk,Inc. |WEB Address: www.autodesk.com
 90
      129
 91
        0
280
     0
281
     0
  0
CLASS
  1
AEC_AECDBDISPREPZONE50
  2
AecDbDispRepZonePlan50
  3
AecArchDACHBase50|Product Desc: Autodesk Architectural Desktop 2007 |Company: Autodesk,Inc. |WEB Address: www.autodesk.com
 90
      129
 91
        0
280
     0
281
     0
  0
CLASS
  1
AECS_DISP_REP_MEMBER_ELEVATION_DESIGN
  2
AecsDbDispRepMemberElevationDesign
  3
AecStructureBase50|Product Desc: Autodesk Architectural Desktop 2007 |Company: Autodesk,Inc. |WEB Address: www.autodesk.com
 90
      129
 91
        0
280
     0
281
     0
  0
CLASS
  1
AECS_DISP_REP_MEMBER_MODEL_DESIGN
  2
AecsDbDispRepMemberModelDesign
  3
AecStructureBase50|Product Desc: Autodesk Architectural Desktop 2007 |Company: Autodesk,Inc. |WEB Address: www.autodesk.com
 90
      129
 91
        0
280
     0
281
     0
  0
CLASS
  1
AECS_DISP_REP_MEMBER_MODEL_DETAIL
  2
AecsDbDispRepMemberModelDetail
  3
AecStructureBase50|Product Desc: Autodesk Architectural Desktop 2007 |Company: Autodesk,Inc. |WEB Address: www.autodesk.com
 90
      129
 91
        0
280
     0
281
     0
  0
CLASS
  1
AECS_DISP_REP_MEMBER_PLAN_DESIGN
  2
AecsDbDispRepMemberPlanDesign
  3
AecStructureBase50|Product Desc: Autodesk Architectural Desktop 2007 |Company: Autodesk,Inc. |WEB Address: www.autodesk.com
 90
      129
 91
        0
280
     0
281
     0
  0
CLASS
  1
AECS_DISP_REP_MEMBER_PLAN_DETAIL
  2
AecsDbDispRepMemberPlanDetail
  3
AecStructureBase50|Product Desc: Autodesk Architectural Desktop 2007 |Company: Autodesk,Inc. |WEB Address: www.autodesk.com
 90
      129
 91
        0
280
     0
281
     0
  0
CLASS
  1
AECS_DISP_REP_MEMBER_PLAN_SKETCH
  2
AecsDbDispRepMemberPlanSketch
  3
AecStructureBase50|Product Desc: Autodesk Architectural Desktop 2007 |Company: Autodesk,Inc. |WEB Address: www.autodesk.com
 90
      129
 91
        0
280
     0
281
     0
  0
CLASS
  1
AEC_DISP_PROPS_SLAB_PLAN
  2
AecDbDispPropsSlabPlan
  3
AecArchBase50|Product Desc: Autodesk Architectural Desktop 2007 |Company: Autodesk,Inc. |WEB Address: www.autodesk.com
 90
      129
 91
        0
280
     0
281
     0
  0
CLASS
  1
AEC_DISP_PROPS_LAYOUT_GRID2D
  2
AecDbDispPropsLayoutGrid2d
  3
AecBase50|Product Desc: Autodesk Architectural Desktop 2007 |Company: Autodesk,Inc. |WEB Address: www.autodesk.com
 90
      129
 91
        0
280
     0
281
     0
  0
CLASS
  1
AEC_DISP_ROPS_STAIR_PLAN_100
  2
AecDbDispPropsStairPlan100
  3
AecArchDACHBase50|Product Desc: Autodesk Architectural Desktop 2007 |Company: Autodesk,Inc. |WEB Address: www.autodesk.com
 90
      129
 91
        0
280
     0
281
     0
  0
CLASS
  1
AEC_DISP_ROPS_STAIR_PLAN_50
  2
AecDbDispPropsStairPlan50
  3
AecArchDACHBase50|Product Desc: Autodesk Architectural Desktop 2007 |Company: Autodesk,Inc. |WEB Address: www.autodesk.com
 90
      129
 91
        0
280
     0
281
     0
  0
CLASS
  1
AEC_DISP_PROPS_WINDOW_PLAN_100
  2
AecDbDispPropsWindowPlan100
  3
AecArchDACHBase50|Product Desc: Autodesk Architectural Desktop 2007 |Company: Autodesk,Inc. |WEB Address: www.autodesk.com
 90
      129
 91
        0
280
     0
281
     0
  0
CLASS
  1
AEC_DISP_PROPS_WINDOW_PLAN_50
  2
AecDbDispPropsWindowPlan50
  3
AecArchDACHBase50|Product Desc: Autodesk Architectural Desktop 2007 |Company: Autodesk,Inc. |WEB Address: www.autodesk.com
 90
      129
 91
        0
280
     0
281
     0
  0
CLASS
  1
AEC_DISP_PROPS_SCHEDULE_TABLE
  2
AecDbDispPropsScheduleTable
  3
AecSchedule50|Product Desc: Autodesk Architectural Desktop 2007 |Company: Autodesk,Inc. |WEB Address: www.autodesk.com
 90
      129
 91
        0
280
     0
281
     0
  0
CLASS
  1
AEC_DISP_PROPS_GRID_ASSEMBLY_PLAN
  2
AecDbDispPropsGridAssemblyPlan
  3
AecArchBase50|Product Desc: Autodesk Architectural Desktop 2007 |Company: Autodesk,Inc. |WEB Address: www.autodesk.com
 90
      129
 91
        0
280
     0
281
     0
  0
CLASS
  1
AEC_DISP_PROPS_CLIP_VOLUME_RESULT
  2
AecDbDispPropsClipVolResSubDiv
  3
AecBase50|Product Desc: Autodesk Architectural Desktop 2007 |Company: Autodesk,Inc. |WEB Address: www.autodesk.com
 90
      129
 91
        0
280
     0
281
     0
  0
CLASS
  1
AEC_DISP_PROPS_DISPLAYTHEME
  2
AecDbDispPropsDisplayTheme
  3
AecBase50|Product Desc: Autodesk Architectural Desktop 2007 |Company: Autodesk,Inc. |WEB Address: www.autodesk.com
 90
      129
 91
        0
280
     0
281
     0
  0
CLASS
  1
AEC_DISP_PROPS_EDITINPLACEPROFILE_MODEL
  2
AecDbDispPropsEditInPlaceProfile
  3
AecBase50|Product Desc: Autodesk Architectural Desktop 2007 |Company: Autodesk,Inc. |WEB Address: www.autodesk.com
 90
      129
 91
        0
280
     0
281
     0
  0
CLASS
  1
AEC_DISP_PROPS_ENT_REF
  2
AecDbDispPropsEntRef
  3
AecBase50|Product Desc: Autodesk Architectural Desktop 2007 |Company: Autodesk,Inc. |WEB Address: www.autodesk.com
 90
      129
 91
        0
280
     0
281
     0
  0
CLASS
  1
AEC_DISP_PROPS_CLIP_VOLUME
  2
AecDbDispPropsClipVol
  3
AecBase50|Product Desc: Autodesk Architectural Desktop 2007 |Company: Autodesk,Inc. |WEB Address: www.autodesk.com
 90
      129
 91
        0
280
     0
281
     0
  0
CLASS
  1
AEC_DISP_PROPS_LAYOUT_CURVE
  2
AecDbDispPropsLayoutCurve
  3
AecBase50|Product Desc: Autodesk Architectural Desktop 2007 |Company: Autodesk,Inc. |WEB Address: www.autodesk.com
 90
      129
 91
        0
280
     0
281
     0
  0
CLASS
  1
AEC_DISP_PROPS_LAYOUT_GRID3D
  2
AecDbDispPropsLayoutGrid3d
  3
AecBase50|Product Desc: Autodesk Architectural Desktop 2007 |Company: Autodesk,Inc. |WEB Address: www.autodesk.com
 90
      129
 91
        0
280
     0
281
     0
  0
CLASS
  1
AEC_DISP_PROPS_MASKBLOCK
  2
AecDbDispPropsMaskBlock
  3
AecBase50|Product Desc: Autodesk Architectural Desktop 2007 |Company: Autodesk,Inc. |WEB Address: www.autodesk.com
 90
      129
 91
        0
280
     0
281
     0
  0
CLASS
  1
AEC_DISP_PROPS_MATERIAL
  2
AecDbDispPropsMaterial
  3
AecBase50|Product Desc: Autodesk Architectural Desktop 2007 |Company: Autodesk,Inc. |WEB Address: www.autodesk.com
 90
      129
 91
        0
280
     0
281
     0
  0
CLASS
  1
AEC_DISP_PROPS_POLYGON_MODEL
  2
AecDbDispPropsPolygonModel
  3
AecBase50|Product Desc: Autodesk Architectural Desktop 2007 |Company: Autodesk,Inc. |WEB Address: www.autodesk.com
 90
      129
 91
        0
280
     0
281
     0
  0
CLASS
  1
AEC_DISP_PROPS_ZONE
  2
AecDbDispPropsZone
  3
AecArchBase50|Product Desc: Autodesk Architectural Desktop 2007 |Company: Autodesk,Inc. |WEB Address: www.autodesk.com
 90
      129
 91
        0
280
     0
281
     0
  0
CLASS
  1
AEC_DISP_PROPS_SLICE
  2
AecDbDispPropsSlice
  3
AecBase50|Product Desc: Autodesk Architectural Desktop 2007 |Company: Autodesk,Inc. |WEB Address: www.autodesk.com
 90
      129
 91
        0
280
     0
281
     0
  0
CLASS
  1
AEC_DISP_PROPS_WALL_MODEL
  2
AecDbDispPropsWallModel
  3
AecArchBase50|Product Desc: Autodesk Architectural Desktop 2007 |Company: Autodesk,Inc. |WEB Address: www.autodesk.com
 90
      129
 91
        0
280
     0
281
     0
  0
CLASS
  1
AEC_DISP_PROPS_2D_SECTION
  2
AecDbDispProps2dSection
  3
AecBase50|Product Desc: Autodesk Architectural Desktop 2007 |Company: Autodesk,Inc. |WEB Address: www.autodesk.com
 90
      129
 91
        0
280
     0
281
     0
  0
CLASS
  1
AEC_DISP_PROPS_WALL_PLAN
  2
AecDbDispPropsWallPlan
  3
AecArchBase50|Product Desc: Autodesk Architectural Desktop 2007 |Company: Autodesk,Inc. |WEB Address: www.autodesk.com
 90
      129
 91
        0
280
     0
281
     0
  0
CLASS
  1
AEC_DISP_PROPS_ENT
  2
AecDbDispPropsEnt
  3
AecBase50|Product Desc: Autodesk Architectural Desktop 2007 |Company: Autodesk,Inc. |WEB Address: www.autodesk.com
 90
      129
 91
        0
280
     0
281
     0
  0
CLASS
  1
AEC_DISP_PROPS_MASS_ELEM_MODEL
  2
AecDbDispPropsMassElem
  3
AecBaseEx50|Product Desc: Autodesk Architectural Desktop 2007 |Company: Autodesk,Inc. |WEB Address: www.autodesk.com
 90
      129
 91
        0
280
     0
281
     0
  0
CLASS
  1
AEC_DISP_PROPS_MASS_GROUP
  2
AecDbDispPropsMassGroup
  3
AecBaseEx50|Product Desc: Autodesk Architectural Desktop 2007 |Company: Autodesk,Inc. |WEB Address: www.autodesk.com
 90
      129
 91
        0
280
     0
281
     0
  0
CLASS
  1
AEC_DISP_PROPS_GRID_ASSEMBLY_MODEL
  2
AecDbDispPropsGridAssemblyModel
  3
AecArchBase50|Product Desc: Autodesk Architectural Desktop 2007 |Company: Autodesk,Inc. |WEB Address: www.autodesk.com
 90
      129
 91
        0
280
     0
281
     0
  0
CLASS
  1
AEC_DISP_PROPS_DOOR
  2
AecDbDispPropsDoor
  3
AecArchBase50|Product Desc: Autodesk Architectural Desktop 2007 |Company: Autodesk,Inc. |WEB Address: www.autodesk.com
 90
      129
 91
        0
280
     0
281
     0
  0
CLASS
  1
AEC_DISP_PROPS_OPENING
  2
AecDbDispPropsOpening
  3
AecArchBase50|Product Desc: Autodesk Architectural Desktop 2007 |Company: Autodesk,Inc. |WEB Address: www.autodesk.com
 90
      129
 91
        0
280
     0
281
     0
  0
CLASS
  1
AEC_DISP_PROPS_RAILING_MODEL
  2
AecDbDispPropsRailingModel
  3
AecArchBase50|Product Desc: Autodesk Architectural Desktop 2007 |Company: Autodesk,Inc. |WEB Address: www.autodesk.com
 90
      129
 91
        0
280
     0
281
     0
  0
CLASS
  1
AEC_DISP_PROPS_RAILING_PLAN
  2
AecDbDispPropsRailingPlan
  3
AecArchBase50|Product Desc: Autodesk Architectural Desktop 2007 |Company: Autodesk,Inc. |WEB Address: www.autodesk.com
 90
      129
 91
        0
280
     0
281
     0
  0
CLASS
  1
AEC_DISP_PROPS_ROOF
  2
AecDbDispPropsRoof
  3
AecArchBase50|Product Desc: Autodesk Architectural Desktop 2007 |Company: Autodesk,Inc. |WEB Address: www.autodesk.com
 90
      129
 91
        0
280
     0
281
     0
  0
CLASS
  1
AEC_DISP_PROPS_SLAB
  2
AecDbDispPropsSlab
  3
AecArchBase50|Product Desc: Autodesk Architectural Desktop 2007 |Company: Autodesk,Inc. |WEB Address: www.autodesk.com
 90
      129
 91
        0
280
     0
281
     0
  0
CLASS
  1
AEC_DISP_PROPS_ROOFSLAB
  2
AecDbDispPropsRoofSlab
  3
AecArchBase50|Product Desc: Autodesk Architectural Desktop 2007 |Company: Autodesk,Inc. |WEB Address: www.autodesk.com
 90
      129
 91
        0
280
     0
281
     0
  0
CLASS
  1
AEC_DISP_PROPS_ROOFSLAB_PLAN
  2
AecDbDispPropsRoofSlabPlan
  3
AecArchBase50|Product Desc: Autodesk Architectural Desktop 2007 |Company: Autodesk,Inc. |WEB Address: www.autodesk.com
 90
      129
 91
        0
280
     0
281
     0
  0
CLASS
  1
AEC_DISP_PROPS_SPACE_DECOMPOSED
  2
AecDbDispPropsSpaceDecomposed
  3
AecArchBase50|Product Desc: Autodesk Architectural Desktop 2007 |Company: Autodesk,Inc. |WEB Address: www.autodesk.com
 90
      129
 91
        0
280
     0
281
     0
  0
CLASS
  1
AEC_DISP_PROPS_SPACE_MODEL
  2
AecDbDispPropsSpaceModel
  3
AecArchBase50|Product Desc: Autodesk Architectural Desktop 2007 |Company: Autodesk,Inc. |WEB Address: www.autodesk.com
 90
      129
 91
        0
280
     0
281
     0
  0
CLASS
  1
AEC_DISP_PROPS_SPACE_PLAN
  2
AecDbDispPropsSpacePlan
  3
AecArchBase50|Product Desc: Autodesk Architectural Desktop 2007 |Company: Autodesk,Inc. |WEB Address: www.autodesk.com
 90
      129
 91
        0
280
     0
281
     0
  0
CLASS
  1
AEC_DISP_PROPS_WINDOW
  2
AecDbDispPropsWindow
  3
AecArchBase50|Product Desc: Autodesk Architectural Desktop 2007 |Company: Autodesk,Inc. |WEB Address: www.autodesk.com
 90
      129
 91
        0
280
     0
281
     0
  0
CLASS
  1
AECS_DISP_PROPS_MEMBER_PROJECTED
  2
AecsDbDispPropsMemberProjected
  3
AecStructureBase50|Product Desc: Autodesk Architectural Desktop 2007 |Company: Autodesk,Inc. |WEB Address: www.autodesk.com
 90
      129
 91
        0
280
     0
281
     0
  0
CLASS
  1
AECS_DISP_PROPS_MEMBER
  2
AecsDbDispPropsMember
  3
AecStructureBase50|Product Desc: Autodesk Architectural Desktop 2007 |Company: Autodesk,Inc. |WEB Address: www.autodesk.com
 90
      129
 91
        0
280
     0
281
     0
  0
CLASS
  1
AECS_DISP_PROPS_MEMBER_PLAN
  2
AecsDbDispPropsMemberPlan
  3
AecStructureBase50|Product Desc: Autodesk Architectural Desktop 2007 |Company: Autodesk,Inc. |WEB Address: www.autodesk.com
 90
      129
 91
        0
280
     0
281
     0
  0
CLASS
  1
AECS_DISP_PROPS_MEMBER_PLAN_SKETCH
  2
AecsDbDispPropsMemberPlanSketch
  3
AecStructureBase50|Product Desc: Autodesk Architectural Desktop 2007 |Company: Autodesk,Inc. |WEB Address: www.autodesk.com
 90
      129
 91
        0
280
     0
281
     0
  0
CLASS
  1
AEC_DISP_PROPS_STAIR_MODEL
  2
AecDbDispPropsStairModel
  3
AecArchBase50|Product Desc: Autodesk Architectural Desktop 2007 |Company: Autodesk,Inc. |WEB Address: www.autodesk.com
 90
      129
 91
        0
280
     0
281
     0
  0
CLASS
  1
AEC_DISP_PROPS_STAIR_PLAN
  2
AecDbDispPropsStairPlan
  3
AecArchBase50|Product Desc: Autodesk Architectural Desktop 2007 |Company: Autodesk,Inc. |WEB Address: www.autodesk.com
 90
      129
 91
        0
280
     0
281
     0
  0
CLASS
  1
AEC_DISP_PROPS_DIM
  2
AecDbDispPropsDimGroup
  3
AecArchDACHBase50|Product Desc: Autodesk Architectural Desktop 2007 |Company: Autodesk,Inc. |WEB Address: www.autodesk.com
 90
      129
 91
        0
280
     0
281
     0
  0
CLASS
  1
AEC_DISP_PROPS_DOOR_PLAN_50
  2
AecDbDispPropsDoorPlan50
  3
AecArchDACHBase50|Product Desc: Autodesk Architectural Desktop 2007 |Company: Autodesk,Inc. |WEB Address: www.autodesk.com
 90
      129
 91
        0
280
     0
281
     0
  0
CLASS
  1
AEC_DISP_PROPS_DOOR_PLAN_100
  2
AecDbDispPropsDoorPlan100
  3
AecArchDACHBase50|Product Desc: Autodesk Architectural Desktop 2007 |Company: Autodesk,Inc. |WEB Address: www.autodesk.com
 90
      129
 91
        0
280
     0
281
     0
  0
CLASS
  1
AEC_DISP_PROPS_DOOR_THRESHOLD_SYMBOL_PLAN
  2
AecDbDispPropsDoorThresholdSymbolPlan
  3
AecArchDACHBase50|Product Desc: Autodesk Architectural Desktop 2007 |Company: Autodesk,Inc. |WEB Address: www.autodesk.com
 90
      129
 91
        0
280
     0
281
     0
  0
CLASS
  1
AEC_DISPROPSMASSELEMPLANCOMMON
  2
AecDbDispPropsMassElemPlanCommon
  3
AecArchDACHBase50|Product Desc: Autodesk Architectural Desktop 2007 |Company: Autodesk,Inc. |WEB Address: www.autodesk.com
 90
      129
 91
        0
280
     0
281
     0
  0
CLASS
  1
AEC_DISPROPSMASSGROUPPLANCOMMON
  2
AecDbDispPropsMassGroupPlanCommon
  3
AecArchDACHBase50|Product Desc: Autodesk Architectural Desktop 2007 |Company: Autodesk,Inc. |WEB Address: www.autodesk.com
 90
      129
 91
        0
280
     0
281
     0
  0
CLASS
  1
AEC_DISPROPSOPENINGPLANCOMMONHATCHED
  2
AecDbDispPropsOpeningPlanCommonHatched
  3
AecArchDACHBase50|Product Desc: Autodesk Architectural Desktop 2007 |Company: Autodesk,Inc. |WEB Address: www.autodesk.com
 90
      129
 91
        0
280
     0
281
     0
  0
CLASS
  1
AEC_DISPROPSOPENINGPLANCOMMON
  2
AecDbDispPropsOpeningPlanCommon
  3
AecArchDACHBase50|Product Desc: Autodesk Architectural Desktop 2007 |Company: Autodesk,Inc. |WEB Address: www.autodesk.com
 90
      129
 91
        0
280
     0
281
     0
  0
CLASS
  1
AEC_DISPROPSOPENINGSILLPLAN
  2
AecDbDispPropsOpeningSillPlan
  3
AecArchDACHBase50|Product Desc: Autodesk Architectural Desktop 2007 |Company: Autodesk,Inc. |WEB Address: www.autodesk.com
 90
      129
 91
        0
280
     0
281
     0
  0
CLASS
  1
AEC_DISP_ROPS_RAILING_PLAN_100
  2
AecDbDispPropsRailingPlan100
  3
AecArchDACHBase50|Product Desc: Autodesk Architectural Desktop 2007 |Company: Autodesk,Inc. |WEB Address: www.autodesk.com
 90
      129
 91
        0
280
     0
281
     0
  0
CLASS
  1
AEC_DISP_ROPS_RAILING_PLAN_50
  2
AecDbDispPropsRailingPlan50
  3
AecArchDACHBase50|Product Desc: Autodesk Architectural Desktop 2007 |Company: Autodesk,Inc. |WEB Address: www.autodesk.com
 90
      129
 91
        0
280
     0
281
     0
  0
CLASS
  1
AEC_VARS_DWG_SETUP
  2
AecDbVarsDwgSetup
  3
AecBase50|Product Desc: Autodesk Architectural Desktop 2007 |Company: Autodesk,Inc. |WEB Address: www.autodesk.com
 90
      129
 91
        0
280
     0
281
     0
  0
CLASS
  1
FIELDLIST
  2
AcDbFieldList
  3
ObjectDBX Classes
 90
     1152
 91
        1
280
     0
281
     0
  0
CLASS
  1
AEC_NOTIFICATION_TRACKER
  2
AecDbNotificationTracker
  3
AecBase50|Product Desc: Autodesk Architectural Desktop 2007 |Company: Autodesk,Inc. |WEB Address: www.autodesk.com
 90
      129
 91
        0
280
     0
281
     0
  0
CLASS
  1
NPOCOLLECTION
  2
AcDbImpNonPersistentObjectsCollection
  3
ObjectDBX Classes
 90
     1153
 91
        1
280
     0
281
     0
  0
CLASS
  1
AEC_DISP_REP_ANCHOR_TAG_TO_ENT
  2
AecDbDispRepAnchorTagToEnt
  3
AecScheduleData50|Product Desc: Autodesk Architectural Desktop 2007 |Company: Autodesk,Inc. |WEB Address: www.autodesk.com
 90
      129
 91
        0
280
     0
281
     0
  0
CLASS
  1
AEC_DISP_REP_ANCHOR_EXT_TAG_TO_ENT
  2
AecDbDispRepAnchorExtendedTagToEnt
  3
AecScheduleData50|Product Desc: Autodesk Architectural Desktop 2007 |Company: Autodesk,Inc. |WEB Address: www.autodesk.com
 90
      129
 91
        0
280
     0
281
     0
  0
CLASS
  1
AEC_DISP_REP_DOOR_NOMINAL
  2
AecDbDispRepDoorNominal
  3
AecArchBase50|Product Desc: Autodesk Architectural Desktop 2007 |Company: Autodesk,Inc. |WEB Address: www.autodesk.com
 90
      129
 91
        0
280
     0
281
     0
  0
CLASS
  1
AEC_DISP_PROPS_DOOR_NOMINAL
  2
AecDbDispPropsDoorNominal
  3
AecArchBase50|Product Desc: Autodesk Architectural Desktop 2007 |Company: Autodesk,Inc. |WEB Address: www.autodesk.com
 90
      129
 91
        0
280
     0
281
     0
  0
CLASS
  1
AEC_DISP_REP_DOOR_THRESHOLD_PLAN
  2
AecDbDispRepDoorThresholdPlan
  3
AecArchBase50|Product Desc: Autodesk Architectural Desktop 2007 |Company: Autodesk,Inc. |WEB Address: www.autodesk.com
 90
      129
 91
        0
280
     0
281
     0
  0
CLASS
  1
AEC_DISP_PROPS_DOOR_THRESHOLD_PLAN
  2
AecDbDispPropsDoorThresholdPlan
  3
AecArchBase50|Product Desc: Autodesk Architectural Desktop 2007 |Company: Autodesk,Inc. |WEB Address: www.autodesk.com
 90
      129
 91
        0
280
     0
281
     0
  0
CLASS
  1
AEC_DISP_REP_SPACE_VOLUME
  2
AecDbDispRepSpaceVolume
  3
AecArchBase50|Product Desc: Autodesk Architectural Desktop 2007 |Company: Autodesk,Inc. |WEB Address: www.autodesk.com
 90
      129
 91
        0
280
     0
281
     0
  0
CLASS
  1
AEC_DISP_REP_STAIR_PLAN_OVERLAPPING
  2
AecDbDispRepStairPlanOverlapping
  3
AecArchBase50|Product Desc: Autodesk Architectural Desktop 2007 |Company: Autodesk,Inc. |WEB Address: www.autodesk.com
 90
      129
 91
        0
280
     0
281
     0
  0
CLASS
  1
AEC_DISP_PROPS_STAIR_PLAN_OVERLAPPING
  2
AecDbDispPropsStairPlanOverlapping
  3
AecArchBase50|Product Desc: Autodesk Architectural Desktop 2007 |Company: Autodesk,Inc. |WEB Address: www.autodesk.com
 90
      129
 91
        0
280
     0
281
     0
  0
CLASS
  1
AEC_DISP_REP_WALL_GRAPH
  2
AecDbDispRepWallGraph
  3
AecArchBase50|Product Desc: Autodesk Architectural Desktop 2007 |Company: Autodesk,Inc. |WEB Address: www.autodesk.com
 90
      129
 91
        0
280
     0
281
     0
  0
CLASS
  1
AEC_DISP_PROPS_WALL_GRAPH
  2
AecDbDispPropsWallGraph
  3
AecArchBase50|Product Desc: Autodesk Architectural Desktop 2007 |Company: Autodesk,Inc. |WEB Address: www.autodesk.com
 90
      129
 91
        0
280
     0
281
     0
  0
CLASS
  1
AEC_DISP_REP_WALL_SCHEM
  2
AecDbDispRepWallSchem
  3
AecArchBase50|Product Desc: Autodesk Architectural Desktop 2007 |Company: Autodesk,Inc. |WEB Address: www.autodesk.com
 90
      129
 91
        0
280
     0
281
     0
  0
CLASS
  1
AEC_DISP_PROPS_WALL_SCHEM
  2
AecDbDispPropsWallSchem
  3
AecArchBase50|Product Desc: Autodesk Architectural Desktop 2007 |Company: Autodesk,Inc. |WEB Address: www.autodesk.com
 90
      129
 91
        0
280
     0
281
     0
  0
CLASS
  1
AEC_DISP_REP_WINDOWASSEMBLY_SILL_PLAN
  2
AecDbDispRepWindowAssemblySillPlan
  3
AecArchBase50|Product Desc: Autodesk Architectural Desktop 2007 |Company: Autodesk,Inc. |WEB Address: www.autodesk.com
 90
      129
 91
        0
280
     0
281
     0
  0
CLASS
  1
AEC_DISP_PROPS_WINDOW_ASSEMBLY_SILL_PLAN
  2
AecDbDispPropsWindowAssemblySillPlan
  3
AecArchBase50|Product Desc: Autodesk Architectural Desktop 2007 |Company: Autodesk,Inc. |WEB Address: www.autodesk.com
 90
      129
 91
        0
280
     0
281
     0
  0
CLASS
  1
AEC_DISP_REP_WINDOW_NOMINAL
  2
AecDbDispRepWindowNominal
  3
AecArchBase50|Product Desc: Autodesk Architectural Desktop 2007 |Company: Autodesk,Inc. |WEB Address: www.autodesk.com
 90
      129
 91
        0
280
     0
281
     0
  0
CLASS
  1
AEC_DISP_PROPS_WINDOW_NOMINAL
  2
AecDbDispPropsWindowNominal
  3
AecArchBase50|Product Desc: Autodesk Architectural Desktop 2007 |Company: Autodesk,Inc. |WEB Address: www.autodesk.com
 90
      129
 91
        0
280
     0
281
     0
  0
CLASS
  1
AEC_DISP_REP_WINDOW_SILL_PLAN
  2
AecDbDispRepWindowSillPlan
  3
AecArchBase50|Product Desc: Autodesk Architectural Desktop 2007 |Company: Autodesk,Inc. |WEB Address: www.autodesk.com
 90
      129
 91
        0
280
     0
281
     0
  0
CLASS
  1
AEC_DISP_PROPS_WINDOW_SILL_PLAN
  2
AecDbDispPropsWindowSillPlan
  3
AecArchBase50|Product Desc: Autodesk Architectural Desktop 2007 |Company: Autodesk,Inc. |WEB Address: www.autodesk.com
 90
      129
 91
        0
280
     0
281
     0
  0
CLASS
  1
AECS_DISP_REP_MEMBER_ELEVATION_DETAIL
  2
AecsDbDispRepMemberElevationDetail
  3
AecStructureBase50|Product Desc: Autodesk Architectural Desktop 2007 |Company: Autodesk,Inc. |WEB Address: www.autodesk.com
 90
      129
 91
        0
280
     0
281
     0
  0
CLASS
  1
AECS_DISP_REP_MEMBER_LOGICAL
  2
AecsDbDispRepMemberLogical
  3
AecStructureBase50|Product Desc: Autodesk Architectural Desktop 2007 |Company: Autodesk,Inc. |WEB Address: www.autodesk.com
 90
      129
 91
        0
280
     0
281
     0
  0
CLASS
  1
AECS_DISP_PROPS_MEMBER_LOGICAL
  2
AecsDbDispPropsMemberLogical
  3
AecStructureBase50|Product Desc: Autodesk Architectural Desktop 2007 |Company: Autodesk,Inc. |WEB Address: www.autodesk.com
 90
      129
 91
        0
280
     0
281
     0
  0
CLASS
  1
AEC_DISP_REP_ANCHOR
  2
AecDbDispRepAnchor
  3
AecBase50|Product Desc: Autodesk Architectural Desktop 2007 |Company: Autodesk,Inc. |WEB Address: www.autodesk.com
 90
      129
 91
        0
280
     0
281
     0
  0
CLASS
  1
AEC_DISP_REP_POLYGON_TRUECOLOUR
  2
AecDbDispRepPolygonTrueColour
  3
AecBase50|Product Desc: Autodesk Architectural Desktop 2007 |Company: Autodesk,Inc. |WEB Address: www.autodesk.com
 90
      129
 91
        0
280
     0
281
     0
  0
CLASS
  1
AEC_DISP_PROPS_POLYGON_TRUECOLOUR
  2
AecDbDispPropsPolygonTrueColour
  3
AecBase50|Product Desc: Autodesk Architectural Desktop 2007 |Company: Autodesk,Inc. |WEB Address: www.autodesk.com
 90
      129
 91
        0
280
     0
281
     0
  0
CLASS
  1
CELLSTYLEMAP
  2
AcDbCellStyleMap
  3
ObjectDBX Classes
 90
     1152
 91
        9
280
     0
281
     0
  0
CLASS
  1
DICTIONARYVAR
  2
AcDbDictionaryVar
  3
ObjectDBX Classes
 90
        0
 91
        7
280
     0
281
     0
  0
CLASS
  1
PLOTSETTINGS
  2
AcDbPlotSettings
  3
ObjectDBX Classes
 90
        0
 91
       11
280
     0
281
     0
  0
CLASS
  1
DMMAPMANAGER
  2
AcMapDMMapManager
  3
AcMapDisplayManagement
 90
     1024
 91
        2
280
     0
281
     0
  0
CLASS
  1
DMSTYLELIBRARY
  2
AcMapDMStyleLibrary
  3
AcMapDisplayManagement
 90
     1024
 91
        2
280
     0
281
     0
  0
CLASS
  1
DMSTYLECATEGORY
  2
AcMapDMStyleCategory
  3
AcMapDisplayManagement
 90
     1024
 91
        2
280
     0
281
     0
  0
CLASS
  1
DATATABLE
  2
AcDbDataTable
  3
ObjectDBX Classes
 90
        0
 91
        1
280
     0
281
     0
  0
CLASS
  1
DMMAP
  2
AcMapDMMap
  3
AcMapDisplayManagement
 90
     1024
 91
        2
280
     0
281
     0
  0
CLASS
  1
DMBASEELEMENT
  2
AcMapDMBaseElement
  3
AcMapDisplayManagement
 90
     1024
 91
        2
280
     0
281
     0
  0
CLASS
  1
DMDEFAULTSTYLE
  2
AcMapDMDefaultStyle
  3
AcMapDisplayManagement
 90
     1024
 91
        2
280
     0
281
     0
  0
CLASS
  1
DMSTYLEREFERENCE
  2
AcMapDMStyleReference
  3
AcMapDisplayManagement
 90
     1024
 91
        2
280
     0
281
     0
  0
CLASS
  1
DMSURROGATESTYLESETS
  2
AcMapDMSurrogateStyleSets
  3
AcMapDisplayManagement
 90
     1153
 91
        2
280
     0
281
     0
  0
CLASS
  1
DMSTYLIZEDENTITIESTABLE
  2
AcMapDMStylizedEntitiesTable
  3
AcMapDisplayManagement
 90
     1024
 91
        2
280
     0
281
     0
  0
CLASS
  1
MAPGWSUNDOOBJECT
  2
AcMapGWSUndoRecorder
  3
AcMapFeatureSourceManager
 90
     1025
 91
        0
280
     0
281
     0
  0
CLASS
  1
EXACXREFPANELOBJECT
  2
ExAcXREFPanelObject
  3
EXAC_ESW
 90
     1025
 91
        1
280
     0
281
     0
  0
CLASS
  1
MULTILEADER
  2
AcDbMLeader
  3
ACDB_MLEADER_CLASS
 90
     1025
 91
        0
280
     0
281
     1
  0
CLASS
  1
ACDB_MLEADEROBJECTCONTEXTDATA_CLASS
  2
AcDbMLeaderObjectContextData
  3
ObjectDBX Classes
 90
     1153
 91
        0
280
     0
281
     0
  0
CLASS
  1
EXACTERMXREFMAP
  2
ExAcTermXrefMap
  3
EXAC_SERVICE
 90
     1025
 91
        0
280
     0
281
     0
  0
CLASS
  1
AEC_LAYERKEY_STYLE
  2
AecDbLayerKeyStyle
  3
AecBase50|Product Desc: Autodesk Architectural Desktop 2007 |Company: Autodesk,Inc. |WEB Address: www.autodesk.com
 90
      129
 91
        0
280
     0
281
     0
  0
CLASS
  1
AEC_VARS_ARCHBASE
  2
AecDbVarsArchBase
  3
AecArchBase50|Product Desc: Autodesk Architectural Desktop 2007 |Company: Autodesk,Inc. |WEB Address: www.autodesk.com
 90
      129
 91
        0
280
     0
281
     0
  0
CLASS
  1
AEC_VARS_MUNICH
  2
AecDbVarsMunich
  3
AecArchDACHBase50|Product Desc: Autodesk Architectural Desktop 2007 |Company: Autodesk,Inc. |WEB Address: www.autodesk.com
 90
      129
 91
        0
280
     0
281
     0
  0
CLASS
  1
BINRECORD
  2
AcAecBinRecord
  3
AecBase50|Product Desc: Autodesk Architectural Desktop 2007 |Company: Autodesk,Inc. |WEB Address: www.autodesk.com
 90
      129
 91
        1
280
     0
281
     0
  0
CLASS
  1
ACDB_ALDIMOBJECTCONTEXTDATA_CLASS
  2
AcDbAlignedDimensionObjectContextData
  3
ObjectDBX Classes
 90
     1153
 91
        6
280
     0
281
     0
  0
CLASS
  1
DIMASSOC
  2
AcDbDimAssoc
  3
"AcDbDimAssoc|Product Desc:     AcDim ARX App For Dimension|Company:          Autodesk, Inc.|WEB Address:      www.autodesk.com"
 90
        0
 91
        6
280
     0
281
     0
  0
ENDSEC
  0
SECTION
  2
TABLES
  0
TABLE
  2
VPORT
  5
8
330
0
100
AcDbSymbolTable
 70
     1
  0
VPORT
  5
5F
330
8
100
AcDbSymbolTableRecord
100
AcDbViewportTableRecord
  2
*Active
 70
     0
 10
0.0
 20
0.0
 11
1.0
 21
1.0
 12
324.2444896594331
 22
37.23706057964296
 13
0.0
 23
0.0
 14
10.0
 24
10.0
 15
10.0
 25
10.0
 16
0.0
 26
0.0
 36
1.0
 17
0.0
 27
0.0
 37
0.0
 40
16.77340612927103
 41
1.747451868629671
 42
50.0
 43
0.0
 44
0.0
 50
0.0
 51
0.0
 71
     0
 72
  1000
 73
     1
 74
     3
 75
     0
 76
     0
 77
     0
 78
     0
281
     0
 65
     1
110
0.0
120
0.0
130
0.0
111
1.0
121
0.0
131
0.0
112
0.0
122
1.0
132
0.0
 79
     0
146
0.0
  0
ENDTAB
  0
TABLE
  2
LTYPE
  5
5
330
0
100
AcDbSymbolTable
 70
     5
  0
LTYPE
  5
63
330
5
100
AcDbSymbolTableRecord
100
AcDbLinetypeTableRecord
  2
ByBlock
 70
     0
  3

 72
    65
 73
     0
 40
0.0
  0
LTYPE
  5
64
330
5
100
AcDbSymbolTableRecord
100
AcDbLinetypeTableRecord
  2
ByLayer
 70
     0
  3

 72
    65
 73
     0
 40
0.0
  0
LTYPE
  5
65
330
5
100
AcDbSymbolTableRecord
100
AcDbLinetypeTableRecord
  2
Continuous
 70
     0
  3
Solid line
 72
    65
 73
     0
 40
0.0
  0
LTYPE
  5
252
330
5
100
AcDbSymbolTableRecord
100
AcDbLinetypeTableRecord
  2
0TERME
 70
     0
  3
Terme- + - + - +
 72
    65
 73
     5
 40
7.0
 49
2.0
 74
     0
 49
-1.5
 74
     0
 49
1.0
 74
     4
 75
   135
340
256
 46
1.0
 50
0.0
 44
0.0
 45
0.0
 49
1.0
 74
     0
 49
-1.5
 74
     0
  0
LTYPE
  5
253
330
5
100
AcDbSymbolTableRecord
100
AcDbLinetypeTableRecord
  2
FLECHA
 70
     0
  3
flecha gravetat
 72
    65
 73
     3
 40
22.475948
 49
5.618987
 74
     4
 75
     1
340
257
 46
1.0
 50
0.0
 44
0.0
 45
0.0
 49
11.237974
 74
     4
 75
     1
340
257
 46
1.0
 50
0.0
 44
0.0
 45
0.0
 49
5.618987
 74
     0
  0
LTYPE
  5
254
330
5
100
AcDbSymbolTableRecord
100
AcDbLinetypeTableRecord
  2
TRAZO_Y_PUNTO
 70
     0
  3
trazo medio, punto __ . __ . __ . __ . __ . __ 
 72
    65
 73
     4
 40
1.0
 49
0.5
 74
     0
 49
-0.25
 74
     0
 49
0.0
 74
     0
 49
-0.25
 74
     0
  0
LTYPE
  5
255
330
5
100
AcDbSymbolTableRecord
100
AcDbLinetypeTableRecord
  2
TRAZOS
 70
     0
  3
trazos medios __ __ __ __ __ __ __ __ __ __ __ 
 72
    65
 73
     2
 40
0.75
 49
0.5
 74
     0
 49
-0.25
 74
     0
  0
ENDTAB
  0
TABLE
  2
LAYER
  5
2
102
{ACAD_XDICTIONARY
360
11E
102
}
330
0
100
AcDbSymbolTable
 70
    35
  0
LAYER
  5
5C
330
2
100
AcDbSymbolTableRecord
100
AcDbLayerTableRecord
  2
0
 70
     0
 62
     7
  6
Continuous
370
    -3
390
F
  0
LAYER
  5
7F
330
2
100
AcDbSymbolTableRecord
100
AcDbLayerTableRecord
  2
Defpoints
 70
     0
 62
     7
  6
Continuous
290
     0
370
    -3
390
F
  0
LAYER
  5
EE
330
2
100
AcDbSymbolTableRecord
100
AcDbLayerTableRecord
  2
(0)-L-TEXTE
 70
     0
 62
     3
  6
Continuous
370
    -3
390
F
1001
RAK
1000
{ACET-LAYISO
1070
     0
1070
     3
1000
Continuous
1071
       -3
1071
        1
1005
F
1000
ACET-LAYISO}
  0
LAYER
  5
EF
330
2
100
AcDbSymbolTableRecord
100
AcDbLayerTableRecord
  2
(0)-PESENTACIO
 70
     0
 62
     7
  6
Continuous
370
    -3
390
F
1001
RAK
1000
{ACET-LAYISO
1070
     0
1070
     7
1000
Continuous
1071
       -3
1071
        1
1005
F
1000
ACET-LAYISO}
  0
LAYER
  5
28C
330
2
100
AcDbSymbolTableRecord
100
AcDbLayerTableRecord
  2
(0)-CAIXETI
 70
     0
 62
     7
  6
Continuous
370
    -3
390
F
  0
LAYER
  5
28D
330
2
100
AcDbSymbolTableRecord
100
AcDbLayerTableRecord
  2
(0)-FULLS
 70
     0
 62
     4
  6
TRAZOS
370
    -3
390
F
1001
RAK
1000
{ACET-LAYISO
1070
     0
1070
     4
1000
TRAZOS
1071
       -3
1071
        1
1005
F
1000
ACET-LAYISO}
  0
LAYER
  5
28E
330
2
100
AcDbSymbolTableRecord
100
AcDbLayerTableRecord
  2
(0)-L-AUX
 70
     0
 62
     8
  6
Continuous
370
    -3
390
F
1001
RAK
1000
{ACET-LAYISO
1070
     0
1070
     8
1000
Continuous
1071
       -3
1071
        1
1005
F
1000
ACET-LAYISO}
  0
LAYER
  5
28F
330
2
100
AcDbSymbolTableRecord
100
AcDbLayerTableRecord
  2
(0)-L-CLAV
 70
     0
 62
   251
  6
Continuous
370
    40
390
F
1001
AcAecLayerStandard
1000

1000

1001
RAK
1000
{ACET-LAYISO
1070
     0
1070
  -251
1000
Continuous
1071
       40
1071
        1
1005
F
1000
ACET-LAYISO}
  0
LAYER
  5
290
330
2
100
AcDbSymbolTableRecord
100
AcDbLayerTableRecord
  2
(0)-L-COTES
 70
     0
 62
     1
  6
Continuous
370
    -3
390
F
1001
RAK
1000
{ACET-LAYISO
1070
     0
1070
     1
1000
Continuous
1071
       -3
1071
        1
1005
F
1000
ACET-LAYISO}
  0
LAYER
  5
291
330
2
100
AcDbSymbolTableRecord
100
AcDbLayerTableRecord
  2
(0)-L-DEMOLICIONS
 70
     0
 62
    41
  6
Continuous
370
    -3
390
F
1001
AcAecLayerStandard
1000

1000

  0
LAYER
  5
292
330
2
100
AcDbSymbolTableRecord
100
AcDbLayerTableRecord
  2
(0)-L-EIX
 70
     0
 62
     8
  6
TRAZO_Y_PUNTO
370
    -3
390
F
1001
RAK
1000
{ACET-LAYISO
1070
     0
1070
     8
1000
TRAZO_Y_PUNTO
1071
       -3
1071
        1
1005
F
1000
ACET-LAYISO}
  0
LAYER
  5
293
330
2
100
AcDbSymbolTableRecord
100
AcDbLayerTableRecord
  2
(0)-L-EXISTENT-SECCIONADA
 70
     0
 62
   251
  6
Continuous
370
    40
390
F
1001
AcAecLayerStandard
1000

1000

  0
LAYER
  5
294
330
2
100
AcDbSymbolTableRecord
100
AcDbLayerTableRecord
  2
(0)-L-EXISTENT-VISTA
 70
     0
 62
   253
  6
Continuous
370
    15
390
F
1001
AcAecLayerStandard
1000

1000

  0
LAYER
  5
295
330
2
100
AcDbSymbolTableRecord
100
AcDbLayerTableRecord
  2
(0)-L-FERRO
 70
     0
 62
   150
  6
Continuous
370
    -3
390
F
1001
AcAecLayerStandard
1000

1000

  0
LAYER
  5
296
330
2
100
AcDbSymbolTableRecord
100
AcDbLayerTableRecord
  2
(0)-L-FLETXES
 70
     0
 62
     3
  6
FLECHA
370
    -3
390
F
1001
RAK
1000
{ACET-LAYISO
1070
     0
1070
     3
1000
FLECHA
1071
       -3
1071
        1
1005
F
1000
ACET-LAYISO}
  0
LAYER
  5
297
330
2
100
AcDbSymbolTableRecord
100
AcDbLayerTableRecord
  2
(0)-L-INSTAL
 70
     0
 62
     3
  6
Continuous
370
    -3
390
F
1001
RAK
1000
{ACET-LAYISO
1070
     0
1070
     3
1000
Continuous
1071
       -3
1071
        1
1005
F
1000
ACET-LAYISO}
  0
LAYER
  5
298
330
2
100
AcDbSymbolTableRecord
100
AcDbLayerTableRecord
  2
(0)-L-MOB
 70
     0
 62
     8
  6
Continuous
370
    -3
390
F
1001
RAK
1000
{ACET-LAYISO
1070
     0
1070
     8
1000
Continuous
1071
       -3
1071
        1
1005
F
1000
ACET-LAYISO}
  0
LAYER
  5
299
330
2
100
AcDbSymbolTableRecord
100
AcDbLayerTableRecord
  2
(0)-L-NCLAV-TRAM-PILO
 70
     0
 62
     8
  6
Continuous
370
    -3
390
F
1001
AcAecLayerStandard
1000

1000

1001
RAK
1000
{ACET-LAYISO
1070
     0
1070
    -8
1000
Continuous
1071
       -3
1071
        1
1005
F
1000
ACET-LAYISO}
  0
LAYER
  5
29A
330
2
100
AcDbSymbolTableRecord
100
AcDbLayerTableRecord
  2
(0)-L-NOTA
 70
     0
 62
     1
  6
Continuous
370
    -3
390
F
1001
RAK
1000
{ACET-LAYISO
1070
     0
1070
     1
1000
Continuous
1071
       -3
1071
        1
1005
F
1000
ACET-LAYISO}
  0
LAYER
  5
29B
330
2
100
AcDbSymbolTableRecord
100
AcDbLayerTableRecord
  2
(0)-L-OCULTA
 70
     0
 62
     8
  6
TRAZOS
370
    -3
390
F
1001
RAK
1000
{ACET-LAYISO
1070
     0
1070
     1
1000
TRAZOS
1071
       -3
1071
        1
1005
F
1000
ACET-LAYISO}
  0
LAYER
  5
29C
330
2
100
AcDbSymbolTableRecord
100
AcDbLayerTableRecord
  2
(0)-L-PK
 70
     0
 62
     4
  6
Continuous
370
    -3
390
F
1001
AcAecLayerStandard
1000

1000

  0
LAYER
  5
29D
330
2
100
AcDbSymbolTableRecord
100
AcDbLayerTableRecord
  2
(0)-L-PK-TEXTE
 70
     0
 62
     4
  6
Continuous
370
    -3
390
F
1001
RAK
1000
{ACET-LAYISO
1070
     0
1070
     4
1000
Continuous
1071
       -3
1071
        1
1005
F
1000
ACET-LAYISO}
  0
LAYER
  5
29E
330
2
100
AcDbSymbolTableRecord
100
AcDbLayerTableRecord
  2
(0)-L-SECCIONADA
 70
     0
 62
    30
  6
Continuous
370
    -3
390
F
1001
RAK
1000
{ACET-LAYISO
1070
     0
1070
    30
1000
Continuous
1071
       -3
1071
        1
1005
F
1000
ACET-LAYISO}
  0
LAYER
  5
29F
330
2
100
AcDbSymbolTableRecord
100
AcDbLayerTableRecord
  2
(0)-L-TALL
 70
     0
 62
     4
  6
TRAZOS
370
    -3
390
F
1001
RAK
1000
{ACET-LAYISO
1070
     0
1070
     4
1000
TRAZOS
1071
       -3
1071
        1
1005
F
1000
ACET-LAYISO}
  0
LAYER
  5
2A0
330
2
100
AcDbSymbolTableRecord
100
AcDbLayerTableRecord
  2
(0)-L-TERME
 70
     0
 62
     4
  6
0TERME
370
    -3
390
F
1001
RAK
1000
{ACET-LAYISO
1070
     0
1070
     4
1000
0TERME
1071
       -3
1071
        1
1005
F
1000
ACET-LAYISO}
  0
LAYER
  5
2A1
330
2
100
AcDbSymbolTableRecord
100
AcDbLayerTableRecord
  2
(0)-L-TITOL
 70
     0
 62
    30
  6
Continuous
370
    -3
390
F
1001
RAK
1000
{ACET-LAYISO
1070
     0
1070
    30
1000
Continuous
1071
       -3
1071
        1
1005
F
1000
ACET-LAYISO}
  0
LAYER
  5
2A2
330
2
100
AcDbSymbolTableRecord
100
AcDbLayerTableRecord
  2
(0)-L-TRAMA
 70
     0
 62
     8
  6
Continuous
370
    -3
390
F
1001
RAK
1000
{ACET-LAYISO
1070
     0
1070
   252
1000
Continuous
1071
       -3
1071
        1
1005
F
1000
ACET-LAYISO}
  0
LAYER
  5
2A3
330
2
100
AcDbSymbolTableRecord
100
AcDbLayerTableRecord
  2
(0)-L-VISTA
 70
     0
 62
     3
  6
Continuous
370
    -3
390
F
1001
RAK
1000
{ACET-LAYISO
1070
     0
1070
     3
1000
Continuous
1071
       -3
1071
        1
1005
F
1000
ACET-LAYISO}
  0
LAYER
  5
2A4
330
2
100
AcDbSymbolTableRecord
100
AcDbLayerTableRecord
  2
(0)-NCLAV-CUB
 70
     0
 62
   252
  6
Continuous
370
    -3
390
F
1001
AcAecLayerStandard
1000

1000

  0
LAYER
  5
2A5
330
2
100
AcDbSymbolTableRecord
100
AcDbLayerTableRecord
  2
(0)-NCLAV-EIX
 70
     0
 62
     8
  6
TRAZO_Y_PUNTO
370
    -3
390
F
1001
AcAecLayerStandard
1000

1000

  0
LAYER
  5
2A6
330
2
100
AcDbSymbolTableRecord
100
AcDbLayerTableRecord
  2
(0)-NCLAV-PK
 70
     0
 62
     4
  6
Continuous
370
    -3
390
F
1001
AcAecLayerStandard
1000

1000

  0
LAYER
  5
2A7
330
2
100
AcDbSymbolTableRecord
100
AcDbLayerTableRecord
  2
(0)-NCLAV-PK-TXT
 70
     0
 62
     7
  6
Continuous
370
    -3
390
F
1001
AcAecLayerStandard
1000

1000

  0
LAYER
  5
2A8
330
2
100
AcDbSymbolTableRecord
100
AcDbLayerTableRecord
  2
(0)-NCLAV-TRAM
 70
     0
 62
   230
  6
Continuous
370
    -3
390
F
1001
AcAecLayerStandard
1000

1000

  0
LAYER
  5
14CF
330
2
100
AcDbSymbolTableRecord
100
AcDbLayerTableRecord
  2
(0)-TEMPORAL
 70
     0
 62
     6
  6
Continuous
290
     0
370
    -3
390
F
1001
RAK
1000
{ACET-LAYISO
1070
     0
1070
     6
1000
Continuous
1071
       -3
1071
        0
1005
F
1000
ACET-LAYISO}
  0
LAYER
  5
1BB6
330
2
100
AcDbSymbolTableRecord
100
AcDbLayerTableRecord
  2
A-DetailWide-G
 70
     0
 62
    90
  6
Continuous
370
    35
390
F
  0
ENDTAB
  0
TABLE
  2
STYLE
  5
3
330
0
100
AcDbSymbolTable
 70
    11
  0
STYLE
  5
5D
330
3
100
AcDbSymbolTableRecord
100
AcDbTextStyleTableRecord
  2
Standard
 70
     0
 40
0.0
 41
1.0
 50
0.0
 71
     0
 42
2.5
  3
txt
  4

  0
STYLE
  5
62
330
3
100
AcDbSymbolTableRecord
100
AcDbTextStyleTableRecord
  2
Annotative
 70
     0
 40
0.0
 41
1.0
 50
0.0
 71
     0
 42
0.2
  3
@Arial Unicode MS
  4

1001
AcadAnnotative
1000
AnnotativeData
1002
{
1070
     1
1070
     1
1002
}
  0
STYLE
  5
80
330
3
100
AcDbSymbolTableRecord
100
AcDbTextStyleTableRecord
  2
ARIAL
 70
     0
 40
0.0
 41
1.0
 50
0.0
 71
     0
 42
1.0
  3
ARIAL.TTF
  4

1001
ACAD
1000
Arial
1071
       34
  0
STYLE
  5
81
330
3
100
AcDbSymbolTableRecord
100
AcDbTextStyleTableRecord
  2
Arial 3-6mm
 70
     0
 40
6.0
 41
1.0
 50
0.0
 71
     0
 42
3.0
  3
ARIAL.TTF
  4

1001
AcadAnnotative
1000
AnnotativeData
1002
{
1070
     1
1070
     1
1002
}
1001
ACAD
1000
Arial
1071
       34
  0
STYLE
  5
82
330
3
100
AcDbSymbolTableRecord
100
AcDbTextStyleTableRecord
  2
ROMANS
 70
     0
 40
0.0
 41
1.0
 50
0.0
 71
     0
 42
2.5
  3
romans.shx
  4

  0
STYLE
  5
256
330
3
100
AcDbSymbolTableRecord
100
AcDbTextStyleTableRecord
  2

 70
     1
 40
0.0
 41
1.0
 50
0.0
 71
     0
 42
2.5
  3
CLABSALIN.shx
  4

  0
STYLE
  5
257
330
3
100
AcDbSymbolTableRecord
100
AcDbTextStyleTableRecord
  2

 70
     1
 40
0.0
 41
1.0
 50
0.0
 71
     0
 42
2.5
  3
FLECHAS
  4

  0
STYLE
  5
140F
330
3
100
AcDbSymbolTableRecord
100
AcDbTextStyleTableRecord
  2
Arial 1.5-3mm
 70
     0
 40
3.0
 41
1.0
 50
0.0
 71
     0
 42
2.5
  3
ARIAL.TTF
  4

1001
AcadAnnotative
1000
AnnotativeData
1002
{
1070
     1
1070
     1
1002
}
1001
ACAD
1000
Arial
1071
       34
  0
STYLE
  5
1410
330
3
100
AcDbSymbolTableRecord
100
AcDbTextStyleTableRecord
  2
Arial 6-12mm
 70
     0
 40
12.0
 41
1.0
 50
0.0
 71
     0
 42
2.5
  3
ARIAL.TTF
  4

1001
AcadAnnotative
1000
AnnotativeData
1002
{
1070
     1
1070
     1
1002
}
1001
ACAD
1000
Arial
1071
       34
  0
STYLE
  5
1B05
330
3
100
AcDbSymbolTableRecord
100
AcDbTextStyleTableRecord
  2
ROMANC
 70
     0
 40
0.0
 41
1.0
 50
0.0
 71
     0
 42
0.1
  3
romanc
  4

  0
ENDTAB
  0
TABLE
  2
VIEW
  5
6
330
0
100
AcDbSymbolTable
 70
     0
  0
ENDTAB
  0
TABLE
  2
UCS
  5
7
330
0
100
AcDbSymbolTable
 70
     0
  0
ENDTAB
  0
TABLE
  2
APPID
  5
9
330
0
100
AcDbSymbolTable
 70
    18
  0
APPID
  5
5E
330
9
100
AcDbSymbolTableRecord
100
AcDbRegAppTableRecord
  2
ACAD
 70
     0
  0
APPID
  5
66
330
9
100
AcDbSymbolTableRecord
100
AcDbRegAppTableRecord
  2
AcadAnnotative
 70
     0
  0
APPID
  5
70
330
9
100
AcDbSymbolTableRecord
100
AcDbRegAppTableRecord
  2
ACAD_MLEADERVER
 70
     0
  0
APPID
  5
90
330
9
100
AcDbSymbolTableRecord
100
AcDbRegAppTableRecord
  2
ACAD_DSTYLE_DIMBREAK
 70
     0
  0
APPID
  5
91
330
9
100
AcDbSymbolTableRecord
100
AcDbRegAppTableRecord
  2
ACAD_DSTYLE_DIMJAG
 70
     0
  0
APPID
  5
92
330
9
100
AcDbSymbolTableRecord
100
AcDbRegAppTableRecord
  2
ACAD_DSTYLE_DIMTALN
 70
     0
  0
APPID
  5
F0
330
9
100
AcDbSymbolTableRecord
100
AcDbRegAppTableRecord
  2
RAK
 70
     0
  0
APPID
  5
F1
330
9
100
AcDbSymbolTableRecord
100
AcDbRegAppTableRecord
  2
ACAD_PSEXT
 70
     0
  0
APPID
  5
2A9
330
9
100
AcDbSymbolTableRecord
100
AcDbRegAppTableRecord
  2
AcAecLayerStandard
 70
     0
  0
APPID
  5
3A7
330
9
100
AcDbSymbolTableRecord
100
AcDbRegAppTableRecord
  2
AcMapDMDisplayStyleRegapp
 70
     0
  0
APPID
  5
3DC
330
9
100
AcDbSymbolTableRecord
100
AcDbRegAppTableRecord
  2
ADE
 70
     0
  0
APPID
  5
3E1
330
9
100
AcDbSymbolTableRecord
100
AcDbRegAppTableRecord
  2
DCO15
 70
     0
  0
APPID
  5
3E7
330
9
100
AcDbSymbolTableRecord
100
AcDbRegAppTableRecord
  2
ACAD_EXEMPT_FROM_CAD_STANDARDS
 70
     0
  0
APPID
  5
3EE
330
9
100
AcDbSymbolTableRecord
100
AcDbRegAppTableRecord
  2
MapGWS
 70
     0
  0
APPID
  5
140E
330
9
100
AcDbSymbolTableRecord
100
AcDbRegAppTableRecord
  2
AcadAnnoPO
 70
     0
  0
APPID
  5
1B93
330
9
100
AcDbSymbolTableRecord
100
AcDbRegAppTableRecord
  2
AECBASE
 70
     0
  0
APPID
  5
1B94
330
9
100
AcDbSymbolTableRecord
100
AcDbRegAppTableRecord
  2
AEC_OBJVER_INFO
 70
     0
  0
APPID
  5
1B95
330
9
100
AcDbSymbolTableRecord
100
AcDbRegAppTableRecord
  2
AcadAnnoAV
 70
     0
  0
ENDTAB
  0
TABLE
  2
DIMSTYLE
  5
A
330
0
100
AcDbSymbolTable
 70
     5
100
AcDbDimStyleTable
 71
     3
340
8F
340
1B06
340
83
  0
DIMSTYLE
105
83
330
A
100
AcDbSymbolTableRecord
100
AcDbDimStyleTableRecord
  2
Standard
 70
     0
340
5D
  0
DIMSTYLE
105
8F
102
{ACAD_REACTORS
330
1CA5
330
1CB7
330
1CC9
330
1CDC
330
1CEF
330
1E4C
102
}
330
A
100
AcDbSymbolTableRecord
100
AcDbDimStyleTableRecord
  2
Cota Anotativa (A3)
 70
     0
 40
0.3
 41
1.5
 42
1.0
 43
1.0
 44
2.0
 46
1.0
 73
     0
 74
     0
140
3.0
141
0.5
147
1.5
178
   256
179
     2
271
     2
272
     2
279
     2
340
82
342
8B
371
    -1
372
    -1
1001
ACAD_DSTYLE_DIMBREAK
1070
   391
1040
0.125
1001
AcadAnnotative
1000
AnnotativeData
1002
{
1070
     1
1070
     1
1002
}
1001
ACAD_DSTYLE_DIMJAG
1070
   388
1040
0.75
1001
ACAD_DSTYLE_DIMTALN
1070
   392
1070
     0
  0
DIMSTYLE
105
1B06
330
A
100
AcDbSymbolTableRecord
100
AcDbDimStyleTableRecord
  2
MERITXELL
 70
     0
 40
1.5
 41
0.1
 42
0.01
 43
7.0
 44
0.01
 73
     0
 74
     0
 77
     1
140
0.05
141
0.1
146
70.0
172
     1
174
     1
271
     2
272
     2
279
     2
340
1B05
  0
ENDTAB
  0
TABLE
  2
BLOCK_RECORD
  5
1
330
0
100
AcDbSymbolTable
 70
    26
  0
BLOCK_RECORD
  5
75
102
{ACAD_XDICTIONARY
360
1B88
102
}
330
1
100
AcDbSymbolTableRecord
100
AcDbBlockTableRecord
  2
*Model_Space
340
78
  0
BLOCK_RECORD
  5
123
330
1
100
AcDbSymbolTableRecord
100
AcDbBlockTableRecord
  2
*Paper_Space
340
120
  0
BLOCK_RECORD
  5
8B
330
1
100
AcDbSymbolTableRecord
100
AcDbBlockTableRecord
  2
_ArchTick
340
0
310
2800000020000000200000000100080000000000000400000000000000000000000000000000000000000000000080000080000000808000800000008000800080800000C0C0C000C0DCC000F0CAA6000020400000206000002080000020A0000020C0000020E00000400000004020000040400000406000004080000040A0
310
000040C0000040E00000600000006020000060400000606000006080000060A0000060C0000060E00000800000008020000080400000806000008080000080A0000080C0000080E00000A0000000A0200000A0400000A0600000A0800000A0A00000A0C00000A0E00000C0000000C0200000C0400000C0600000C0800000C0
310
A00000C0C00000C0E00000E0000000E0200000E0400000E0600000E0800000E0A00000E0C00000E0E00040000000400020004000400040006000400080004000A0004000C0004000E00040200000402020004020400040206000402080004020A0004020C0004020E000404000004040200040404000404060004040800040
310
40A0004040C0004040E00040600000406020004060400040606000406080004060A0004060C0004060E00040800000408020004080400040806000408080004080A0004080C0004080E00040A0000040A0200040A0400040A0600040A0800040A0A00040A0C00040A0E00040C0000040C0200040C0400040C0600040C08000
310
40C0A00040C0C00040C0E00040E0000040E0200040E0400040E0600040E0800040E0A00040E0C00040E0E00080000000800020008000400080006000800080008000A0008000C0008000E00080200000802020008020400080206000802080008020A0008020C0008020E00080400000804020008040400080406000804080
310
008040A0008040C0008040E00080600000806020008060400080606000806080008060A0008060C0008060E00080800000808020008080400080806000808080008080A0008080C0008080E00080A0000080A0200080A0400080A0600080A0800080A0A00080A0C00080A0E00080C0000080C0200080C0400080C0600080C0
310
800080C0A00080C0C00080C0E00080E0000080E0200080E0400080E0600080E0800080E0A00080E0C00080E0E000C0000000C0002000C0004000C0006000C0008000C000A000C000C000C000E000C0200000C0202000C0204000C0206000C0208000C020A000C020C000C020E000C0400000C0402000C0404000C0406000C0
310
408000C040A000C040C000C040E000C0600000C0602000C0604000C0606000C0608000C060A000C060C000C060E000C0800000C0802000C0804000C0806000C0808000C080A000C080C000C080E000C0A00000C0A02000C0A04000C0A06000C0A08000C0A0A000C0A0C000C0A0E000C0C00000C0C02000C0C04000C0C06000
310
C0C08000C0C0A000F0FBFF00A4A0A000808080000000FF0000FF000000FFFF00FF000000FF00FF00FFFF0000FFFFFF00000000FF000000000000000000000000000000000000000000000000000000000000FF00FF00000000000000000000000000000000000000000000000000000000FF000000FF000000000000000000
310
0000000000000000000000000000000000FF0000000000FF0000000000000000000000000000000000000000000000000000FF0000000000FF0000000000000000000000000000000000000000000000000000FF0000000000FF0000000000000000000000000000000000000000000000000000FF0000000000FF00000000
310
00000000000000000000000000000000000000000000FF0000000000FF0000000000000000000000000000000000000000000000000000FF0000000000FF0000000000000000000000000000000000000000000000000000FF0000000000FF0000000000000000000000000000000000000000000000000000FF0000000000
310
FF0000000000000000000000000000000000000000000000000000FF0000000000FF0000000000000000000000000000000000000000000000000000FF0000000000FF0000000000000000000000000000000000000000000000000000FF0000000000FF0000000000000000000000000000000000000000000000000000FF
310
0000000000FF0000000000000000000000000000000000000000000000000000FF0000000000FF0000000000000000000000000000000000000000000000000000FF0000000000FF0000000000000000000000000000000000000000000000000000FF0000000000FF00000000000000000000000000000000000000000000
310
00000000FF0000000000FF0000000000000000000000000000000000000000000000000000FF0000000000FF0000000000000000000000000000000000000000000000000000FF0000000000FF0000000000000000000000000000000000000000000000000000FF0000000000FF0000000000000000000000000000000000
310
000000000000000000FF0000000000FF0000000000000000000000000000000000000000000000000000FF0000000000FF0000000000000000000000000000000000000000000000000000FF0000000000FF0000000000000000000000000000000000000000000000000000FF0000000000FF000000000000000000000000
310
0000000000000000000000000000FF0000000000FF0000000000000000000000000000000000000000000000000000FF0000000000FF0000000000000000000000000000000000000000000000000000FF0000000000FF0000000000000000000000000000000000000000000000000000FF000000FF000000000000000000
310
00000000000000000000000000000000000000FF00FF000000000000000000000000000000000000000000000000000000000000FF000000
102
{BLKREFS
331
1C48
331
1C49
331
1F19
331
1F1A
331
1F23
331
1F24
331
1F2D
331
1F2E
331
1F37
331
1F38
331
1F41
331
1F42
331
1F4B
331
1F4C
331
1FDA
331
1FDB
331
1FE7
331
1FE8
331
1FF4
331
1FF5
331
2001
331
2002
331
200E
331
200F
331
201B
331
201C
102
}
  0
BLOCK_RECORD
  5
98
102
{ACAD_XDICTIONARY
360
99
102
}
330
1
100
AcDbSymbolTableRecord
100
AcDbBlockTableRecord
  2
NORD
340
0
310
2800000020000000200000000100080000000000000400000000000000000000000000000000000000000000000080000080000000808000800000008000800080800000C0C0C000C0DCC000F0CAA6000020400000206000002080000020A0000020C0000020E00000400000004020000040400000406000004080000040A0
310
000040C0000040E00000600000006020000060400000606000006080000060A0000060C0000060E00000800000008020000080400000806000008080000080A0000080C0000080E00000A0000000A0200000A0400000A0600000A0800000A0A00000A0C00000A0E00000C0000000C0200000C0400000C0600000C0800000C0
310
A00000C0C00000C0E00000E0000000E0200000E0400000E0600000E0800000E0A00000E0C00000E0E00040000000400020004000400040006000400080004000A0004000C0004000E00040200000402020004020400040206000402080004020A0004020C0004020E000404000004040200040404000404060004040800040
310
40A0004040C0004040E00040600000406020004060400040606000406080004060A0004060C0004060E00040800000408020004080400040806000408080004080A0004080C0004080E00040A0000040A0200040A0400040A0600040A0800040A0A00040A0C00040A0E00040C0000040C0200040C0400040C0600040C08000
310
40C0A00040C0C00040C0E00040E0000040E0200040E0400040E0600040E0800040E0A00040E0C00040E0E00080000000800020008000400080006000800080008000A0008000C0008000E00080200000802020008020400080206000802080008020A0008020C0008020E00080400000804020008040400080406000804080
310
008040A0008040C0008040E00080600000806020008060400080606000806080008060A0008060C0008060E00080800000808020008080400080806000808080008080A0008080C0008080E00080A0000080A0200080A0400080A0600080A0800080A0A00080A0C00080A0E00080C0000080C0200080C0400080C0600080C0
310
800080C0A00080C0C00080C0E00080E0000080E0200080E0400080E0600080E0800080E0A00080E0C00080E0E000C0000000C0002000C0004000C0006000C0008000C000A000C000C000C000E000C0200000C0202000C0204000C0206000C0208000C020A000C020C000C020E000C0400000C0402000C0404000C0406000C0
310
408000C040A000C040C000C040E000C0600000C0602000C0604000C0606000C0608000C060A000C060C000C060E000C0800000C0802000C0804000C0806000C0808000C080A000C080C000C080E000C0A00000C0A02000C0A04000C0A06000C0A08000C0A0A000C0A0C000C0A0E000C0C00000C0C02000C0C04000C0C06000
310
C0C08000C0C0A000F0FBFF00A4A0A000808080000000FF0000FF000000FFFF00FF000000FF00FF00FFFF0000FFFFFF0000000000000000000000000000000000000000000000000000000000000000000000000000000000000000000000000000000000000000000000000000000000000000000000000000000000000000
310
00000000000000000000000000000000000000000000000000000000000000FF000000000000000000000000000000000000000000000000000000000000FFFFFF0000000000000000000000000000000000000000000000000000000000FFFFFF0000000000000000000000000000000000000000000000000000000000FF
310
FFFF000000000000000000000000000000000000000000000000000000000000FF000000000000000000000000000000000000000000000000000000000000FFFFFF0000000000000000000000000000000000000000000000000000FFFFFFFFFFFFFFFF0000000000000000000000000000000000000000000000FF00FFFF
310
00FF00FFFFFFFF000000000000000000000000000000000000000000FFFF0000FFFFFF0000FFFFFF00000000000000000000000000000000000000FFFFFFFF00FFFFFFFFFFFFFFFF000000000000000000000000000000000000FFFF00FFFFFFFFFFFFFFFFFF00FF00000000000000000000000000FFFFFF0000FFFF0000FF
310
FFFFFF00FFFF0000FFFF0000000000000000000000FFFFFFFF00FFFF00FFFFFFFFFFFFFFFFFFFFFFFFFFFF00FFFFFF00000000000000FFFFFFFFFFFFFFFFFFFFFFFFFFFFFFFFFFFFFFFFFFFFFFFFFF00000000000000FFFFFF0000FFFFFFFFFFFFFFFFFFFFFFFFFF00FF0000FFFFFF000000000000000000000000FFFF00FF
310
FFFFFFFFFFFFFFFF00FFFF000000000000000000000000000000000000FFFFFFFFFFFFFFFFFFFFFF00FF0000000000000000000000000000000000000000FFFF0000FFFFFF0000FFFFFF0000000000000000000000000000000000000000FFFFFF0000FFFF00FFFFFF00000000000000000000000000000000000000000000
310
FFFFFFFFFFFFFFFF000000000000000000000000000000000000000000000000000000FFFFFF000000000000000000000000000000000000000000000000000000000000FF000000000000000000000000000000000000000000000000000000000000FF00FF00000000000000000000000000000000000000000000000000
310
00000000FFFFFF0000000000000000000000000000000000000000000000000000000000FFFFFF0000000000000000000000000000000000000000000000000000000000FF00FF0000000000000000000000000000000000000000000000000000000000000000000000000000000000000000000000000000000000000000
310
0000000000000000000000000000000000000000000000000000000000000000000000000000000000000000000000000000000000000000
102
{BLKREFS
331
128
102
}
1001
ACAD
1000
DesignCenter Data
1002
{
1070
     1
1070
     6
1002
}
  0
BLOCK_RECORD
  5
C9
102
{ACAD_XDICTIONARY
360
CA
102
}
330
1
100
AcDbSymbolTableRecord
100
AcDbBlockTableRecord
  2
RETOL(2)
340
0
310
2800000020000000200000000100080000000000000400000000000000000000000000000000000000000000000080000080000000808000800000008000800080800000C0C0C000C0DCC000F0CAA6000020400000206000002080000020A0000020C0000020E00000400000004020000040400000406000004080000040A0
310
000040C0000040E00000600000006020000060400000606000006080000060A0000060C0000060E00000800000008020000080400000806000008080000080A0000080C0000080E00000A0000000A0200000A0400000A0600000A0800000A0A00000A0C00000A0E00000C0000000C0200000C0400000C0600000C0800000C0
310
A00000C0C00000C0E00000E0000000E0200000E0400000E0600000E0800000E0A00000E0C00000E0E00040000000400020004000400040006000400080004000A0004000C0004000E00040200000402020004020400040206000402080004020A0004020C0004020E000404000004040200040404000404060004040800040
310
40A0004040C0004040E00040600000406020004060400040606000406080004060A0004060C0004060E00040800000408020004080400040806000408080004080A0004080C0004080E00040A0000040A0200040A0400040A0600040A0800040A0A00040A0C00040A0E00040C0000040C0200040C0400040C0600040C08000
310
40C0A00040C0C00040C0E00040E0000040E0200040E0400040E0600040E0800040E0A00040E0C00040E0E00080000000800020008000400080006000800080008000A0008000C0008000E00080200000802020008020400080206000802080008020A0008020C0008020E00080400000804020008040400080406000804080
310
008040A0008040C0008040E00080600000806020008060400080606000806080008060A0008060C0008060E00080800000808020008080400080806000808080008080A0008080C0008080E00080A0000080A0200080A0400080A0600080A0800080A0A00080A0C00080A0E00080C0000080C0200080C0400080C0600080C0
310
800080C0A00080C0C00080C0E00080E0000080E0200080E0400080E0600080E0800080E0A00080E0C00080E0E000C0000000C0002000C0004000C0006000C0008000C000A000C000C000C000E000C0200000C0202000C0204000C0206000C0208000C020A000C020C000C020E000C0400000C0402000C0404000C0406000C0
310
408000C040A000C040C000C040E000C0600000C0602000C0604000C0606000C0608000C060A000C060C000C060E000C0800000C0802000C0804000C0806000C0808000C080A000C080C000C080E000C0A00000C0A02000C0A04000C0A06000C0A08000C0A0A000C0A0C000C0A0E000C0C00000C0C02000C0C04000C0C06000
310
C0C08000C0C0A000F0FBFF00A4A0A000808080000000FF0000FF000000FFFF00FF000000FF00FF00FFFF0000FFFFFF0000000000000000000000000000000000000000000000000000000000000000000000000000000000000000000000000000000000000000000000000000000000000000000000000000000000000000
310
00000000000000000000000000000000000000000000000000000000000000000000000000000000000000000000000000000000000000000000000000000000000000000000000000000000000000000000000000000000000000000000000000000000000000000000000000000000000000000000000000000000000000
310
00000000000000000000000000000000000000000000000000000000000000000000000000000000000000000000000000000000000000000000000000000000000000000000000000000000000000000000000000FAFAFAFAFAFAFAFAFAFAFAFAFAFAFAFAFAFAFAFAFAFAFAFAFAFAFAFA00000000FA00000000000000FAFA
310
FAFAFAFAFAFAFAFAFAFA00000000000000FA00000000FA00000000000000FAFAFAFAFAFAFAFAFAFAFAFA00000000000000FA00000000FA00000000000000FAFAFAFAFAFAFAFAFAFAFA0000000000000000FA00000000FAFAFA2C2CFAFAFAFAFAFAFAFAFAFAFAFAFAFAFAFAFAFAFAFAFAFAFA000000000000FA00FA00000000
310
000000000000000000000000000000000000000000000000FA00FA0000000000000000000000000000000000000000000000000000000000FA00FA00000000000000000000000000000000000000000000000000000000FA00FA0000000000000000000000000000000000000000000000000000000000FAFA000000000000
310
0000000000000000000000000000000000000000000000FAFA000000000000000000000000000000000000000000000000000000000000FAFA0000000000000000000000000000000000000000000000000000000000FAFA000000000000000000000000000000000000000000000000000000000000FA0000000000000000
310
00000000000000000000000000000000000000000000000000000000000000000000000000000000000000000000000000000000000000000000000000000000000000000000000000000000000000000000000000000000000000000000000000000000000000000000000000000000000000000000000000000000000000
310
00000000000000000000000000000000000000000000000000000000000000000000000000000000000000000000000000000000000000000000000000000000000000000000000000000000000000000000000000000000000000000000000000000000000000000000000000000000000000000000000000000000000000
310
0000000000000000000000000000000000000000000000000000000000000000000000000000000000000000000000000000000000000000
102
{BLKREFS
331
125
102
}
1001
ACAD
1000
DesignCenter Data
1002
{
1070
     1
1070
     6
1002
}
  0
BLOCK_RECORD
  5
142E
330
1
100
AcDbSymbolTableRecord
100
AcDbBlockTableRecord
  2
_DotBlank
340
0
  0
BLOCK_RECORD
  5
1433
330
1
100
AcDbSymbolTableRecord
100
AcDbBlockTableRecord
  2
_DotSmall
340
0
  0
BLOCK_RECORD
  5
15F7
102
{ACAD_XDICTIONARY
360
15F8
102
}
330
1
100
AcDbSymbolTableRecord
100
AcDbBlockTableRecord
  2
CaixTxt2006
340
0
102
{BLKREFS
331
1651
102
}
1001
ACAD
1000
DesignCenter Data
1002
{
1070
     1
1070
     6
1002
}
  0
BLOCK_RECORD
  5
1B32
330
1
100
AcDbSymbolTableRecord
100
AcDbBlockTableRecord
  2
*D6
340
0
  0
BLOCK_RECORD
  5
1B3E
330
1
100
AcDbSymbolTableRecord
100
AcDbBlockTableRecord
  2
*D7
340
0
  0
BLOCK_RECORD
  5
1BBD
330
1
100
AcDbSymbolTableRecord
100
AcDbBlockTableRecord
  2
*D8
340
0
  0
BLOCK_RECORD
  5
1BD0
330
1
100
AcDbSymbolTableRecord
100
AcDbBlockTableRecord
  2
*D9
340
0
  0
BLOCK_RECORD
  5
1BE3
330
1
100
AcDbSymbolTableRecord
100
AcDbBlockTableRecord
  2
*D10
340
0
  0
BLOCK_RECORD
  5
1BFE
330
1
100
AcDbSymbolTableRecord
100
AcDbBlockTableRecord
  2
*D11
340
0
  0
BLOCK_RECORD
  5
1C41
330
1
100
AcDbSymbolTableRecord
100
AcDbBlockTableRecord
  2
*D12
340
0
  0
BLOCK_RECORD
  5
1CAA
330
1
100
AcDbSymbolTableRecord
100
AcDbBlockTableRecord
  2
*D13
340
0
  0
BLOCK_RECORD
  5
1CBC
330
1
100
AcDbSymbolTableRecord
100
AcDbBlockTableRecord
  2
*D14
340
0
  0
BLOCK_RECORD
  5
1CCE
330
1
100
AcDbSymbolTableRecord
100
AcDbBlockTableRecord
  2
*D15
340
0
  0
BLOCK_RECORD
  5
1CE1
330
1
100
AcDbSymbolTableRecord
100
AcDbBlockTableRecord
  2
*D16
340
0
  0
BLOCK_RECORD
  5
1CF4
330
1
100
AcDbSymbolTableRecord
100
AcDbBlockTableRecord
  2
*D17
340
0
  0
BLOCK_RECORD
  5
1E51
330
1
100
AcDbSymbolTableRecord
100
AcDbBlockTableRecord
  2
*D18
340
0
  0
BLOCK_RECORD
  5
1FD3
330
1
100
AcDbSymbolTableRecord
100
AcDbBlockTableRecord
  2
*D20
340
0
  0
BLOCK_RECORD
  5
1FE0
330
1
100
AcDbSymbolTableRecord
100
AcDbBlockTableRecord
  2
*D21
340
0
  0
BLOCK_RECORD
  5
1FED
330
1
100
AcDbSymbolTableRecord
100
AcDbBlockTableRecord
  2
*D22
340
0
  0
BLOCK_RECORD
  5
1FFA
330
1
100
AcDbSymbolTableRecord
100
AcDbBlockTableRecord
  2
*D23
340
0
  0
BLOCK_RECORD
  5
2007
330
1
100
AcDbSymbolTableRecord
100
AcDbBlockTableRecord
  2
*D24
340
0
  0
BLOCK_RECORD
  5
2014
330
1
100
AcDbSymbolTableRecord
100
AcDbBlockTableRecord
  2
*D25
340
0
  0
ENDTAB
  0
ENDSEC
  0
SECTION
  2
BLOCKS
  0
BLOCK
  5
76
330
75
100
AcDbEntity
  8
0
100
AcDbBlockBegin
  2
*Model_Space
 70
     0
 10
0.0
 20
0.0
 30
0.0
  3
*Model_Space
  1

  0
ENDBLK
  5
77
330
75
100
AcDbEntity
  8
0
100
AcDbBlockEnd
  0
BLOCK
  5
13F
330
123
100
AcDbEntity
 67
     1
  8
0
100
AcDbBlockBegin
  2
*Paper_Space
 70
     0
 10
0.0
 20
0.0
 30
0.0
  3
*Paper_Space
  1

  0
ENDBLK
  5
140
330
123
100
AcDbEntity
 67
     1
  8
0
100
AcDbBlockEnd
  0
BLOCK
  5
8C
330
8B
100
AcDbEntity
  8
0
100
AcDbBlockBegin
  2
_ArchTick
 70
     0
 10
0.0
 20
0.0
 30
0.0
  3
_ArchTick
  1

  0
LWPOLYLINE
  5
8D
330
8B
100
AcDbEntity
  8
0
  6
ByBlock
 62
     0
100
AcDbPolyline
 90
        2
 70
     0
 43
0.15
 10
-0.5
 20
-0.5
 10
0.5
 20
0.5
  0
ENDBLK
  5
8E
330
8B
100
AcDbEntity
  8
0
100
AcDbBlockEnd
  0
BLOCK
  5
9B
330
98
100
AcDbEntity
  8
0
100
AcDbBlockBegin
  2
NORD
 70
     0
 10
0.0
 20
0.0
 30
0.0
  3
NORD
  1

  0
CIRCLE
  5
9C
330
98
100
AcDbEntity
  8
0
100
AcDbCircle
 10
-22.48581023296356
 20
-22.48580819018025
 30
0.0
 40
11.59596188717818
  0
CIRCLE
  5
9D
330
98
100
AcDbEntity
  8
0
100
AcDbCircle
 10
-22.48581891028334
 20
-22.48580781163036
 30
0.0
 40
4.283440004597385
  0
LINE
  5
9E
102
{ACAD_REACTORS
330
B9
102
}
330
98
100
AcDbEntity
  8
0
100
AcDbLine
 10
-10.13528155731001
 20
-21.48865248012953
 30
0.0
 11
-7.878117380192634
 21
-22.4856964431474
 31
0.0
  0
LINE
  5
9F
102
{ACAD_REACTORS
330
B9
102
}
330
98
100
AcDbEntity
  8
0
100
AcDbLine
 10
-23.48284292749486
 20
-10.13521493067128
 30
0.0
 11
-22.485798964477
 21
-7.878050753557545
 31
0.0
  0
LINE
  5
A0
102
{ACAD_REACTORS
330
B9
102
}
330
98
100
AcDbEntity
  8
0
100
AcDbLine
 10
-23.48284292749486
 20
-34.83640069258945
 30
0.0
 11
-22.485798964477
 21
-37.09356486970137
 31
0.0
  0
LINE
  5
A1
102
{ACAD_REACTORS
330
B9
102
}
330
98
100
AcDbEntity
  8
0
100
AcDbLine
 10
-34.83615882156664
 20
-21.48865248012953
 30
0.0
 11
-37.09332299868221
 21
-22.4856964431474
 31
0.0
  0
CIRCLE
  5
A2
330
98
100
AcDbEntity
  8
0
100
AcDbCircle
 10
-22.48581891028334
 20
-22.48580781163036
 30
0.0
 40
5.081014484808354
  0
LINE
  5
A3
102
{ACAD_REACTORS
330
B9
102
}
330
98
100
AcDbEntity
  8
0
100
AcDbLine
 10
-34.83615814754557
 20
-23.48274070389562
 30
0.0
 11
-37.09332299868221
 21
-22.4856964431474
 31
0.0
  0
LINE
  5
A4
102
{ACAD_REACTORS
330
B9
102
}
330
98
100
AcDbEntity
  8
0
100
AcDbLine
 10
-21.48875470372695
 20
-34.83640001856838
 30
0.0
 11
-22.485798964477
 21
-37.09356486970137
 31
0.0
  0
LINE
  5
A5
102
{ACAD_REACTORS
330
B9
102
}
330
98
100
AcDbEntity
  8
0
100
AcDbLine
 10
-10.13528223132925
 20
-23.48274070389562
 30
0.0
 11
-7.878117380192634
 21
-22.4856964431474
 31
0.0
  0
LINE
  5
A6
102
{ACAD_REACTORS
330
B9
102
}
330
98
100
AcDbEntity
  8
0
100
AcDbLine
 10
-21.48875470372695
 20
-10.13521560469235
 30
0.0
 11
-22.485798964477
 21
-7.878050753557545
 31
0.0
  0
CIRCLE
  5
A7
102
{ACAD_REACTORS
330
B9
102
}
330
98
100
AcDbEntity
  8
0
100
AcDbCircle
 10
-22.48581023296356
 20
-22.48580819018025
 30
0.0
 40
12.39353636738915
  0
LINE
  5
A8
330
98
100
AcDbEntity
  8
0
100
AcDbLine
 10
-22.48581023296356
 20
-10.88984630300183
 30
0.0
 11
-20.53810746446652
 21
-17.79292721239835
 31
0.0
  0
LINE
  5
A9
330
98
100
AcDbEntity
  8
0
100
AcDbLine
 10
-20.53810746446652
 20
-17.79292721239835
 30
0.0
 11
-14.28624578885683
 21
-14.28624374607352
 31
0.0
  0
LINE
  5
AA
330
98
100
AcDbEntity
  8
0
100
AcDbLine
 10
-14.28624578885683
 20
-14.28624374607352
 30
0.0
 11
-17.73785023656455
 21
-20.67652572522456
 31
0.0
  0
LINE
  5
AB
330
98
100
AcDbEntity
  8
0
100
AcDbLine
 10
-17.73785023656455
 20
-20.67652572522456
 30
0.0
 11
-10.88984834578514
 21
-22.48580819018025
 31
0.0
  0
LINE
  5
AC
330
98
100
AcDbEntity
  8
0
100
AcDbLine
 10
-10.88984834578514
 20
-22.48580819018025
 30
0.0
 11
-17.7908284196892
 21
-24.42842781771469
 31
0.0
  0
LINE
  5
AD
330
98
100
AcDbEntity
  8
0
100
AcDbLine
 10
-17.7908284196892
 20
-24.42842781771469
 30
0.0
 11
-14.28624578885683
 21
-30.68537263428698
 31
0.0
  0
LINE
  5
AE
330
98
100
AcDbEntity
  8
0
100
AcDbLine
 10
-14.28624578885683
 20
-30.68537263428698
 30
0.0
 11
-20.59213826427185
 21
-27.20075020849435
 31
0.0
  0
LINE
  5
AF
330
98
100
AcDbEntity
  8
0
100
AcDbLine
 10
-20.59213826427185
 20
-27.20075020849435
 30
0.0
 11
-22.48581023296356
 21
-34.08177007735867
 31
0.0
  0
LINE
  5
B0
330
98
100
AcDbEntity
  8
0
100
AcDbLine
 10
-22.48581023296356
 20
-34.08177007735867
 30
0.0
 11
-24.37948464672263
 21
-27.20075619665659
 31
0.0
  0
LINE
  5
B1
330
98
100
AcDbEntity
  8
0
100
AcDbLine
 10
-24.37948464672263
 20
-27.20075619665659
 30
0.0
 11
-30.68543252050404
 21
-30.68537263428698
 31
0.0
  0
LINE
  5
B2
330
98
100
AcDbEntity
  8
0
100
AcDbLine
 10
-30.68543252050404
 20
-30.68537263428698
 30
0.0
 11
-27.18080695062054
 21
-24.42843373957658
 31
0.0
  0
LINE
  5
B3
330
98
100
AcDbEntity
  8
0
100
AcDbLine
 10
-27.18080695062054
 20
-24.42843373957658
 30
0.0
 11
-34.0817721201438
 21
-22.48580819018025
 31
0.0
  0
LINE
  5
B4
330
98
100
AcDbEntity
  8
0
100
AcDbLine
 10
-34.0817721201438
 20
-22.48580819018025
 30
0.0
 11
-27.23378530192895
 21
-20.67651973654392
 31
0.0
  0
LINE
  5
B5
330
98
100
AcDbEntity
  8
0
100
AcDbLine
 10
-27.23378530192895
 20
-20.67651973654392
 30
0.0
 11
-30.68537467707211
 21
-14.28618590263795
 31
0.0
  0
LINE
  5
B6
330
98
100
AcDbEntity
  8
0
100
AcDbLine
 10
-30.68537467707211
 20
-14.28618590263795
 30
0.0
 11
-24.4335155162953
 21
-17.79292105337663
 31
0.0
  0
LINE
  5
B7
330
98
100
AcDbEntity
  8
0
100
AcDbLine
 10
-24.4335155162953
 20
-17.79292105337663
 30
0.0
 11
-22.48581023296356
 21
-10.88984630300183
 31
0.0
  0
HATCH
  5
B8
330
98
100
AcDbEntity
  8
0
100
AcDbHatch
 10
0.0
 20
0.0
 30
0.0
210
0.0
220
0.0
230
1.0
  2
SOLID
 70
     1
 71
     0
 91
        8
 92
        7
 72
     1
 73
     1
 93
        3
 10
-22.48581023296356
 20
-10.88984630300183
 42
0.0
 10
-22.48581023296356
 20
-17.40479332682662
 42
-0.0986679896081865
 10
-20.53810746446652
 20
-17.79292721239835
 42
0.0
 97
        0
 92
        7
 72
     1
 73
     1
 93
        3
 10
-18.87147603153426
 20
-18.91464081054255
 42
-0.1042028829621058
 10
-17.73785023656273
 20
-20.67652572522456
 42
0.0
 10
-14.28624578885683
 20
-14.28624374607352
 42
0.0
 97
        0
 92
        7
 72
     1
 73
     1
 93
        3
 10
-17.40498953492533
 20
-22.52917892317601
 42
-0.0962404007661445
 10
-17.79082841968739
 20
-24.42842781771469
 42
0.0
 10
-10.88984834578332
 20
-22.48580819018025
 42
0.0
 97
        0
 92
        7
 72
     1
 73
     1
 93
        3
 10
-14.28624578885683
 20
-30.68537263428698
 42
0.0
 10
-18.91484857328396
 20
-26.10034499460198
 42
-0.0996834672285848
 10
-20.59213826427185
 20
-27.20075020849435
 42
0.0
 97
        0
 92
        7
 72
     1
 73
     1
 93
        3
 10
-22.48581023296356
 20
-27.56682229643047
 42
-0.0957693538726653
 10
-24.37948464672263
 20
-27.20075619665659
 42
0.0
 10
-22.48581023296356
 20
-34.08177007735867
 42
0.0
 97
        0
 92
        7
 72
     1
 73
     1
 93
        4
 10
-26.05679317076101
 20
-26.10034111841378
 42
-0.100118331866171
 10
-27.18080695062054
 20
-24.42843373957658
 42
0.0
 10
-30.68542528182661
 20
-30.68535971080383
 42
0.0
 10
-30.68542239172166
 20
-30.68536260092879
 42
0.0
 97
        0
 92
        7
 72
     1
 73
     1
 93
        4
 10
-34.0817721201438
 20
-22.48580819018025
 42
0.0
 10
-27.56664828663088
 20
-22.52917880764107
 42
-0.0021340024061688
 10
-27.56683339509073
 20
-22.48580781163036
 42
-0.0912717085571265
 10
-27.23378530192895
 20
-20.67651973654392
 42
0.0
 97
        0
 92
        7
 72
     1
 73
     1
 93
        4
 10
-26.10014051019061
 20
-18.91461927456294
 42
-0.0998305982819129
 10
-24.4335155162953
 20
-17.79292105337663
 42
0.0
 10
-30.68536176014823
 20
-14.28619314788011
 42
0.0
 10
-30.68536464326462
 20
-14.28619603097468
 42
0.0
 97
        0
 75
     0
 76
     1
 47
0.0349319166512129
 98
        8
 10
-21.49441686315004
 20
-16.36329318622665
 10
-17.77312774883285
 20
-18.77359540906218
 10
-16.6724648282252
 20
-23.22741477550881
 10
-18.40207806873695
 20
-27.62883633569254
 10
-23.17161743777251
 20
-28.72919166043175
 10
-27.20738157281812
 20
-26.52848092388012
 10
-28.57010712671217
 20
-21.76027428447196
 10
-26.42119381216253
 20
-17.67324008432115
450
        0
451
        0
460
0.0
461
0.0
452
        0
462
0.0
453
        0
470

  0
HATCH
  5
B9
330
98
100
AcDbEntity
  8
0
100
AcDbHatch
 10
0.0
 20
0.0
 30
0.0
210
0.0
220
0.0
230
1.0
  2
SOLID
 70
     1
 71
     1
 91
        4
 92
        7
 72
     1
 73
     1
 93
        3
 10
-22.485798964477
 20
-7.878050753557547
 42
0.0
 10
-23.48157255856051
 20
-10.13233899805777
 42
-0.0402381631841074
 10
-21.49002453831451
 20
-10.13234088176316
 42
0.0
 97
        3
330
9F
330
A7
330
A6
 92
        7
 72
     1
 73
     1
 93
        4
 10
-10.13234893866884
 20
-21.48994788865216
 42
-0.0201126914337767
 10
-10.09227386557441
 20
-22.48580819018025
 42
-0.0201079996537946
 10
-10.13233025896828
 20
-23.48143674636725
 42
0.0
 10
-7.878117380192632
 20
-22.4856964431474
 42
0.0
 97
        3
330
A7
330
A5
330
9E
 92
        7
 72
     1
 73
     1
 93
        3
 10
-21.49002488509125
 20
-34.83927552655024
 42
-0.040238149125786
 10
-23.48157221178407
 20
-34.83927741025495
 42
0.0
 10
-22.485798964477
 20
-37.09356486970137
 42
0.0
 97
        3
330
A7
330
A0
330
A4
 92
        7
 72
     1
 73
     1
 93
        4
 10
-37.09332299868221
 20
-22.4856964431474
 42
0.0
 10
-34.8392968545766
 20
-23.48135426115092
 42
-0.0201063297085055
 10
-34.8793466003527
 20
-22.48580819018025
 42
-0.0201110214712222
 10
-34.83927817649091
 20
-21.49003037458102
 42
0.0
 97
        3
330
A1
330
A3
330
A7
 75
     0
 76
     1
 47
0.0438105971717277
 98
        4
 10
-22.45689352024965
 20
-9.42983689734865
 10
-9.310040800242859
 20
-22.31015245044728
 10
-22.39115934297115
 20
-35.65047931372828
 10
-35.93241768356165
 20
-22.37586837677918
450
        0
451
        0
460
0.0
461
0.0
452
        0
462
0.0
453
        0
470

  0
CIRCLE
  5
BA
102
{ACAD_REACTORS
330
BB
102
}
330
98
100
AcDbEntity
  8
0
100
AcDbCircle
 10
-22.48581023296356
 20
-22.48581394180474
 30
0.0
 40
1.606857159099618
  0
HATCH
  5
BB
330
98
100
AcDbEntity
  8
0
100
AcDbHatch
 10
0.0
 20
0.0
 30
0.0
210
0.0
220
0.0
230
1.0
  2
SOLID
 70
     1
 71
     1
 91
        1
 92
        7
 72
     1
 73
     1
 93
        2
 10
-20.87895307386394
 20
-22.48581394180474
 42
1.0
 10
-24.09266739206318
 20
-22.48581394180474
 42
1.0
 97
        1
330
BA
 75
     0
 76
     1
 47
0.0283447495124716
 98
        1
 10
-22.58747220540681
 20
-22.5523767224895
450
        0
451
        0
460
0.0
461
0.0
452
        0
462
0.0
453
        0
470

  0
LINE
  5
BC
330
98
100
AcDbEntity
  8
0
100
AcDbLine
 10
-22.48581891028334
 20
-22.48580781163036
 30
0.0
 11
-22.48581023296356
 21
-10.88984630300183
 31
0.0
  0
LINE
  5
BD
330
98
100
AcDbEntity
  8
0
100
AcDbLine
 10
-22.48581891028334
 20
-22.48580781163036
 30
0.0
 11
-14.28624578885683
 21
-14.28624374607352
 31
0.0
  0
LINE
  5
BE
330
98
100
AcDbEntity
  8
0
100
AcDbLine
 10
-22.48581891028334
 20
-22.48580781163036
 30
0.0
 11
-10.88984834578514
 21
-22.48580819018025
 31
0.0
  0
LINE
  5
BF
330
98
100
AcDbEntity
  8
0
100
AcDbLine
 10
-22.48581891028334
 20
-22.48580781163036
 30
0.0
 11
-14.28624578885683
 21
-30.68537263428698
 31
0.0
  0
LINE
  5
C0
330
98
100
AcDbEntity
  8
0
100
AcDbLine
 10
-22.48581891028334
 20
-22.48580781163036
 30
0.0
 11
-22.48581023296356
 21
-34.08177007735867
 31
0.0
  0
LINE
  5
C1
330
98
100
AcDbEntity
  8
0
100
AcDbLine
 10
-22.48581023296356
 20
-22.48581394180474
 30
0.0
 11
-30.68543252050404
 21
-30.68537263428698
 31
0.0
  0
LINE
  5
C2
330
98
100
AcDbEntity
  8
0
100
AcDbLine
 10
-22.48581023296356
 20
-22.48581394180474
 30
0.0
 11
-34.0817721201438
 21
-22.48580819018025
 31
0.0
  0
LINE
  5
C3
330
98
100
AcDbEntity
  8
0
100
AcDbLine
 10
-22.48581023296356
 20
-22.48581394180474
 30
0.0
 11
-30.68537467707211
 21
-14.28618590263795
 31
0.0
  0
MTEXT
  5
C4
330
98
100
AcDbEntity
  8
0
100
AcDbMText
 10
-24.36210605899943
 20
-2.213767295010256
 30
0.0
 40
4.499999999999999
 41
9.489299999999998
 71
     1
 72
     5
  1
{\fArial|b1|i0|c0|p34;N}
 73
     1
 44
1.0
  0
MTEXT
  5
C5
330
98
100
AcDbEntity
  8
0
100
AcDbMText
 10
-6.139689973162601
 20
-19.53247904278396
 30
0.0
 40
4.499999999999999
 41
9.489299999999998
 71
     1
 72
     5
  1
{\fArial|b1|i0|c0|p34;E}
 73
     1
 44
1.0
  0
MTEXT
  5
C6
330
98
100
AcDbEntity
  8
0
100
AcDbMText
 10
-43.23738549730296
 20
-20.28802350287879
 30
0.0
 40
4.499999999999999
 41
9.489299999999873
 71
     1
 72
     5
  1
{\fArial|b1|i0|c0|p34;O}
 11
0.9999756307053948
 21
0.0069812602979718
 31
0.0
 73
     1
 44
1.0
  0
MTEXT
  5
C7
330
98
100
AcDbEntity
  8
0
100
AcDbMText
 10
-24.44382114910877
 20
-38.15826341144202
 30
0.0
 40
4.499999999999999
 41
9.489299999999998
 71
     1
 72
     5
  1
{\fArial|b1|i0|c0|p34;S}
 73
     1
 44
1.0
  0
ENDBLK
  5
C8
330
98
100
AcDbEntity
  8
0
100
AcDbBlockEnd
  0
BLOCK
  5
CC
330
C9
100
AcDbEntity
  8
0
100
AcDbBlockBegin
  2
RETOL(2)
 70
     2
 10
0.0
 20
0.0
 30
0.0
  3
RETOL(2)
  1

  0
SOLID
  5
CD
330
C9
100
AcDbEntity
  8
0
 62
    64
100
AcDbTrace
 10
80.69533398061322
 20
-28.10240227888427
 30
0.0
 11
4.629267324278771
 21
-28.10240227687609
 31
0.0
 12
80.69533398011117
 22
-38.71941764232906
 32
0.0
 13
4.629267323536622
 23
-38.71941764232906
 33
0.0
  0
SOLID
  5
CE
330
C9
100
AcDbEntity
  8
0
 62
    64
100
AcDbTrace
 10
17.45721400542243
 20
-28.10240227888427
 30
0.0
 11
11.03420182233094
 21
-28.10240227988834
 31
0.0
 12
0.0
 22
0.0
 32
0.0
 13
0.0
 23
0.0
 33
0.0
  0
LWPOLYLINE
  5
CF
330
C9
100
AcDbEntity
  8
(0)-L-TEXTE
100
AcDbPolyline
 90
        7
 70
     1
 43
0.0
 10
80.69533398061322
 20
-28.10240227888427
 10
17.45721400542243
 20
-28.10240227888427
 10
0.0
 20
0.0
 10
11.03420182233094
 20
-28.10240227988834
 10
4.629267324278771
 20
-28.10240227687609
 10
4.629267323536622
 20
-38.71941764232906
 10
80.69533398011117
 20
-38.71941764232906
  0
SOLID
  5
D0
330
C9
100
AcDbEntity
  8
(0)-L-TEXTE
100
AcDbTrace
 10
79.30061888897035
 20
-38.71941764232906
 30
0.0
 11
4.629267323536622
 21
-38.71941764232906
 31
0.0
 12
79.30061888888302
 22
-39.78850708828396
 32
0.0
 13
3.628312344160803
 23
-39.78850708828396
 33
0.0
  0
SOLID
  5
D1
330
C9
100
AcDbEntity
  8
(0)-L-TEXTE
100
AcDbTrace
 10
4.629267324140528
 20
-29.57388866139081
 30
0.0
 11
3.628312344917503
 21
-29.57388866063411
 31
0.0
 12
4.629267323536622
 22
-38.71941764232906
 32
0.0
 13
3.628312344160803
 23
-39.78850708828396
 33
0.0
  0
SOLID
  5
D2
330
C9
100
AcDbEntity
  8
(0)-L-TEXTE
100
AcDbTrace
 10
11.03420182233094
 20
-28.10240227988834
 30
0.0
 11
10.03951153216621
 21
-28.10240227942268
 31
0.0
 12
0.0
 22
0.0
 32
0.0
 13
0.0
 23
0.0
 33
0.0
  0
ATTDEF
  5
D3
330
C9
100
AcDbEntity
  8
(0)-L-TEXTE
100
AcDbText
 10
8.43498141668428
 20
-35.66090995759441
 30
0.0
 40
4.5
  1
ÀMBIT DEL PROJECTE
  7
ARIAL
 72
     1
 11
42.66230065270065
 21
-33.41090995759441
 31
0.0
100
AcDbAttributeDefinition
  3
TITOL
  2
ETIQUETA
 70
     0
 74
     2
  0
ENDBLK
  5
D4
330
C9
100
AcDbEntity
  8
0
100
AcDbBlockEnd
  0
BLOCK
  5
1431
330
142E
100
AcDbEntity
  8
0
100
AcDbBlockBegin
  2
_DotBlank
 70
     0
 10
0.0
 20
0.0
 30
0.0
  3
_DotBlank
  1

  0
CIRCLE
  5
142F
330
142E
100
AcDbEntity
  8
0
  6
ByBlock
 62
     0
370
    -2
100
AcDbCircle
 10
0.0
 20
0.0
 30
0.0
 40
0.5
  0
LINE
  5
1430
330
142E
100
AcDbEntity
  8
0
  6
ByBlock
 62
     0
370
    -2
100
AcDbLine
 10
-0.5
 20
0.0
 30
0.0
 11
-1.0
 21
0.0
 31
0.0
  0
ENDBLK
  5
1432
330
142E
100
AcDbEntity
  8
0
100
AcDbBlockEnd
  0
BLOCK
  5
1435
330
1433
100
AcDbEntity
  8
0
100
AcDbBlockBegin
  2
_DotSmall
 70
     0
 10
0.0
 20
0.0
 30
0.0
  3
_DotSmall
  1

  0
LWPOLYLINE
  5
1434
330
1433
100
AcDbEntity
  8
0
  6
ByBlock
 62
     0
100
AcDbPolyline
 90
        2
 70
     1
 43
0.5
 10
-0.0625
 20
0.0
 42
1.0
 10
0.0625
 20
0.0
 42
1.0
  0
ENDBLK
  5
1436
330
1433
100
AcDbEntity
  8
0
100
AcDbBlockEnd
  0
BLOCK
  5
15FA
330
15F7
100
AcDbEntity
  8
0
100
AcDbBlockBegin
  2
CaixTxt2006
 70
     2
 10
0.0
 20
0.0
 30
0.0
  3
CaixTxt2006
  1

  0
ATTDEF
  5
15FB
102
{ACAD_XDICTIONARY
360
15FC
102
}
330
15F7
100
AcDbEntity
  8
0
 62
    30
100
AcDbText
 10
755.005086597142
 20
20.57813115800627
 30
0.0
 40
4.0
  1
####
  7
ARIAL
 72
     1
 11
761.2206391210166
 21
20.57813115800627
 31
0.0
100
AcDbAttributeDefinition
  3
Nº PLANO
  2
NPLANOL
 70
     0
  0
ATTDEF
  5
1600
102
{ACAD_XDICTIONARY
360
1601
102
}
330
15F7
100
AcDbEntity
  8
0
 62
    30
100
AcDbText
 10
684.1753009985845
 20
20.02692942944134
 30
0.0
 40
3.5
  1
####
  7
ARIAL
 72
     1
 11
689.6139094569747
 21
20.02692942944134
 31
0.0
100
AcDbAttributeDefinition
  3
TITOL
  2
TITOL
 70
     0
  0
ATTDEF
  5
1605
330
15F7
100
AcDbEntity
  8
0
 62
     7
100
AcDbText
 10
663.7083842182298
 20
12.70144744205197
 30
0.0
 40
2.5
  1
XXXXXX-xxxxxxxxxxxxxxxxxxxxx
  7
ARIAL
 72
     1
 11
689.6139094569747
 21
12.70144744205197
 31
0.0
100
AcDbAttributeDefinition
  3
SUBTITOL 1
  2
SUBTITOL
 70
     0
  0
ATTDEF
  5
1606
330
15F7
100
AcDbEntity
  8
0
 62
     7
100
AcDbText
 10
663.7083842182298
 20
6.407796190964178
 30
0.0
 40
2.5
  1
XXXXXX-xxxxxxxxxxxxxxxxxxxxx
  7
ARIAL
 72
     1
 11
689.6139094569747
 21
6.407796190964178
 31
0.0
100
AcDbAttributeDefinition
  3
SUBTITOL 2
  2
SUBTITOL_2
 70
     0
  0
ATTDEF
  5
1607
330
15F7
100
AcDbEntity
  8
0
 62
     7
100
AcDbText
 10
580.9855255410893
 20
22.69100278197687
 30
0.0
 40
2.5
  1
1/XXXX, 1/XXXX
  7
ARIAL
100
AcDbAttributeDefinition
  3
ESCALA_EN_A1 (H), ESCALA_EN_A1 (V)
  2
ESCALA1
 70
     0
  0
ATTDEF
  5
1608
330
15F7
100
AcDbEntity
  8
0
 62
     7
100
AcDbText
 10
580.9855255410893
 20
18.55741870702775
 30
0.0
 40
2.5
  1
1/XXXX, 1/XXXX
  7
ARIAL
100
AcDbAttributeDefinition
  3
ESCALA_EN_A3 (H), ESCALA_EN_A3 (V), 
  2
ESCALA3
 70
     0
  0
ATTDEF
  5
1609
330
15F7
100
AcDbEntity
  8
0
 62
     4
100
AcDbText
 10
617.7637253317762
 20
14.02244203017415
 30
0.0
 40
2.25
  1
X m
  7
ARIAL
 72
     1
 11
620.5578078692932
 21
14.02244203017415
 31
0.0
100
AcDbAttributeDefinition
  3
ESCALA GRAFICA
  2
GRAFICA
 70
     0
  0
ATTDEF
  5
160A
102
{ACAD_XDICTIONARY
360
160B
102
}
330
15F7
100
AcDbEntity
  8
0
 62
     7
100
AcDbText
 10
755.005086597142
 20
5.40417145642732
 30
0.0
 40
4.0
  1
####
  7
ARIAL
 72
     1
 11
761.2206391210166
 21
5.40417145642732
 31
0.0
100
AcDbAttributeDefinition
  3
FULL
  2
FULL
 70
     0
  0
ENDBLK
  5
160F
330
15F7
100
AcDbEntity
  8
0
100
AcDbBlockEnd
  0
BLOCK
  5
1B33
330
1B32
100
AcDbEntity
  8
0
100
AcDbBlockBegin
  2
*D6
 70
     1
 10
0.0
 20
0.0
 30
0.0
  3
*D6
  1

  0
LINE
  5
1B6F
330
1B32
100
AcDbEntity
  8
0
 62
     0
370
    -2
100
AcDbLine
 10
311.2125009119699
 20
34.4631080576802
 30
0.0
 11
311.2125009119699
 21
34.20639254802564
 31
0.0
  0
LINE
  5
1B70
330
1B32
100
AcDbEntity
  8
0
 62
     0
370
    -2
100
AcDbLine
 10
312.4625009119703
 20
34.46310805768022
 30
0.0
 11
312.4625009119703
 21
34.20639254802564
 31
0.0
  0
LINE
  5
1B71
330
1B32
100
AcDbEntity
  8
0
 62
     0
370
    -2
100
AcDbLine
 10
311.3625009119699
 20
34.22139254802564
 30
0.0
 11
312.3125009119704
 21
34.22139254802564
 31
0.0
  0
SOLID
  5
1B72
330
1B32
100
AcDbEntity
  8
0
 62
     0
100
AcDbTrace
 10
311.3625009119699
 20
34.24639254802564
 30
0.0
 11
311.3625009119699
 21
34.19639254802564
 31
0.0
 12
311.2125009119699
 22
34.22139254802564
 32
0.0
 13
311.2125009119699
 23
34.22139254802564
 33
0.0
  0
SOLID
  5
1B73
330
1B32
100
AcDbEntity
  8
0
 62
     0
100
AcDbTrace
 10
312.3125009119704
 20
34.24639254802564
 30
0.0
 11
312.3125009119704
 21
34.19639254802564
 31
0.0
 12
312.4625009119703
 22
34.22139254802564
 32
0.0
 13
312.4625009119703
 23
34.22139254802564
 33
0.0
  0
MTEXT
  5
1B74
330
1B32
100
AcDbEntity
  8
0
 62
     0
100
AcDbMText
 10
311.8375009119702
 20
34.29639254802565
 30
0.0
 40
0.075
 41
0.0
 71
     5
 72
     1
  1
\A1;0.25
  7
ROMANC
 73
     1
 44
1.0
  0
POINT
  5
1B75
330
1B32
100
AcDbEntity
  8
Defpoints
 62
     0
100
AcDbPoint
 10
311.2125009119699
 20
34.4781080576802
 30
0.0
  0
POINT
  5
1B76
330
1B32
100
AcDbEntity
  8
Defpoints
 62
     0
100
AcDbPoint
 10
312.4625009119703
 20
34.47810805768023
 30
0.0
  0
POINT
  5
1B77
330
1B32
100
AcDbEntity
  8
Defpoints
 62
     0
100
AcDbPoint
 10
312.4625009119703
 20
34.22139254802564
 30
0.0
  0
ENDBLK
  5
1B34
330
1B32
100
AcDbEntity
  8
0
100
AcDbBlockEnd
  0
BLOCK
  5
1B3F
330
1B3E
100
AcDbEntity
  8
0
100
AcDbBlockBegin
  2
*D7
 70
     1
 10
0.0
 20
0.0
 30
0.0
  3
*D7
  1

  0
LINE
  5
1B78
330
1B3E
100
AcDbEntity
  8
0
 62
     0
370
    -2
100
AcDbLine
 10
311.8525009119699
 20
35.97810805768013
 30
0.0
 11
312.7886847697819
 21
35.97810805768013
 31
0.0
  0
LINE
  5
1B79
330
1B3E
100
AcDbEntity
  8
0
 62
     0
370
    -2
100
AcDbLine
 10
312.4775009119702
 20
34.47810805768023
 30
0.0
 11
312.7886847697819
 21
34.47810805768023
 31
0.0
  0
LINE
  5
1B7A
330
1B3E
100
AcDbEntity
  8
0
 62
     0
370
    -2
100
AcDbLine
 10
312.773684769782
 20
35.82810805768013
 30
0.0
 11
312.773684769782
 21
34.62810805768022
 31
0.0
  0
SOLID
  5
1B7B
330
1B3E
100
AcDbEntity
  8
0
 62
     0
100
AcDbTrace
 10
312.748684769782
 20
35.82810805768013
 30
0.0
 11
312.7986847697818
 21
35.82810805768013
 31
0.0
 12
312.773684769782
 22
35.97810805768013
 32
0.0
 13
312.773684769782
 23
35.97810805768013
 33
0.0
  0
SOLID
  5
1B7C
330
1B3E
100
AcDbEntity
  8
0
 62
     0
100
AcDbTrace
 10
312.748684769782
 20
34.62810805768022
 30
0.0
 11
312.7986847697818
 21
34.62810805768022
 31
0.0
 12
312.773684769782
 22
34.47810805768023
 32
0.0
 13
312.773684769782
 23
34.47810805768023
 33
0.0
  0
MTEXT
  5
1B7D
330
1B3E
100
AcDbEntity
  8
0
 62
     0
100
AcDbMText
 10
312.6986847697819
 20
35.22810805768023
 30
0.0
 40
0.075
 41
0.0
 71
     5
 72
     1
  1
\A1;0.30
  7
ROMANC
 11
0.0000000000000001
 21
1.0
 31
0.0
 73
     1
 44
1.0
  0
POINT
  5
1B7E
330
1B3E
100
AcDbEntity
  8
Defpoints
 62
     0
100
AcDbPoint
 10
311.8375009119699
 20
35.97810805768013
 30
0.0
  0
POINT
  5
1B7F
330
1B3E
100
AcDbEntity
  8
Defpoints
 62
     0
100
AcDbPoint
 10
312.4625009119703
 20
34.47810805768023
 30
0.0
  0
POINT
  5
1B80
330
1B3E
100
AcDbEntity
  8
Defpoints
 62
     0
100
AcDbPoint
 10
312.773684769782
 20
34.47810805768023
 30
0.0
  0
ENDBLK
  5
1B40
330
1B3E
100
AcDbEntity
  8
0
100
AcDbBlockEnd
  0
BLOCK
  5
1BBE
330
1BBD
100
AcDbEntity
  8
0
100
AcDbBlockBegin
  2
*D8
 70
     1
 10
0.0
 20
0.0
 30
0.0
  3
*D8
  1

  0
LINE
  5
1C92
330
1BBD
100
AcDbEntity
  8
0
 62
     0
370
    -2
100
AcDbLine
 10
324.3660751775812
 20
36.94884943057065
 30
0.0
 11
327.4356944482013
 21
36.94884943057065
 31
0.0
  0
LINE
  5
1C93
330
1BBD
100
AcDbEntity
  8
0
 62
     0
370
    -2
100
AcDbLine
 10
325.2660751775812
 20
34.04884943057065
 30
0.0
 11
327.4356944482013
 21
34.04884943057065
 31
0.0
  0
LINE
  5
1C94
330
1BBD
100
AcDbEntity
  8
0
 62
     0
370
    -2
100
AcDbLine
 10
327.4206944482013
 20
36.79884943057066
 30
0.0
 11
327.4206944482013
 21
34.19884943057065
 31
0.0
  0
SOLID
  5
1C95
330
1BBD
100
AcDbEntity
  8
0
 62
     0
100
AcDbTrace
 10
327.3956944482014
 20
36.79884943057066
 30
0.0
 11
327.4456944482013
 21
36.79884943057066
 31
0.0
 12
327.4206944482013
 22
36.94884943057065
 32
0.0
 13
327.4206944482013
 23
36.94884943057065
 33
0.0
  0
SOLID
  5
1C96
330
1BBD
100
AcDbEntity
  8
0
 62
     0
100
AcDbTrace
 10
327.3956944482014
 20
34.19884943057065
 30
0.0
 11
327.4456944482013
 21
34.19884943057065
 31
0.0
 12
327.4206944482013
 22
34.04884943057065
 32
0.0
 13
327.4206944482013
 23
34.04884943057065
 33
0.0
  0
MTEXT
  5
1C97
330
1BBD
100
AcDbEntity
  8
0
 62
     0
100
AcDbMText
 10
327.3456944482014
 20
35.4988494305707
 30
0.0
 40
0.075
 41
0.0
 71
     5
 72
     1
  1
\A1;0.58
  7
ROMANC
 11
0.0000000000000001
 21
1.0
 31
0.0
 73
     1
 44
1.0
  0
POINT
  5
1C98
330
1BBD
100
AcDbEntity
  8
Defpoints
 62
     0
100
AcDbPoint
 10
324.3510751775813
 20
36.94884943057065
 30
0.0
  0
POINT
  5
1C99
330
1BBD
100
AcDbEntity
  8
Defpoints
 62
     0
100
AcDbPoint
 10
325.2510751775812
 20
34.04884943057065
 30
0.0
  0
POINT
  5
1C9A
330
1BBD
100
AcDbEntity
  8
Defpoints
 62
     0
100
AcDbPoint
 10
327.4206944482013
 20
34.04884943057065
 30
0.0
  0
ENDBLK
  5
1BBF
330
1BBD
100
AcDbEntity
  8
0
100
AcDbBlockEnd
  0
BLOCK
  5
1BD1
330
1BD0
100
AcDbEntity
  8
0
100
AcDbBlockBegin
  2
*D9
 70
     1
 10
0.0
 20
0.0
 30
0.0
  3
*D9
  1

  0
LINE
  5
1C14
330
1BD0
100
AcDbEntity
  8
0
 62
     0
370
    -2
100
AcDbLine
 10
325.2510751775812
 20
34.03384943057065
 30
0.0
 11
325.2510751775812
 21
33.56730366863831
 31
0.0
  0
LINE
  5
1C15
330
1BD0
100
AcDbEntity
  8
0
 62
     0
370
    -2
100
AcDbLine
 10
326.6010751775813
 20
34.03384943057065
 30
0.0
 11
326.6010751775813
 21
33.56730366863831
 31
0.0
  0
LINE
  5
1C16
330
1BD0
100
AcDbEntity
  8
0
 62
     0
370
    -2
100
AcDbLine
 10
325.4010751775812
 20
33.58230366863831
 30
0.0
 11
326.4510751775814
 21
33.58230366863831
 31
0.0
  0
SOLID
  5
1C17
330
1BD0
100
AcDbEntity
  8
0
 62
     0
100
AcDbTrace
 10
325.4010751775812
 20
33.6073036686383
 30
0.0
 11
325.4010751775812
 21
33.55730366863831
 31
0.0
 12
325.2510751775812
 22
33.58230366863831
 32
0.0
 13
325.2510751775812
 23
33.58230366863831
 33
0.0
  0
SOLID
  5
1C18
330
1BD0
100
AcDbEntity
  8
0
 62
     0
100
AcDbTrace
 10
326.4510751775814
 20
33.6073036686383
 30
0.0
 11
326.4510751775814
 21
33.55730366863831
 31
0.0
 12
326.6010751775813
 22
33.58230366863831
 32
0.0
 13
326.6010751775813
 23
33.58230366863831
 33
0.0
  0
MTEXT
  5
1C19
330
1BD0
100
AcDbEntity
  8
0
 62
     0
100
AcDbMText
 10
325.9260751775812
 20
33.65730366863831
 30
0.0
 40
0.075
 41
0.0
 71
     5
 72
     1
  1
\A1;0.27
  7
ROMANC
 73
     1
 44
1.0
  0
POINT
  5
1C1A
330
1BD0
100
AcDbEntity
  8
Defpoints
 62
     0
100
AcDbPoint
 10
325.2510751775812
 20
34.04884943057065
 30
0.0
  0
POINT
  5
1C1B
330
1BD0
100
AcDbEntity
  8
Defpoints
 62
     0
100
AcDbPoint
 10
326.6010751775813
 20
34.04884943057065
 30
0.0
  0
POINT
  5
1C1C
330
1BD0
100
AcDbEntity
  8
Defpoints
 62
     0
100
AcDbPoint
 10
326.6010751775813
 20
33.58230366863831
 30
0.0
  0
ENDBLK
  5
1BD2
330
1BD0
100
AcDbEntity
  8
0
100
AcDbBlockEnd
  0
BLOCK
  5
1BE4
330
1BE3
100
AcDbEntity
  8
0
100
AcDbBlockBegin
  2
*D10
 70
     1
 10
0.0
 20
0.0
 30
0.0
  3
*D10
  1

  0
LINE
  5
1C0B
330
1BE3
100
AcDbEntity
  8
0
 62
     0
370
    -2
100
AcDbLine
 10
325.2360751775813
 20
34.54884943057065
 30
0.0
 11
324.9189596898369
 21
34.54884943057065
 31
0.0
  0
LINE
  5
1C0C
330
1BE3
100
AcDbEntity
  8
0
 62
     0
370
    -2
100
AcDbLine
 10
325.2360751775813
 20
34.04884943057065
 30
0.0
 11
324.9189596898369
 21
34.04884943057065
 31
0.0
  0
LINE
  5
1C0D
330
1BE3
100
AcDbEntity
  8
0
 62
     0
370
    -2
100
AcDbLine
 10
324.9339596898369
 20
34.39884943057065
 30
0.0
 11
324.9339596898369
 21
34.19884943057065
 31
0.0
  0
SOLID
  5
1C0E
330
1BE3
100
AcDbEntity
  8
0
 62
     0
100
AcDbTrace
 10
324.9089596898369
 20
34.39884943057065
 30
0.0
 11
324.9589596898369
 21
34.39884943057065
 31
0.0
 12
324.9339596898369
 22
34.54884943057065
 32
0.0
 13
324.9339596898369
 23
34.54884943057065
 33
0.0
  0
SOLID
  5
1C0F
330
1BE3
100
AcDbEntity
  8
0
 62
     0
100
AcDbTrace
 10
324.9089596898369
 20
34.19884943057065
 30
0.0
 11
324.9589596898369
 21
34.19884943057065
 31
0.0
 12
324.9339596898369
 22
34.04884943057065
 32
0.0
 13
324.9339596898369
 23
34.04884943057065
 33
0.0
  0
MTEXT
  5
1C10
330
1BE3
100
AcDbEntity
  8
0
 62
     0
100
AcDbMText
 10
324.8589596898369
 20
34.2988494305707
 30
0.0
 40
0.075
 41
0.0
 71
     5
 72
     1
  1
\A1;0.10
  7
ROMANC
 11
0.0000000000000001
 21
1.0
 31
0.0
 73
     1
 44
1.0
  0
POINT
  5
1C11
330
1BE3
100
AcDbEntity
  8
Defpoints
 62
     0
100
AcDbPoint
 10
325.2510751775812
 20
34.54884943057065
 30
0.0
  0
POINT
  5
1C12
330
1BE3
100
AcDbEntity
  8
Defpoints
 62
     0
100
AcDbPoint
 10
325.2510751775812
 20
34.04884943057065
 30
0.0
  0
POINT
  5
1C13
330
1BE3
100
AcDbEntity
  8
Defpoints
 62
     0
100
AcDbPoint
 10
324.9339596898369
 20
34.04884943057065
 30
0.0
  0
ENDBLK
  5
1BE5
330
1BE3
100
AcDbEntity
  8
0
100
AcDbBlockEnd
  0
BLOCK
  5
1BFF
330
1BFE
100
AcDbEntity
  8
0
100
AcDbBlockBegin
  2
*D11
 70
     1
 10
0.0
 20
0.0
 30
0.0
  3
*D11
  1

  0
LINE
  5
1C26
330
1BFE
100
AcDbEntity
  8
0
 62
     0
370
    -2
100
AcDbLine
 10
322.0860751775813
 20
34.54884943057065
 30
0.0
 11
321.7322154313186
 21
34.54884943057065
 31
0.0
  0
LINE
  5
1C27
330
1BFE
100
AcDbEntity
  8
0
 62
     0
370
    -2
100
AcDbLine
 10
322.0860751775813
 20
35.14884943057065
 30
0.0
 11
321.7322154313186
 21
35.14884943057065
 31
0.0
  0
LINE
  5
1C28
330
1BFE
100
AcDbEntity
  8
0
 62
     0
370
    -2
100
AcDbLine
 10
321.7472154313187
 20
34.69884943057065
 30
0.0
 11
321.7472154313187
 21
34.99884943057065
 31
0.0
  0
SOLID
  5
1C29
330
1BFE
100
AcDbEntity
  8
0
 62
     0
100
AcDbTrace
 10
321.7222154313186
 20
34.69884943057065
 30
0.0
 11
321.7722154313185
 21
34.69884943057065
 31
0.0
 12
321.7472154313187
 22
34.54884943057065
 32
0.0
 13
321.7472154313187
 23
34.54884943057065
 33
0.0
  0
SOLID
  5
1C2A
330
1BFE
100
AcDbEntity
  8
0
 62
     0
100
AcDbTrace
 10
321.7222154313186
 20
34.99884943057065
 30
0.0
 11
321.7722154313185
 21
34.99884943057065
 31
0.0
 12
321.7472154313187
 22
35.14884943057065
 32
0.0
 13
321.7472154313187
 23
35.14884943057065
 33
0.0
  0
MTEXT
  5
1C2B
330
1BFE
100
AcDbEntity
  8
0
 62
     0
100
AcDbMText
 10
321.6722154313186
 20
34.8488494305707
 30
0.0
 40
0.075
 41
0.0
 71
     5
 72
     1
  1
\A1;0.12
  7
ROMANC
 11
0.0000000000000001
 21
1.0
 31
0.0
 73
     1
 44
1.0
  0
POINT
  5
1C2C
330
1BFE
100
AcDbEntity
  8
Defpoints
 62
     0
100
AcDbPoint
 10
322.1010751775813
 20
34.54884943057065
 30
0.0
  0
POINT
  5
1C2D
330
1BFE
100
AcDbEntity
  8
Defpoints
 62
     0
100
AcDbPoint
 10
322.1010751775813
 20
35.14884943057065
 30
0.0
  0
POINT
  5
1C2E
330
1BFE
100
AcDbEntity
  8
Defpoints
 62
     0
100
AcDbPoint
 10
321.7472154313187
 20
35.14884943057065
 30
0.0
  0
ENDBLK
  5
1C00
330
1BFE
100
AcDbEntity
  8
0
100
AcDbBlockEnd
  0
BLOCK
  5
1C42
330
1C41
100
AcDbEntity
  8
0
100
AcDbBlockBegin
  2
*D12
 70
     1
 10
0.0
 20
0.0
 30
0.0
  3
*D12
  1

  0
LINE
  5
1C44
330
1C41
100
AcDbEntity
  8
0
 62
     0
100
AcDbLine
 10
324.4210751775812
 20
36.94884943057065
 30
0.0
 11
328.0074328067805
 21
36.94884943057065
 31
0.0
  0
LINE
  5
1C45
330
1C41
100
AcDbEntity
  8
0
 62
     0
100
AcDbLine
 10
326.6610751775813
 20
34.04884943057065
 30
0.0
 11
328.0074328067805
 21
34.04884943057065
 31
0.0
  0
LINE
  5
1C46
330
1C41
100
AcDbEntity
  8
0
 62
     0
100
AcDbLine
 10
327.8874328067804
 20
37.00884943057066
 30
0.0
 11
327.8874328067804
 21
35.86313514485637
 31
0.0
  0
LINE
  5
1C47
330
1C41
100
AcDbEntity
  8
0
 62
     0
100
AcDbLine
 10
327.8874328067804
 20
33.98884943057066
 30
0.0
 11
327.8874328067804
 21
35.13456371628495
 31
0.0
  0
INSERT
  5
1C48
330
1C41
100
AcDbEntity
  8
0
 62
     0
100
AcDbBlockReference
  2
_ArchTick
 10
327.8874328067804
 20
36.94884943057065
 30
0.0
 41
0.09
 42
0.09
 43
0.09
 50
90.0
  0
INSERT
  5
1C49
330
1C41
100
AcDbEntity
  8
0
 62
     0
100
AcDbBlockReference
  2
_ArchTick
 10
327.8874328067804
 20
34.04884943057065
 30
0.0
 41
0.09
 42
0.09
 43
0.09
 50
270.0
  0
MTEXT
  5
1C4A
330
1C41
100
AcDbEntity
  8
0
100
AcDbMText
 10
327.8874328067804
 20
35.4988494305707
 30
0.0
 40
0.18
 41
0.0
 71
     5
 72
     1
  1
\A1;2.90
  7
ROMANS
 11
0.0000000000000001
 21
1.0
 31
0.0
 73
     1
 44
1.0
  0
POINT
  5
1C4B
330
1C41
100
AcDbEntity
  8
Defpoints
 62
     0
100
AcDbPoint
 10
324.3610751775813
 20
36.94884943057065
 30
0.0
  0
POINT
  5
1C4C
330
1C41
100
AcDbEntity
  8
Defpoints
 62
     0
100
AcDbPoint
 10
326.6010751775813
 20
34.04884943057065
 30
0.0
  0
POINT
  5
1C4D
330
1C41
100
AcDbEntity
  8
Defpoints
 62
     0
100
AcDbPoint
 10
327.8874328067804
 20
34.04884943057065
 30
0.0
  0
ENDBLK
  5
1C43
330
1C41
100
AcDbEntity
  8
0
100
AcDbBlockEnd
  0
BLOCK
  5
1CAB
330
1CAA
100
AcDbEntity
  8
0
100
AcDbBlockBegin
  2
*D13
 70
     1
 10
0.0
 20
0.0
 30
0.0
  3
*D13
  1

  0
LINE
  5
1F15
330
1CAA
100
AcDbEntity
  8
0
 62
     0
100
AcDbLine
 10
322.0410751775812
 20
35.14884943057065
 30
0.0
 11
321.7286529869348
 21
35.14884943057065
 31
0.0
  0
LINE
  5
1F16
330
1CAA
100
AcDbEntity
  8
0
 62
     0
100
AcDbLine
 10
322.0410751775812
 20
34.04884943057065
 30
0.0
 11
321.7286529869348
 21
34.04884943057065
 31
0.0
  0
LINE
  5
1F17
330
1CAA
100
AcDbEntity
  8
0
 62
     0
100
AcDbLine
 10
321.8486529869348
 20
35.20884943057065
 30
0.0
 11
321.8486529869348
 21
34.81956371628494
 31
0.0
  0
LINE
  5
1F18
330
1CAA
100
AcDbEntity
  8
0
 62
     0
100
AcDbLine
 10
321.8486529869348
 20
33.98884943057066
 30
0.0
 11
321.8486529869348
 21
34.37813514485636
 31
0.0
  0
INSERT
  5
1F19
330
1CAA
100
AcDbEntity
  8
0
 62
     0
100
AcDbBlockReference
  2
_ArchTick
 10
321.8486529869348
 20
35.14884943057065
 30
0.0
 41
0.09
 42
0.09
 43
0.09
 50
90.0
  0
INSERT
  5
1F1A
330
1CAA
100
AcDbEntity
  8
0
 62
     0
100
AcDbBlockReference
  2
_ArchTick
 10
321.8486529869348
 20
34.04884943057065
 30
0.0
 41
0.09
 42
0.09
 43
0.09
 50
270.0
  0
MTEXT
  5
1F1B
330
1CAA
100
AcDbEntity
  8
0
100
AcDbMText
 10
321.8486529869348
 20
34.59884943057069
 30
0.0
 40
0.09
 41
0.0
 71
     5
 72
     1
  1
\A1;1.10
  7
ROMANS
 11
0.0000000000000001
 21
1.0
 31
0.0
 73
     1
 44
1.0
  0
POINT
  5
1F1C
330
1CAA
100
AcDbEntity
  8
Defpoints
 62
     0
100
AcDbPoint
 10
322.1010751775813
 20
35.14884943057065
 30
0.0
  0
POINT
  5
1F1D
330
1CAA
100
AcDbEntity
  8
Defpoints
 62
     0
100
AcDbPoint
 10
322.1010751775813
 20
34.04884943057065
 30
0.0
  0
POINT
  5
1F1E
330
1CAA
100
AcDbEntity
  8
Defpoints
 62
     0
100
AcDbPoint
 10
321.8486529869348
 20
34.04884943057065
 30
0.0
  0
ENDBLK
  5
1CAC
330
1CAA
100
AcDbEntity
  8
0
100
AcDbBlockEnd
  0
BLOCK
  5
1CBD
330
1CBC
100
AcDbEntity
  8
0
100
AcDbBlockBegin
  2
*D14
 70
     1
 10
0.0
 20
0.0
 30
0.0
  3
*D14
  1

  0
LINE
  5
1F1F
330
1CBC
100
AcDbEntity
  8
0
 62
     0
100
AcDbLine
 10
325.3110751775813
 20
34.04884943057065
 30
0.0
 11
325.6996907292263
 21
34.04884943057065
 31
0.0
  0
LINE
  5
1F20
330
1CBC
100
AcDbEntity
  8
0
 62
     0
100
AcDbLine
 10
325.3110751775813
 20
34.54884943057065
 30
0.0
 11
325.6996907292263
 21
34.54884943057065
 31
0.0
  0
LINE
  5
1F21
330
1CBC
100
AcDbEntity
  8
0
 62
     0
100
AcDbLine
 10
325.5796907292263
 20
34.04884943057065
 30
0.0
 11
325.5796907292263
 21
33.95884943057065
 31
0.0
  0
LINE
  5
1F22
330
1CBC
100
AcDbEntity
  8
0
 62
     0
100
AcDbLine
 10
325.5796907292263
 20
34.54884943057065
 30
0.0
 11
325.5796907292263
 21
34.63884943057065
 31
0.0
  0
INSERT
  5
1F23
330
1CBC
100
AcDbEntity
  8
0
 62
     0
100
AcDbBlockReference
  2
_ArchTick
 10
325.5796907292263
 20
34.04884943057065
 30
0.0
 41
0.09
 42
0.09
 43
0.09
 50
90.0
  0
INSERT
  5
1F24
330
1CBC
100
AcDbEntity
  8
0
 62
     0
100
AcDbBlockReference
  2
_ArchTick
 10
325.5796907292263
 20
34.54884943057065
 30
0.0
 41
0.09
 42
0.09
 43
0.09
 50
270.0
  0
MTEXT
  5
1F25
330
1CBC
100
AcDbEntity
  8
0
100
AcDbMText
 10
325.5796907292263
 20
34.2988494305707
 30
0.0
 40
0.09
 41
0.0
 71
     5
 72
     1
  1
\A1;0.50
  7
ROMANS
 11
0.0000000000000001
 21
1.0
 31
0.0
 73
     1
 44
1.0
  0
POINT
  5
1F26
330
1CBC
100
AcDbEntity
  8
Defpoints
 62
     0
100
AcDbPoint
 10
325.2510751775812
 20
34.04884943057065
 30
0.0
  0
POINT
  5
1F27
330
1CBC
100
AcDbEntity
  8
Defpoints
 62
     0
100
AcDbPoint
 10
325.2510751775812
 20
34.54884943057065
 30
0.0
  0
POINT
  5
1F28
330
1CBC
100
AcDbEntity
  8
Defpoints
 62
     0
100
AcDbPoint
 10
325.5796907292263
 20
34.54884943057065
 30
0.0
  0
ENDBLK
  5
1CBE
330
1CBC
100
AcDbEntity
  8
0
100
AcDbBlockEnd
  0
BLOCK
  5
1CCF
330
1CCE
100
AcDbEntity
  8
0
100
AcDbBlockBegin
  2
*D15
 70
     1
 10
0.0
 20
0.0
 30
0.0
  3
*D15
  1

  0
LINE
  5
1F29
330
1CCE
100
AcDbEntity
  8
0
 62
     0
100
AcDbLine
 10
325.2510751775812
 20
34.48884943057065
 30
0.0
 11
325.2510751775812
 21
33.62782429168989
 31
0.0
  0
LINE
  5
1F2A
330
1CCE
100
AcDbEntity
  8
0
 62
     0
100
AcDbLine
 10
326.6010751775813
 20
34.48884943057065
 30
0.0
 11
326.6010751775813
 21
33.62782429168989
 31
0.0
  0
LINE
  5
1F2B
330
1CCE
100
AcDbEntity
  8
0
 62
     0
100
AcDbLine
 10
325.1910751775812
 20
33.7478242916899
 30
0.0
 11
325.705360891867
 21
33.7478242916899
 31
0.0
  0
LINE
  5
1F2C
330
1CCE
100
AcDbEntity
  8
0
 62
     0
100
AcDbLine
 10
326.6610751775813
 20
33.7478242916899
 30
0.0
 11
326.1467894632955
 21
33.7478242916899
 31
0.0
  0
INSERT
  5
1F2D
330
1CCE
100
AcDbEntity
  8
0
 62
     0
100
AcDbBlockReference
  2
_ArchTick
 10
325.2510751775812
 20
33.7478242916899
 30
0.0
 41
0.09
 42
0.09
 43
0.09
 50
180.0
  0
INSERT
  5
1F2E
330
1CCE
100
AcDbEntity
  8
0
 62
     0
100
AcDbBlockReference
  2
_ArchTick
 10
326.6010751775813
 20
33.7478242916899
 30
0.0
 41
0.09
 42
0.09
 43
0.09
  0
MTEXT
  5
1F2F
330
1CCE
100
AcDbEntity
  8
0
100
AcDbMText
 10
325.9260751775812
 20
33.7478242916899
 30
0.0
 40
0.09
 41
0.0
 71
     5
 72
     1
  1
\A1;1.35
  7
ROMANS
 73
     1
 44
1.0
  0
POINT
  5
1F30
330
1CCE
100
AcDbEntity
  8
Defpoints
 62
     0
100
AcDbPoint
 10
325.2510751775812
 20
34.54884943057065
 30
0.0
  0
POINT
  5
1F31
330
1CCE
100
AcDbEntity
  8
Defpoints
 62
     0
100
AcDbPoint
 10
326.6010751775813
 20
34.54884943057065
 30
0.0
  0
POINT
  5
1F32
330
1CCE
100
AcDbEntity
  8
Defpoints
 62
     0
100
AcDbPoint
 10
326.6010751775813
 20
33.7478242916899
 30
0.0
  0
ENDBLK
  5
1CD0
330
1CCE
100
AcDbEntity
  8
0
100
AcDbBlockEnd
  0
BLOCK
  5
1CE2
330
1CE1
100
AcDbEntity
  8
0
100
AcDbBlockBegin
  2
*D16
 70
     1
 10
0.0
 20
0.0
 30
0.0
  3
*D16
  1

  0
LINE
  5
1F33
330
1CE1
100
AcDbEntity
  8
0
 62
     0
100
AcDbLine
 10
326.6610751775813
 20
34.54884943057065
 30
0.0
 11
327.033718715912
 21
34.54884943057065
 31
0.0
  0
LINE
  5
1F34
330
1CE1
100
AcDbEntity
  8
0
 62
     0
100
AcDbLine
 10
326.6610751775813
 20
35.14884943057065
 30
0.0
 11
327.033718715912
 21
35.14884943057065
 31
0.0
  0
LINE
  5
1F35
330
1CE1
100
AcDbEntity
  8
0
 62
     0
100
AcDbLine
 10
326.913718715912
 20
34.54884943057065
 30
0.0
 11
326.913718715912
 21
34.45884943057065
 31
0.0
  0
LINE
  5
1F36
330
1CE1
100
AcDbEntity
  8
0
 62
     0
100
AcDbLine
 10
326.913718715912
 20
35.14884943057065
 30
0.0
 11
326.913718715912
 21
35.23884943057066
 31
0.0
  0
INSERT
  5
1F37
330
1CE1
100
AcDbEntity
  8
0
 62
     0
100
AcDbBlockReference
  2
_ArchTick
 10
326.913718715912
 20
34.54884943057065
 30
0.0
 41
0.09
 42
0.09
 43
0.09
 50
90.0
  0
INSERT
  5
1F38
330
1CE1
100
AcDbEntity
  8
0
 62
     0
100
AcDbBlockReference
  2
_ArchTick
 10
326.913718715912
 20
35.14884943057065
 30
0.0
 41
0.09
 42
0.09
 43
0.09
 50
270.0
  0
MTEXT
  5
1F39
330
1CE1
100
AcDbEntity
  8
0
100
AcDbMText
 10
326.913718715912
 20
34.8488494305707
 30
0.0
 40
0.09
 41
0.0
 71
     5
 72
     1
  1
\A1;0.60
  7
ROMANS
 11
0.0000000000000001
 21
1.0
 31
0.0
 73
     1
 44
1.0
  0
POINT
  5
1F3A
330
1CE1
100
AcDbEntity
  8
Defpoints
 62
     0
100
AcDbPoint
 10
326.6010751775813
 20
34.54884943057065
 30
0.0
  0
POINT
  5
1F3B
330
1CE1
100
AcDbEntity
  8
Defpoints
 62
     0
100
AcDbPoint
 10
326.6010751775813
 20
35.14884943057065
 30
0.0
  0
POINT
  5
1F3C
330
1CE1
100
AcDbEntity
  8
Defpoints
 62
     0
100
AcDbPoint
 10
326.913718715912
 20
35.14884943057065
 30
0.0
  0
ENDBLK
  5
1CE3
330
1CE1
100
AcDbEntity
  8
0
100
AcDbBlockEnd
  0
BLOCK
  5
1CF5
330
1CF4
100
AcDbEntity
  8
0
100
AcDbBlockBegin
  2
*D17
 70
     1
 10
0.0
 20
0.0
 30
0.0
  3
*D17
  1

  0
LINE
  5
1F3D
330
1CF4
100
AcDbEntity
  8
0
 62
     0
100
AcDbLine
 10
324.4110751775813
 20
36.94884943057065
 30
0.0
 11
327.3731050675703
 21
36.94884943057065
 31
0.0
  0
LINE
  5
1F3E
330
1CF4
100
AcDbEntity
  8
0
 62
     0
100
AcDbLine
 10
326.6610751775813
 20
34.54884943057065
 30
0.0
 11
327.3731050675703
 21
34.54884943057065
 31
0.0
  0
LINE
  5
1F3F
330
1CF4
100
AcDbEntity
  8
0
 62
     0
100
AcDbLine
 10
327.2531050675703
 20
37.00884943057066
 30
0.0
 11
327.2531050675703
 21
35.97599228771351
 31
0.0
  0
LINE
  5
1F40
330
1CF4
100
AcDbEntity
  8
0
 62
     0
100
AcDbLine
 10
327.2531050675703
 20
34.48884943057065
 30
0.0
 11
327.2531050675703
 21
35.5217065734278
 31
0.0
  0
INSERT
  5
1F41
330
1CF4
100
AcDbEntity
  8
0
 62
     0
100
AcDbBlockReference
  2
_ArchTick
 10
327.2531050675703
 20
36.94884943057065
 30
0.0
 41
0.09
 42
0.09
 43
0.09
 50
90.0
  0
INSERT
  5
1F42
330
1CF4
100
AcDbEntity
  8
0
 62
     0
100
AcDbBlockReference
  2
_ArchTick
 10
327.2531050675703
 20
34.54884943057065
 30
0.0
 41
0.09
 42
0.09
 43
0.09
 50
270.0
  0
MTEXT
  5
1F43
330
1CF4
100
AcDbEntity
  8
0
100
AcDbMText
 10
327.2531050675703
 20
35.7488494305707
 30
0.0
 40
0.09
 41
0.0
 71
     5
 72
     1
  1
\A1;2.40
  7
ROMANS
 11
0.0000000000000001
 21
1.0
 31
0.0
 73
     1
 44
1.0
  0
POINT
  5
1F44
330
1CF4
100
AcDbEntity
  8
Defpoints
 62
     0
100
AcDbPoint
 10
324.3510751775813
 20
36.94884943057065
 30
0.0
  0
POINT
  5
1F45
330
1CF4
100
AcDbEntity
  8
Defpoints
 62
     0
100
AcDbPoint
 10
326.6010751775813
 20
34.54884943057065
 30
0.0
  0
POINT
  5
1F46
330
1CF4
100
AcDbEntity
  8
Defpoints
 62
     0
100
AcDbPoint
 10
327.2531050675703
 20
34.54884943057065
 30
0.0
  0
ENDBLK
  5
1CF6
330
1CF4
100
AcDbEntity
  8
0
100
AcDbBlockEnd
  0
BLOCK
  5
1E52
330
1E51
100
AcDbEntity
  8
0
100
AcDbBlockBegin
  2
*D18
 70
     1
 10
0.0
 20
0.0
 30
0.0
  3
*D18
  1

  0
LINE
  5
1F47
330
1E51
100
AcDbEntity
  8
0
 62
     0
100
AcDbLine
 10
326.6010751775813
 20
34.48884943057065
 30
0.0
 11
326.6010751775813
 21
33.21778227702029
 31
0.0
  0
LINE
  5
1F48
330
1E51
100
AcDbEntity
  8
0
 62
     0
100
AcDbLine
 10
322.1010751775813
 20
33.98884943057066
 30
0.0
 11
322.1010751775813
 21
33.21778227702029
 31
0.0
  0
LINE
  5
1F49
330
1E51
100
AcDbEntity
  8
0
 62
     0
100
AcDbLine
 10
326.6610751775813
 20
33.33778227702029
 30
0.0
 11
324.5782180347241
 21
33.33778227702029
 31
0.0
  0
LINE
  5
1F4A
330
1E51
100
AcDbEntity
  8
0
 62
     0
100
AcDbLine
 10
322.0410751775812
 20
33.33778227702029
 30
0.0
 11
324.1239323204384
 21
33.33778227702029
 31
0.0
  0
INSERT
  5
1F4B
330
1E51
100
AcDbEntity
  8
0
 62
     0
100
AcDbBlockReference
  2
_ArchTick
 10
326.6010751775813
 20
33.33778227702029
 30
0.0
 41
0.09
 42
0.09
 43
0.09
  0
INSERT
  5
1F4C
330
1E51
100
AcDbEntity
  8
0
 62
     0
100
AcDbBlockReference
  2
_ArchTick
 10
322.1010751775813
 20
33.33778227702029
 30
0.0
 41
0.09
 42
0.09
 43
0.09
 50
180.0
  0
MTEXT
  5
1F4D
330
1E51
100
AcDbEntity
  8
0
100
AcDbMText
 10
324.3510751775813
 20
33.33778227702029
 30
0.0
 40
0.09
 41
0.0
 71
     5
 72
     1
  1
\A1;4.50
  7
ROMANS
 73
     1
 44
1.0
  0
POINT
  5
1F4E
330
1E51
100
AcDbEntity
  8
Defpoints
 62
     0
100
AcDbPoint
 10
326.6010751775813
 20
34.54884943057065
 30
0.0
  0
POINT
  5
1F4F
330
1E51
100
AcDbEntity
  8
Defpoints
 62
     0
100
AcDbPoint
 10
322.1010751775813
 20
34.04884943057065
 30
0.0
  0
POINT
  5
1F50
330
1E51
100
AcDbEntity
  8
Defpoints
 62
     0
100
AcDbPoint
 10
322.1010751775813
 20
33.33778227702029
 30
0.0
  0
ENDBLK
  5
1E53
330
1E51
100
AcDbEntity
  8
0
100
AcDbBlockEnd
  0
BLOCK
  5
1FD4
330
1FD3
100
AcDbEntity
  8
0
100
AcDbBlockBegin
  2
*D20
 70
     1
 10
0.0
 20
0.0
 30
0.0
  3
*D20
  1

  0
LINE
  5
1FD6
330
1FD3
100
AcDbEntity
  8
0
 62
     0
100
AcDbLine
 10
322.0410751775813
 20
35.14884943057065
 30
0.0
 11
321.7286529869348
 21
35.14884943057065
 31
0.0
  0
LINE
  5
1FD7
330
1FD3
100
AcDbEntity
  8
0
 62
     0
100
AcDbLine
 10
322.0410751775813
 20
34.04884943057065
 30
0.0
 11
321.7286529869348
 21
34.04884943057065
 31
0.0
  0
LINE
  5
1FD8
330
1FD3
100
AcDbEntity
  8
0
 62
     0
100
AcDbLine
 10
321.8486529869348
 20
35.20884943057065
 30
0.0
 11
321.8486529869348
 21
34.81956371628494
 31
0.0
  0
LINE
  5
1FD9
330
1FD3
100
AcDbEntity
  8
0
 62
     0
100
AcDbLine
 10
321.8486529869348
 20
33.98884943057065
 30
0.0
 11
321.8486529869348
 21
34.37813514485636
 31
0.0
  0
INSERT
  5
1FDA
330
1FD3
100
AcDbEntity
  8
0
 62
     0
100
AcDbBlockReference
  2
_ArchTick
 10
321.8486529869348
 20
35.14884943057065
 30
0.0
 41
0.09
 42
0.09
 43
0.09
 50
90.0
  0
INSERT
  5
1FDB
330
1FD3
100
AcDbEntity
  8
0
 62
     0
100
AcDbBlockReference
  2
_ArchTick
 10
321.8486529869348
 20
34.04884943057065
 30
0.0
 41
0.09
 42
0.09
 43
0.09
 50
270.0
  0
MTEXT
  5
1FDC
330
1FD3
100
AcDbEntity
  8
0
100
AcDbMText
 10
321.8486529869348
 20
34.5988494305707
 30
0.0
 40
0.09
 41
0.0
 71
     5
 72
     1
  1
\A1;1.10
  7
ROMANS
 11
0.0000000000000001
 21
1.0
 31
0.0
 73
     1
 44
1.0
  0
POINT
  5
1FDD
330
1FD3
100
AcDbEntity
  8
Defpoints
 62
     0
100
AcDbPoint
 10
322.1010751775813
 20
35.14884943057065
 30
0.0
  0
POINT
  5
1FDE
330
1FD3
100
AcDbEntity
  8
Defpoints
 62
     0
100
AcDbPoint
 10
322.1010751775813
 20
34.04884943057065
 30
0.0
  0
POINT
  5
1FDF
330
1FD3
100
AcDbEntity
  8
Defpoints
 62
     0
100
AcDbPoint
 10
321.8486529869348
 20
34.04884943057065
 30
0.0
  0
ENDBLK
  5
1FD5
330
1FD3
100
AcDbEntity
  8
0
100
AcDbBlockEnd
  0
BLOCK
  5
1FE1
330
1FE0
100
AcDbEntity
  8
0
100
AcDbBlockBegin
  2
*D21
 70
     1
 10
0.0
 20
0.0
 30
0.0
  3
*D21
  1

  0
LINE
  5
1FE3
330
1FE0
100
AcDbEntity
  8
0
 62
     0
100
AcDbLine
 10
325.3110751775812
 20
34.04884943057065
 30
0.0
 11
325.6996907292263
 21
34.04884943057065
 31
0.0
  0
LINE
  5
1FE4
330
1FE0
100
AcDbEntity
  8
0
 62
     0
100
AcDbLine
 10
325.3110751775812
 20
34.54884943057065
 30
0.0
 11
325.6996907292263
 21
34.54884943057065
 31
0.0
  0
LINE
  5
1FE5
330
1FE0
100
AcDbEntity
  8
0
 62
     0
100
AcDbLine
 10
325.5796907292263
 20
34.04884943057065
 30
0.0
 11
325.5796907292263
 21
33.95884943057065
 31
0.0
  0
LINE
  5
1FE6
330
1FE0
100
AcDbEntity
  8
0
 62
     0
100
AcDbLine
 10
325.5796907292263
 20
34.54884943057065
 30
0.0
 11
325.5796907292263
 21
34.63884943057065
 31
0.0
  0
INSERT
  5
1FE7
330
1FE0
100
AcDbEntity
  8
0
 62
     0
100
AcDbBlockReference
  2
_ArchTick
 10
325.5796907292263
 20
34.04884943057065
 30
0.0
 41
0.09
 42
0.09
 43
0.09
 50
90.0
  0
INSERT
  5
1FE8
330
1FE0
100
AcDbEntity
  8
0
 62
     0
100
AcDbBlockReference
  2
_ArchTick
 10
325.5796907292263
 20
34.54884943057065
 30
0.0
 41
0.09
 42
0.09
 43
0.09
 50
270.0
  0
MTEXT
  5
1FE9
330
1FE0
100
AcDbEntity
  8
0
100
AcDbMText
 10
325.5796907292263
 20
34.2988494305707
 30
0.0
 40
0.09
 41
0.0
 71
     5
 72
     1
  1
\A1;0.50
  7
ROMANS
 11
0.0000000000000001
 21
1.0
 31
0.0
 73
     1
 44
1.0
  0
POINT
  5
1FEA
330
1FE0
100
AcDbEntity
  8
Defpoints
 62
     0
100
AcDbPoint
 10
325.2510751775812
 20
34.04884943057065
 30
0.0
  0
POINT
  5
1FEB
330
1FE0
100
AcDbEntity
  8
Defpoints
 62
     0
100
AcDbPoint
 10
325.2510751775812
 20
34.54884943057065
 30
0.0
  0
POINT
  5
1FEC
330
1FE0
100
AcDbEntity
  8
Defpoints
 62
     0
100
AcDbPoint
 10
325.5796907292263
 20
34.54884943057065
 30
0.0
  0
ENDBLK
  5
1FE2
330
1FE0
100
AcDbEntity
  8
0
100
AcDbBlockEnd
  0
BLOCK
  5
1FEE
330
1FED
100
AcDbEntity
  8
0
100
AcDbBlockBegin
  2
*D22
 70
     1
 10
0.0
 20
0.0
 30
0.0
  3
*D22
  1

  0
LINE
  5
1FF0
330
1FED
100
AcDbEntity
  8
0
 62
     0
100
AcDbLine
 10
325.2510751775812
 20
34.48884943057065
 30
0.0
 11
325.2510751775812
 21
33.6278242916899
 31
0.0
  0
LINE
  5
1FF1
330
1FED
100
AcDbEntity
  8
0
 62
     0
100
AcDbLine
 10
326.6010751775813
 20
34.48884943057065
 30
0.0
 11
326.6010751775813
 21
33.6278242916899
 31
0.0
  0
LINE
  5
1FF2
330
1FED
100
AcDbEntity
  8
0
 62
     0
100
AcDbLine
 10
325.1910751775812
 20
33.7478242916899
 30
0.0
 11
325.705360891867
 21
33.7478242916899
 31
0.0
  0
LINE
  5
1FF3
330
1FED
100
AcDbEntity
  8
0
 62
     0
100
AcDbLine
 10
326.6610751775813
 20
33.7478242916899
 30
0.0
 11
326.1467894632955
 21
33.7478242916899
 31
0.0
  0
INSERT
  5
1FF4
330
1FED
100
AcDbEntity
  8
0
 62
     0
100
AcDbBlockReference
  2
_ArchTick
 10
325.2510751775812
 20
33.7478242916899
 30
0.0
 41
0.09
 42
0.09
 43
0.09
 50
180.0
  0
INSERT
  5
1FF5
330
1FED
100
AcDbEntity
  8
0
 62
     0
100
AcDbBlockReference
  2
_ArchTick
 10
326.6010751775813
 20
33.7478242916899
 30
0.0
 41
0.09
 42
0.09
 43
0.09
  0
MTEXT
  5
1FF6
330
1FED
100
AcDbEntity
  8
0
100
AcDbMText
 10
325.9260751775812
 20
33.7478242916899
 30
0.0
 40
0.09
 41
0.0
 71
     5
 72
     1
  1
\A1;1.35
  7
ROMANS
 73
     1
 44
1.0
  0
POINT
  5
1FF7
330
1FED
100
AcDbEntity
  8
Defpoints
 62
     0
100
AcDbPoint
 10
325.2510751775812
 20
34.54884943057065
 30
0.0
  0
POINT
  5
1FF8
330
1FED
100
AcDbEntity
  8
Defpoints
 62
     0
100
AcDbPoint
 10
326.6010751775813
 20
34.54884943057065
 30
0.0
  0
POINT
  5
1FF9
330
1FED
100
AcDbEntity
  8
Defpoints
 62
     0
100
AcDbPoint
 10
326.6010751775813
 20
33.7478242916899
 30
0.0
  0
ENDBLK
  5
1FEF
330
1FED
100
AcDbEntity
  8
0
100
AcDbBlockEnd
  0
BLOCK
  5
1FFB
330
1FFA
100
AcDbEntity
  8
0
100
AcDbBlockBegin
  2
*D23
 70
     1
 10
0.0
 20
0.0
 30
0.0
  3
*D23
  1

  0
LINE
  5
1FFD
330
1FFA
100
AcDbEntity
  8
0
 62
     0
100
AcDbLine
 10
326.6610751775813
 20
34.54884943057065
 30
0.0
 11
327.033718715912
 21
34.54884943057065
 31
0.0
  0
LINE
  5
1FFE
330
1FFA
100
AcDbEntity
  8
0
 62
     0
100
AcDbLine
 10
326.6610751775813
 20
35.14884943057065
 30
0.0
 11
327.033718715912
 21
35.14884943057065
 31
0.0
  0
LINE
  5
1FFF
330
1FFA
100
AcDbEntity
  8
0
 62
     0
100
AcDbLine
 10
326.913718715912
 20
34.54884943057065
 30
0.0
 11
326.913718715912
 21
34.45884943057065
 31
0.0
  0
LINE
  5
2000
330
1FFA
100
AcDbEntity
  8
0
 62
     0
100
AcDbLine
 10
326.913718715912
 20
35.14884943057065
 30
0.0
 11
326.913718715912
 21
35.23884943057066
 31
0.0
  0
INSERT
  5
2001
330
1FFA
100
AcDbEntity
  8
0
 62
     0
100
AcDbBlockReference
  2
_ArchTick
 10
326.913718715912
 20
34.54884943057065
 30
0.0
 41
0.09
 42
0.09
 43
0.09
 50
90.0
  0
INSERT
  5
2002
330
1FFA
100
AcDbEntity
  8
0
 62
     0
100
AcDbBlockReference
  2
_ArchTick
 10
326.913718715912
 20
35.14884943057065
 30
0.0
 41
0.09
 42
0.09
 43
0.09
 50
270.0
  0
MTEXT
  5
2003
330
1FFA
100
AcDbEntity
  8
0
100
AcDbMText
 10
326.913718715912
 20
34.8488494305707
 30
0.0
 40
0.09
 41
0.0
 71
     5
 72
     1
  1
\A1;0.60
  7
ROMANS
 11
0.0000000000000001
 21
1.0
 31
0.0
 73
     1
 44
1.0
  0
POINT
  5
2004
330
1FFA
100
AcDbEntity
  8
Defpoints
 62
     0
100
AcDbPoint
 10
326.6010751775813
 20
34.54884943057065
 30
0.0
  0
POINT
  5
2005
330
1FFA
100
AcDbEntity
  8
Defpoints
 62
     0
100
AcDbPoint
 10
326.6010751775813
 20
35.14884943057065
 30
0.0
  0
POINT
  5
2006
330
1FFA
100
AcDbEntity
  8
Defpoints
 62
     0
100
AcDbPoint
 10
326.913718715912
 20
35.14884943057065
 30
0.0
  0
ENDBLK
  5
1FFC
330
1FFA
100
AcDbEntity
  8
0
100
AcDbBlockEnd
  0
BLOCK
  5
2008
330
2007
100
AcDbEntity
  8
0
100
AcDbBlockBegin
  2
*D24
 70
     1
 10
0.0
 20
0.0
 30
0.0
  3
*D24
  1

  0
LINE
  5
200A
330
2007
100
AcDbEntity
  8
0
 62
     0
100
AcDbLine
 10
324.4110751775813
 20
36.94884943057065
 30
0.0
 11
327.3731050675703
 21
36.94884943057065
 31
0.0
  0
LINE
  5
200B
330
2007
100
AcDbEntity
  8
0
 62
     0
100
AcDbLine
 10
326.6610751775813
 20
34.54884943057065
 30
0.0
 11
327.3731050675703
 21
34.54884943057065
 31
0.0
  0
LINE
  5
200C
330
2007
100
AcDbEntity
  8
0
 62
     0
100
AcDbLine
 10
327.2531050675703
 20
37.00884943057065
 30
0.0
 11
327.2531050675703
 21
35.9759922877135
 31
0.0
  0
LINE
  5
200D
330
2007
100
AcDbEntity
  8
0
 62
     0
100
AcDbLine
 10
327.2531050675703
 20
34.48884943057065
 30
0.0
 11
327.2531050675703
 21
35.52170657342779
 31
0.0
  0
INSERT
  5
200E
330
2007
100
AcDbEntity
  8
0
 62
     0
100
AcDbBlockReference
  2
_ArchTick
 10
327.2531050675703
 20
36.94884943057065
 30
0.0
 41
0.09
 42
0.09
 43
0.09
 50
90.0
  0
INSERT
  5
200F
330
2007
100
AcDbEntity
  8
0
 62
     0
100
AcDbBlockReference
  2
_ArchTick
 10
327.2531050675703
 20
34.54884943057065
 30
0.0
 41
0.09
 42
0.09
 43
0.09
 50
270.0
  0
MTEXT
  5
2010
330
2007
100
AcDbEntity
  8
0
100
AcDbMText
 10
327.2531050675703
 20
35.7488494305707
 30
0.0
 40
0.09
 41
0.0
 71
     5
 72
     1
  1
\A1;2.40
  7
ROMANS
 11
0.0000000000000001
 21
1.0
 31
0.0
 73
     1
 44
1.0
  0
POINT
  5
2011
330
2007
100
AcDbEntity
  8
Defpoints
 62
     0
100
AcDbPoint
 10
324.3510751775813
 20
36.94884943057065
 30
0.0
  0
POINT
  5
2012
330
2007
100
AcDbEntity
  8
Defpoints
 62
     0
100
AcDbPoint
 10
326.6010751775813
 20
34.54884943057065
 30
0.0
  0
POINT
  5
2013
330
2007
100
AcDbEntity
  8
Defpoints
 62
     0
100
AcDbPoint
 10
327.2531050675703
 20
34.54884943057065
 30
0.0
  0
ENDBLK
  5
2009
330
2007
100
AcDbEntity
  8
0
100
AcDbBlockEnd
  0
BLOCK
  5
2015
330
2014
100
AcDbEntity
  8
0
100
AcDbBlockBegin
  2
*D25
 70
     1
 10
0.0
 20
0.0
 30
0.0
  3
*D25
  1

  0
LINE
  5
2017
330
2014
100
AcDbEntity
  8
0
 62
     0
100
AcDbLine
 10
326.6010751775813
 20
34.48884943057065
 30
0.0
 11
326.6010751775813
 21
33.21778227702029
 31
0.0
  0
LINE
  5
2018
330
2014
100
AcDbEntity
  8
0
 62
     0
100
AcDbLine
 10
322.1010751775813
 20
33.98884943057065
 30
0.0
 11
322.1010751775813
 21
33.21778227702029
 31
0.0
  0
LINE
  5
2019
330
2014
100
AcDbEntity
  8
0
 62
     0
100
AcDbLine
 10
326.6610751775813
 20
33.33778227702029
 30
0.0
 11
324.5782180347242
 21
33.33778227702029
 31
0.0
  0
LINE
  5
201A
330
2014
100
AcDbEntity
  8
0
 62
     0
100
AcDbLine
 10
322.0410751775813
 20
33.33778227702029
 30
0.0
 11
324.1239323204385
 21
33.33778227702029
 31
0.0
  0
INSERT
  5
201B
330
2014
100
AcDbEntity
  8
0
 62
     0
100
AcDbBlockReference
  2
_ArchTick
 10
326.6010751775813
 20
33.33778227702029
 30
0.0
 41
0.09
 42
0.09
 43
0.09
  0
INSERT
  5
201C
330
2014
100
AcDbEntity
  8
0
 62
     0
100
AcDbBlockReference
  2
_ArchTick
 10
322.1010751775813
 20
33.33778227702029
 30
0.0
 41
0.09
 42
0.09
 43
0.09
 50
180.0
  0
MTEXT
  5
201D
330
2014
100
AcDbEntity
  8
0
100
AcDbMText
 10
324.3510751775813
 20
33.33778227702029
 30
0.0
 40
0.09
 41
0.0
 71
     5
 72
     1
  1
\A1;4.50
  7
ROMANS
 73
     1
 44
1.0
  0
POINT
  5
201E
330
2014
100
AcDbEntity
  8
Defpoints
 62
     0
100
AcDbPoint
 10
326.6010751775813
 20
34.54884943057065
 30
0.0
  0
POINT
  5
201F
330
2014
100
AcDbEntity
  8
Defpoints
 62
     0
100
AcDbPoint
 10
322.1010751775813
 20
34.04884943057065
 30
0.0
  0
POINT
  5
2020
330
2014
100
AcDbEntity
  8
Defpoints
 62
     0
100
AcDbPoint
 10
322.1010751775813
 20
33.33778227702029
 30
0.0
  0
ENDBLK
  5
2016
330
2014
100
AcDbEntity
  8
0
100
AcDbBlockEnd
  0
ENDSEC
  0
SECTION
  2
ENTITIES
  0
TEXT
  5
1B27
330
75
100
AcDbEntity
  8
0
100
AcDbText
 10
321.7731487472426
 20
42.309482
 30
0.0
 40
0.3
  1
TIPUS   NT1031
  7
ROMANC
100
AcDbText
  0
TEXT
  5
1B28
330
75
100
AcDbEntity
  8
0
100
AcDbText
 10
321.7819632635875
 20
40.49646044792456
 30
0.0
 40
0.3
  1
P = 129.2 dm
  7
ROMANC
100
AcDbText
  0
TEXT
  5
1B29
330
75
100
AcDbEntity
  8
0
100
AcDbText
 10
321.760277983087
 20
41.10581332917407
 30
0.0
 40
0.3
  1
S = 1031 dm
  7
ROMANC
100
AcDbText
  0
TEXT
  5
1B2A
330
75
100
AcDbEntity
  8
0
100
AcDbText
 10
321.7731487472426
 20
41.70440332917407
 30
0.0
 40
0.3
  1
ESCALA  1:50
  7
ROMANC
100
AcDbText
  0
TEXT
  5
1B2B
330
75
100
AcDbEntity
  8
0
100
AcDbText
 10
325.0021795382849
 20
41.41172932917407
 30
0.0
 40
0.1
  1
2
  7
ROMANC
100
AcDbText
  0
LWPOLYLINE
  5
1B2C
330
75
100
AcDbEntity
  8
0
100
AcDbPolyline
 90
        4
 70
     1
 43
0.0
 10
329.348696
 20
29.86362299999999
 10
329.348696
 20
44.713623
 10
318.848696
 20
44.713623
 10
318.848696
 20
29.86362299999999
  0
LWPOLYLINE
  5
1BB7
102
{ACAD_REACTORS
330
1CB6
330
1CC8
330
1CDB
330
1CEE
330
1D01
330
1E5E
102
}
330
75
100
AcDbEntity
  8
A-DetailWide-G
100
AcDbPolyline
 90
        6
 70
     1
 43
0.05
 10
322.1010751775813
 20
35.14884943057065
 10
322.1010751775813
 20
34.04884943057065
 10
325.2510751775812
 20
34.04884943057065
 10
325.2510751775812
 20
34.54884943057065
 10
326.6010751775813
 20
34.54884943057065
 10
326.6010751775813
 20
35.14884943057065
 42
0.8000000000000019
  0
DIMENSION
  5
1CA5
102
{ACAD_XDICTIONARY
360
1CA6
102
}
102
{ACAD_REACTORS
330
1CB6
102
}
330
75
100
AcDbEntity
  8
0
100
AcDbDimension
  2
*D20
 10
321.8486529869348
 20
34.04884943057065
 30
0.0
 11
321.8486529869348
 21
34.5988494305707
 31
0.0
 70
    32
 71
     5
 42
1.100000000000001
  3
Cota Anotativa (A3)
100
AcDbAlignedDimension
 13
322.1010751775813
 23
35.14884943057065
 33
0.0
 14
322.1010751775813
 24
34.04884943057065
 34
0.0
 50
90.0
100
AcDbRotatedDimension
1001
AcadAnnotative
1000
AnnotativeData
1002
{
1070
     1
1070
     1
1002
}
1001
ACAD
1000
DSTYLE
1002
{
1070
   140
1040
1.5
1002
}
  0
DIMENSION
  5
1CB7
102
{ACAD_XDICTIONARY
360
1CB8
102
}
102
{ACAD_REACTORS
330
1CC8
102
}
330
75
100
AcDbEntity
  8
0
100
AcDbDimension
  2
*D21
 10
325.5796907292263
 20
34.54884943057065
 30
0.0
 11
325.5796907292263
 21
34.2988494305707
 31
0.0
 70
    32
 71
     5
 42
0.5
  3
Cota Anotativa (A3)
100
AcDbAlignedDimension
 13
325.2510751775812
 23
34.04884943057065
 33
0.0
 14
325.2510751775812
 24
34.54884943057065
 34
0.0
 50
90.0
100
AcDbRotatedDimension
1001
AcadAnnotative
1000
AnnotativeData
1002
{
1070
     1
1070
     1
1002
}
1001
ACAD
1000
DSTYLE
1002
{
1070
   140
1040
1.5
1002
}
  0
DIMENSION
  5
1CC9
102
{ACAD_XDICTIONARY
360
1CCA
102
}
102
{ACAD_REACTORS
330
1CDB
102
}
330
75
100
AcDbEntity
  8
0
100
AcDbDimension
  2
*D22
 10
326.6010751775813
 20
33.7478242916899
 30
0.0
 11
325.9260751775812
 21
33.7478242916899
 31
0.0
 70
    32
 71
     5
 42
1.350000000000136
  3
Cota Anotativa (A3)
100
AcDbAlignedDimension
 13
325.2510751775812
 23
34.54884943057065
 33
0.0
 14
326.6010751775813
 24
34.54884943057065
 34
0.0
100
AcDbRotatedDimension
1001
AcadAnnotative
1000
AnnotativeData
1002
{
1070
     1
1070
     1
1002
}
1001
ACAD
1000
DSTYLE
1002
{
1070
   140
1040
1.5
1002
}
  0
DIMENSION
  5
1CDC
102
{ACAD_XDICTIONARY
360
1CDD
102
}
102
{ACAD_REACTORS
330
1CEE
102
}
330
75
100
AcDbEntity
  8
0
100
AcDbDimension
  2
*D23
 10
326.913718715912
 20
35.14884943057065
 30
0.0
 11
326.913718715912
 21
34.8488494305707
 31
0.0
 70
    32
 71
     5
 42
0.6000000000000015
  3
Cota Anotativa (A3)
100
AcDbAlignedDimension
 13
326.6010751775813
 23
34.54884943057065
 33
0.0
 14
326.6010751775813
 24
35.14884943057065
 34
0.0
 50
90.0
100
AcDbRotatedDimension
1001
AcadAnnotative
1000
AnnotativeData
1002
{
1070
     1
1070
     1
1002
}
1001
ACAD
1000
DSTYLE
1002
{
1070
   140
1040
1.5
1002
}
  0
DIMENSION
  5
1CEF
102
{ACAD_XDICTIONARY
360
1CF0
102
}
102
{ACAD_REACTORS
330
1D01
102
}
330
75
100
AcDbEntity
  8
0
100
AcDbDimension
  2
*D24
 10
327.2531050675703
 20
34.54884943057065
 30
0.0
 11
327.2531050675703
 21
35.7488494305707
 31
0.0
 70
    32
 71
     5
 42
2.399999999999998
  3
Cota Anotativa (A3)
100
AcDbAlignedDimension
 13
324.3510751775813
 23
36.94884943057065
 33
0.0
 14
326.6010751775813
 24
34.54884943057065
 34
0.0
 50
90.0
100
AcDbRotatedDimension
1001
AcadAnnotative
1000
AnnotativeData
1002
{
1070
     1
1070
     1
1002
}
1001
ACAD
1000
DSTYLE
1002
{
1070
   140
1040
1.5
1002
}
  0
DIMENSION
  5
1E4C
102
{ACAD_XDICTIONARY
360
1E4D
102
}
102
{ACAD_REACTORS
330
1E5E
102
}
330
75
100
AcDbEntity
  8
0
100
AcDbDimension
  2
*D25
 10
322.1010751775813
 20
33.33778227702029
 30
0.0
 11
324.3510751775813
 21
33.33778227702029
 31
0.0
 70
    32
 71
     5
 42
4.5
  3
Cota Anotativa (A3)
100
AcDbAlignedDimension
 13
326.6010751775813
 23
34.54884943057065
 33
0.0
 14
322.1010751775813
 24
34.04884943057065
 34
0.0
100
AcDbRotatedDimension
1001
AcadAnnotative
1000
AnnotativeData
1002
{
1070
     1
1070
     1
1002
}
1001
ACAD
1000
DSTYLE
1002
{
1070
   140
1040
1.5
1002
}
  0
VIEWPORT
  5
124
330
123
100
AcDbEntity
 67
     1
  8
0
100
AcDbViewport
 10
398.781494140625
 20
282.9988708496094
 30
0.0
 40
1067.475352771627
 41
628.5641671142577
 68
     1
 69
     1
 12
398.781494140625
 22
282.9988708496094
 13
0.0
 23
0.0
 14
10.0
 24
10.0
 15
10.0
 25
10.0
 16
0.0
 26
0.0
 36
1.0
 17
0.0
 27
0.0
 37
0.0
 42
50.0
 43
0.0
 44
0.0
 45
628.5641671142577
 50
0.0
 51
0.0
 72
   100
 90
    32800
  1

281
     0
 71
     1
 74
     0
110
0.0
120
0.0
130
0.0
111
1.0
121
0.0
131
0.0
112
0.0
122
1.0
132
0.0
 79
     0
146
0.0
170
     0
  0
INSERT
  5
125
330
123
100
AcDbEntity
 67
     1
  8
0
100
AcDbBlockReference
 66
     1
  2
RETOL(2)
 10
417.4221373833173
 20
260.8108390599166
 30
0.0
  0
ATTRIB
  5
126
330
125
100
AcDbEntity
 67
     1
  8
(0)-L-TEXTE
100
AcDbText
 10
425.8571188000007
 20
225.1499291023247
 30
0.0
 40
4.5
  1
ÀMBIT DEL PROJECTE
  7
ARIAL
 72
     1
 11
460.0844380360171
 21
227.3999291023247
 31
0.0
100
AcDbAttribute
  2
ETIQUETA
 70
     0
 74
     2
  0
SEQEND
  5
127
330
125
100
AcDbEntity
 67
     1
  8
0
  0
INSERT
  5
128
330
123
100
AcDbEntity
 67
     1
  8
(0)-PESENTACIO
100
AcDbBlockReference
  2
NORD
 10
798.6139094569747
 20
560.6653363045394
 30
0.0
  0
INSERT
  5
1651
330
123
100
AcDbEntity
 67
     1
  8
0
100
AcDbBlockReference
 66
     1
  2
CaixTxt2006
 10
0.0
 20
0.0
 30
0.0
  0
ATTRIB
  5
1652
102
{ACAD_XDICTIONARY
360
1653
102
}
330
1651
100
AcDbEntity
 67
     1
  8
0
 62
    30
100
AcDbText
 10
755.0050865971416
 20
20.57813115800627
 30
0.0
 40
4.0
  1
####
  7
ARIAL
 72
     1
 11
761.2206391210162
 21
20.57813115800627
 31
0.0
100
AcDbAttribute
  2
NPLANOL
 70
     0
  0
ATTRIB
  5
1657
102
{ACAD_XDICTIONARY
360
1658
102
}
330
1651
100
AcDbEntity
 67
     1
  8
0
100
AcDbText
 10
671.6770063191846
 20
20.02692942944134
 30
0.0
 40
3.5
  1
XXXXXXXXXXX
  7
ARIAL
 72
     1
 11
689.6139094569746
 21
20.02692942944134
 31
0.0
100
AcDbAttribute
  2
TITOL
 70
     0
  0
ATTRIB
  5
1659
102
{ACAD_XDICTIONARY
360
165A
102
}
330
1651
100
AcDbEntity
 67
     1
  8
0
 62
     7
100
AcDbText
 10
684.1753009985844
 20
12.70144744205197
 30
0.0
 40
3.5
  1
####
  7
ARIAL
 72
     1
 11
689.6139094569746
 21
12.70144744205197
 31
0.0
100
AcDbAttribute
  2
SUBTITOL
 70
     0
  0
ATTRIB
  5
165E
102
{ACAD_XDICTIONARY
360
165F
102
}
330
1651
100
AcDbEntity
 67
     1
  8
0
 62
     7
100
AcDbText
 10
685.7291891295531
 20
6.407796190964178
 30
0.0
 40
2.5
  1
####
  7
ARIAL
 72
     1
 11
689.6139094569746
 21
6.407796190964178
 31
0.0
100
AcDbAttribute
  2
SUBTITOL_2
 70
     0
  0
ATTRIB
  5
1663
330
1651
100
AcDbEntity
 67
     1
  8
0
 62
     7
100
AcDbText
 10
580.9855255410891
 20
22.69100278197687
 30
0.0
 40
2.5
  1
1/XXXX, 1/XXXX
  7
ARIAL
100
AcDbAttribute
  2
ESCALA1
 70
     0
  0
ATTRIB
  5
1664
330
1651
100
AcDbEntity
 67
     1
  8
0
 62
     7
100
AcDbText
 10
580.9855255410891
 20
18.55741870702775
 30
0.0
 40
2.5
  1
1/XXXX, 1/XXXX
  7
ARIAL
100
AcDbAttribute
  2
ESCALA3
 70
     0
  0
ATTRIB
  5
1665
330
1651
100
AcDbEntity
 67
     1
  8
0
 62
     4
100
AcDbText
 10
617.7637253317761
 20
14.02244203017415
 30
0.0
 40
2.25
  1
X m
  7
ARIAL
 72
     1
 11
620.5578078692931
 21
14.02244203017415
 31
0.0
100
AcDbAttribute
  2
GRAFICA
 70
     0
  0
ATTRIB
  5
1666
102
{ACAD_XDICTIONARY
360
1667
102
}
330
1651
100
AcDbEntity
 67
     1
  8
0
 62
     7
100
AcDbText
 10
755.0050865971416
 20
5.40417145642732
 30
0.0
 40
4.0
  1
####
  7
ARIAL
 72
     1
 11
761.2206391210162
 21
5.40417145642732
 31
0.0
100
AcDbAttribute
  2
FULL
 70
     0
  0
SEQEND
  5
166B
330
1651
100
AcDbEntity
 67
     1
  8
0
  0
ENDSEC
  0
SECTION
  2
OBJECTS
  0
DICTIONARY
  5
C
330
0
100
AcDbDictionary
281
     1
  3
ACAD_COLOR
350
6B
  3
ACAD_FIELDLIST
350
251
  3
ACAD_GROUP
350
D
  3
ACAD_LAYOUT
350
6A
  3
ACAD_MATERIAL
350
10
  3
ACAD_MLEADERSTYLE
350
6E
  3
ACAD_MLINESTYLE
350
67
  3
ACAD_PLOTSETTINGS
350
69
  3
ACAD_PLOTSTYLENAME
350
E
  3
ACAD_SCALELIST
350
3A
  3
ACAD_TABLESTYLE
350
6C
  3
ACAD_VISUALSTYLE
350
29
  3
AcAec
350
1BB3
  3
ACDB_RECOMPOSE_DATA
350
318
  3
AcDbVariableDictionary
350
319
  3
ADE_QUERY_LIBRARY
350
3DD
  3
AEC_DISP_REP_CONFIGURATIONS
350
141
  3
AEC_DISP_REP_SETS
350
143
  3
AEC_DISP_REPS
350
146
  3
AEC_DISPLAY_PROPS_DEFAULTS
350
1CD
  3
AEC_LAYERKEY_STYLES
350
1B92
  3
AEC_PROPERTY_SET_DEFS
350
87
  3
AEC_VARS
350
24D
  3
ASE_INDEX_DICTIONARY
350
1C9F
  3
Autodesk_MAP
350
377
1001
ADE
1000
ADE02C004
1000
[Query]
1000
CaseSensitiveMatch=0
1000
SaveCurrQueryInSession=1
1000
MkSelSetWithQryObj=0
1000
ShowBlockAsInsPt=0
1000
CreateAssociativeHatchObjects=0
1000
ReferenceBoundaryForAreaLocation=1
1000
ShowImageAsBoundary=1
1000
DefaultJoinOperator=2
1000
ColorForAdd=red
1000
ColorForRemove=red
1000
BlockLocnForQuery=1
1000
TextLocnForQuery=1
1000
IncludeAllObjectsInGroups=0
1000
AlwaysUseLibraryDefinitions=0
1000
PreviewDefinitionsFrom=2
1000
[Save Back]
1000
RedefineBlockDefinitions=1
1000
RedefineLayerDefinitions=1
1000
RedefineTextStyleDefinitions=1
1000
RemoveUnusedGroups=1
1000
EraseSavedBackObjects=1
1000
RemoveLockAfterSave=1
1000
CreateHistoryFileOfChanges=0
1000
CreateBackupFileOfSourceDwg=1
1000
DontAddObjectsToSaveSet=0
1000
MarkObjectsForEditingWithoutPrompting=0
1000
FdoDontAddObjsToSvSet=0
1000
FdoEditWithoutPrompt=1
1000
FdoRemUnusedGrps=1
1000
FdoEraseSvdBkObjs=1
1000
FdoRemoveLockOnSave=1
1000
FdoTesselationMaxPointsDistance=0
1000
FdoTesselationMaxCurvesDistance=0
1000
[Coordinate Transformation]
1000
RestoreLastActiveDwgsOnStartup=1
1000
ActivateDwgsOnAttach=1
1000
AdjustSizesAndScalesForChangesInUnits=1
1000
AdjustRotationsForMapDistortions=1
1000
AdjustSizesAndScalesForMapDistortions=1
1000
AdjustElevations=1
1000
AdjustZeroRotationObjects=1
1000
ReconnectDbOnWSOpen=1
1000
NoOfSQLConditionsInHistory=10
  0
DICTIONARY
  5
11E
330
2
100
AcDbDictionary
280
     1
281
     1
  3
ACAD_LAYERFILTERS
360
14CE
  3
ACAD_LAYERSTATES
360
11F
  3
ACLYDICTIONARY
360
14CD
  0
DICTIONARY
  5
1B88
330
75
100
AcDbDictionary
280
     1
281
     1
  3
ACAD_SORTENTS
360
1B89
  0
DICTIONARY
  5
99
330
98
100
AcDbDictionary
280
     1
281
     1
  3
ACAD_SORTENTS
360
9A
  3
AcDbBlockTableRecordData
360
2022
  0
DICTIONARY
  5
CA
330
C9
100
AcDbDictionary
280
     1
281
     1
  3
ACAD_SORTENTS
360
CB
  3
AcDbBlockTableRecordData
360
2024
  0
DICTIONARY
  5
15F8
330
15F7
100
AcDbDictionary
280
     1
281
     1
  3
ACAD_SORTENTS
360
15F9
  3
AcDbBlockTableRecordData
360
2028
  0
DICTIONARY
  5
15FC
330
15FB
100
AcDbDictionary
280
     1
281
     1
  3
ACAD_FIELD
360
15FD
  0
DICTIONARY
  5
1601
330
1600
100
AcDbDictionary
280
     1
281
     1
  3
ACAD_FIELD
360
1602
  0
DICTIONARY
  5
160B
330
160A
100
AcDbDictionary
280
     1
281
     1
  3
ACAD_FIELD
360
160C
  0
DICTIONARY
  5
1CA6
330
1CA5
100
AcDbDictionary
280
     1
281
     1
  3
ACAD_DIMASSOC
360
1CB6
  3
AcDbContextDataManager
360
1CA7
  0
DICTIONARY
  5
1CB8
330
1CB7
100
AcDbDictionary
280
     1
281
     1
  3
ACAD_DIMASSOC
360
1CC8
  3
AcDbContextDataManager
360
1CB9
  0
DICTIONARY
  5
1CCA
330
1CC9
100
AcDbDictionary
280
     1
281
     1
  3
ACAD_DIMASSOC
360
1CDB
  3
AcDbContextDataManager
360
1CCB
  0
DICTIONARY
  5
1CDD
330
1CDC
100
AcDbDictionary
280
     1
281
     1
  3
ACAD_DIMASSOC
360
1CEE
  3
AcDbContextDataManager
360
1CDE
  0
DICTIONARY
  5
1CF0
330
1CEF
100
AcDbDictionary
280
     1
281
     1
  3
ACAD_DIMASSOC
360
1D01
  3
AcDbContextDataManager
360
1CF1
  0
DICTIONARY
  5
1E4D
330
1E4C
100
AcDbDictionary
280
     1
281
     1
  3
ACAD_DIMASSOC
360
1E5E
  3
AcDbContextDataManager
360
1E4E
  0
DICTIONARY
  5
1653
330
1652
100
AcDbDictionary
280
     1
281
     1
  3
ACAD_FIELD
360
1654
  0
DICTIONARY
  5
1658
330
1657
100
AcDbDictionary
280
     1
281
     1
  0
DICTIONARY
  5
165A
330
1659
100
AcDbDictionary
280
     1
281
     1
  3
ACAD_FIELD
360
165B
  0
DICTIONARY
  5
165F
330
165E
100
AcDbDictionary
280
     1
281
     1
  3
ACAD_FIELD
360
1660
  0
DICTIONARY
  5
1667
330
1666
100
AcDbDictionary
280
     1
281
     1
  3
ACAD_FIELD
360
1668
  0
DICTIONARY
  5
6B
102
{ACAD_REACTORS
330
C
102
}
330
C
100
AcDbDictionary
281
     1
  0
FIELDLIST
  5
251
102
{ACAD_REACTORS
330
C
102
}
330
C
100
AcDbIdSet
 90
       14
330
15FE
330
15FF
330
1655
330
1656
330
1661
330
1662
330
1669
330
166A
330
165C
330
165D
330
1603
330
1604
330
160D
330
160E
100
AcDbFieldList
  0
DICTIONARY
  5
D
102
{ACAD_REACTORS
330
C
102
}
330
C
100
AcDbDictionary
281
     1
  0
DICTIONARY
  5
6A
102
{ACAD_REACTORS
330
C
102
}
330
C
100
AcDbDictionary
281
     1
  3
Full (Projecte)
350
120
  3
Model
350
78
  0
DICTIONARY
  5
10
102
{ACAD_REACTORS
330
C
102
}
330
C
100
AcDbDictionary
281
     1
  3
ByBlock
350
19
  3
ByLayer
350
11
  3
Global
350
21
  0
DICTIONARY
  5
6E
102
{ACAD_REACTORS
330
C
102
}
330
C
100
AcDbDictionary
281
     1
  3
Fletxa
350
1411
  3
Punt
350
142D
  3
Standard
350
6F
  0
DICTIONARY
  5
67
102
{ACAD_REACTORS
330
C
102
}
330
C
100
AcDbDictionary
281
     1
  3
Standard
350
68
  0
DICTIONARY
  5
69
102
{ACAD_REACTORS
330
C
102
}
330
C
100
AcDbDictionary
281
     1
  3
(A1)HP5500PLOTPS_v2
350
360
  3
(A3 Reduit a A4)HP5500DNPS_v2
350
35E
  3
(A3 Reduit a A4)HP5550PS_P2_v2
350
1900
  3
(A3)AdobePDF_v2
350
35C
  3
(A3)HP2600_1PS_v2
350
35F
  3
(A3)HP5500DNPS_v2
350
35B
  3
(A3)HP5550PS_P2_v2
350
17E9
  3
(A3)HP5550PS_P3_v2
350
1A2E
  3
(A3)HP9000DNPS_v2
350
35D
  3
(A3)Plt_v2
350
16AA
  3
(A3)ProjectesAntics
350
1AC6
  0
ACDBDICTIONARYWDFLT
  5
E
102
{ACAD_REACTORS
330
C
102
}
330
C
100
AcDbDictionary
281
     1
  3
Full Saturation
350
1B96
  3
Normal
350
F
100
AcDbDictionaryWithDefault
340
F
  0
DICTIONARY
  5
3A
102
{ACAD_REACTORS
330
C
102
}
330
C
100
AcDbDictionary
281
     1
  3
A0
350
408
  3
A1
350
1A49
  3
A2
350
1A4A
  3
A3
350
1A4B
  3
A4
350
1A4C
  3
A5
350
1A4D
  3
A6
350
1A4E
  3
A7
350
1A4F
  3
A8
350
1A50
  3
A9
350
1A51
  3
B0
350
1A52
  3
B1
350
1A53
  3
B2
350
1A54
  3
B3
350
1A55
  3
B4
350
1A56
  3
B5
350
1A57
  3
B6
350
1A58
  3
B7
350
1A59
  3
B8
350
1A5A
  3
B9
350
1A5B
  3
C0
350
1A5C
  3
C1
350
1A5D
  3
C2
350
1A5E
  3
C3
350
1A5F
  3
C4
350
1A60
  3
C5
350
1A61
  3
C6
350
1A62
  3
C7
350
1A63
  3
C8
350
1A64
  3
C9
350
1A65
  3
D0
350
1A66
  3
D1
350
145C
  3
D2
350
1A67
  3
D3
350
1A68
  3
D4
350
1A69
  3
D5
350
1A6A
  3
D6
350
1A6B
  3
D7
350
1A6C
  3
D8
350
1A6D
  3
D9
350
1A6E
  3
E0
350
1A6F
  3
E1
350
1A70
  3
E2
350
1A71
  3
E3
350
1A72
  0
DICTIONARY
  5
6C
102
{ACAD_REACTORS
330
C
102
}
330
C
100
AcDbDictionary
281
     1
  3
Legend
350
284
  3
Replanteo
350
286
  3
Standard
350
6D
  0
DICTIONARY
  5
29
102
{ACAD_REACTORS
330
C
102
}
330
C
100
AcDbDictionary
281
     1
  3
2dWireframe
350
2F
  3
3D Hidden
350
31
  3
3dWireframe
350
30
  3
Basic
350
2E
  3
Brighten
350
35
  3
ColorChange
350
39
  3
Conceptual
350
32
  3
Dim
350
34
  3
Facepattern
350
38
  3
Flat
350
2A
  3
FlatWithEdges
350
2B
  3
Gouraud
350
2C
  3
GouraudWithEdges
350
2D
  3
Linepattern
350
37
  3
Realistic
350
33
  3
Thicken
350
36
  0
DICTIONARY
  5
1BB3
102
{ACAD_REACTORS
330
C
102
}
330
C
100
AcDbDictionary
281
     1
  3
AcAecLayerManager
350
1BB4
  0
XRECORD
  5
318
102
{ACAD_REACTORS
330
C
102
}
330
C
100
AcDbXrecord
280
     1
 90
        1
330
6D
330
284
330
286
  0
DICTIONARY
  5
319
102
{ACAD_REACTORS
330
C
102
}
330
C
100
AcDbDictionary
281
     1
  3
CANNOSCALE
350
31C
  3
CMLEADERSTYLE
350
31B
  3
CTABLESTYLE
350
31A
  3
LAYEREVAL
350
1513
  3
LAYERNOTIFY
350
1514
  3
LIGHTINGUNITS
350
1EBC
  3
MSLTSCALE
350
1EBB
  0
DICTIONARY
  5
3DD
102
{ACAD_REACTORS
330
C
102
}
330
C
100
AcDbDictionary
281
     1
  3
_CurrQry
350
1A73
  0
DICTIONARY
  5
141
102
{ACAD_REACTORS
330
C
102
}
330
C
100
AcDbDictionary
281
     1
  0
DICTIONARY
  5
143
102
{ACAD_REACTORS
330
C
102
}
330
C
100
AcDbDictionary
281
     1
  0
DICTIONARY
  5
146
102
{ACAD_REACTORS
330
C
102
}
330
C
100
AcDbDictionary
281
     1
  0
DICTIONARY
  5
1CD
102
{ACAD_REACTORS
330
C
102
}
330
C
100
AcDbDictionary
281
     1
  0
DICTIONARY
  5
1B92
102
{ACAD_REACTORS
330
C
102
}
330
C
100
AcDbDictionary
281
     1
  0
DICTIONARY
  5
87
102
{ACAD_REACTORS
330
C
102
}
330
C
100
AcDbDictionary
281
     1
  0
DICTIONARY
  5
24D
102
{ACAD_REACTORS
330
C
102
}
330
C
100
AcDbDictionary
281
     1
  0
DICTIONARY
  5
1C9F
102
{ACAD_REACTORS
330
C
102
}
330
C
100
AcDbDictionary
281
     1
  3
ASEBlockHierarchyIndexRecord
350
1CA0
1001
DCO15
1040
1638692412.738
  0
DICTIONARY
  5
377
102
{ACAD_REACTORS
330
C
102
}
330
C
100
AcDbDictionary
281
     1
  3
AcMapDMStylizedEntities
350
3AB
  3
FSD_Dictionary
350
3AC
  3
MAP_DISPLAY_CUSTOMOBJ_REG_TABLE
350
37B
  3
MAP_DISPLAY_MANAGEMENT_DICTIONARY
350
378
  3
MAP_DISPLAY_STYLELIBRARY_DICTIONARY
350
379
1001
MapGWS
1000
C:\Documents and Settings\All Users\Datos de programa\Autodesk\AutoCAD Map 3D 2008\R17.1\MapCache\plantilla estils CLABSA (v2)GWS1211193264.xml
  0
DICTIONARY
  5
14CE
102
{ACAD_REACTORS
330
11E
102
}
330
11E
100
AcDbDictionary
281
     1
  0
DICTIONARY
  5
11F
102
{ACAD_REACTORS
330
11E
102
}
330
11E
100
AcDbDictionary
281
     1
  0
DICTIONARY
  5
14CD
102
{ACAD_REACTORS
330
11E
102
}
330
11E
100
AcDbDictionary
281
     1
1001
ACAD
1000
<All
  0
SORTENTSTABLE
  5
1B89
102
{ACAD_REACTORS
330
1B88
102
}
330
1B88
100
AcDbSortentsTable
330
75
331
1BB7
  5
1BB7
331
1B2A
  5
1B2A
331
1B28
  5
1B28
331
1B2B
  5
1B2B
331
1B29
  5
1B29
331
1B27
  5
1B27
331
1B2C
  5
1B2C
  0
SORTENTSTABLE
  5
9A
102
{ACAD_REACTORS
330
99
102
}
330
99
100
AcDbSortentsTable
330
98
  0
DICTIONARY
  5
2022
102
{ACAD_REACTORS
330
99
102
}
330
99
100
AcDbDictionary
280
     1
281
     1
  3
Edit
360
2023
  0
SORTENTSTABLE
  5
CB
102
{ACAD_REACTORS
330
CA
102
}
330
CA
100
AcDbSortentsTable
330
C9
  0
DICTIONARY
  5
2024
102
{ACAD_REACTORS
330
CA
102
}
330
CA
100
AcDbDictionary
280
     1
281
     1
  3
Edit
360
2025
  0
SORTENTSTABLE
  5
15F9
102
{ACAD_REACTORS
330
15F8
102
}
330
15F8
100
AcDbSortentsTable
330
15F7
  0
DICTIONARY
  5
2028
102
{ACAD_REACTORS
330
15F8
102
}
330
15F8
100
AcDbDictionary
280
     1
281
     1
  3
Edit
360
2029
  0
DICTIONARY
  5
15FD
102
{ACAD_REACTORS
330
15FC
102
}
330
15FC
100
AcDbDictionary
280
     1
281
     1
  3
TEXT
360
15FE
  0
DICTIONARY
  5
1602
102
{ACAD_REACTORS
330
1601
102
}
330
1601
100
AcDbDictionary
280
     1
281
     1
  3
TEXT
360
1603
  0
DICTIONARY
  5
160C
102
{ACAD_REACTORS
330
160B
102
}
330
160B
100
AcDbDictionary
280
     1
281
     1
  3
TEXT
360
160D
  0
DIMASSOC
  5
1CB6
102
{ACAD_REACTORS
330
1CA6
102
}
330
1CA6
100
AcDbDimAssoc
330
1CA5
 90
        3
 70
     0
 71
     0
  1
AcDbOsnapPointRef
 72
     1
331
1BB7
 73
     2
 91
        6
 40
2.920278211242004
 10
0.0
 20
0.0
 30
2.000000000000000E+50
 75
     0
  1
AcDbOsnapPointRef
 72
    13
331
1BB7
 73
     2
 91
        2
 40
0.0
 10
0.0
 20
0.0
 30
2.000000000000000E+50
 75
     0
  0
DICTIONARY
  5
1CA7
102
{ACAD_REACTORS
330
1CA6
102
}
330
1CA6
100
AcDbDictionary
281
     1
  3
ACDB_ANNOTATIONSCALES
350
1CA8
  0
DIMASSOC
  5
1CC8
102
{ACAD_REACTORS
330
1CB8
102
}
330
1CB8
100
AcDbDimAssoc
330
1CB7
 90
        3
 70
     0
 71
     0
  1
AcDbOsnapPointRef
 72
     1
331
1BB7
 73
     2
 91
        2
 40
1.0
 10
0.0
 20
0.0
 30
2.000000000000000E+50
 75
     0
  1
AcDbOsnapPointRef
 72
     1
331
1BB7
 73
     2
 91
        3
 40
1.0
 10
0.0
 20
0.0
 30
2.000000000000000E+50
 75
     0
  0
DICTIONARY
  5
1CB9
102
{ACAD_REACTORS
330
1CB8
102
}
330
1CB8
100
AcDbDictionary
281
     1
  3
ACDB_ANNOTATIONSCALES
350
1CBA
  0
DIMASSOC
  5
1CDB
102
{ACAD_REACTORS
330
1CCA
102
}
330
1CCA
100
AcDbDimAssoc
330
1CC9
 90
        2
 70
     0
 71
     0
  1
AcDbOsnapPointRef
 72
     1
331
1BB7
 73
     2
 91
        4
 40
1.0
 10
0.0
 20
0.0
 30
2.000000000000000E+50
 75
     0
  0
DICTIONARY
  5
1CCB
102
{ACAD_REACTORS
330
1CCA
102
}
330
1CCA
100
AcDbDictionary
281
     1
  3
ACDB_ANNOTATIONSCALES
350
1CCC
  0
DIMASSOC
  5
1CEE
102
{ACAD_REACTORS
330
1CDD
102
}
330
1CDD
100
AcDbDimAssoc
330
1CDC
 90
        2
 70
     0
 71
     0
  1
AcDbOsnapPointRef
 72
     1
331
1BB7
 73
     2
 91
        5
 40
1.0
 10
0.0
 20
0.0
 30
2.000000000000000E+50
 75
     0
  0
DICTIONARY
  5
1CDE
102
{ACAD_REACTORS
330
1CDD
102
}
330
1CDD
100
AcDbDictionary
281
     1
  3
ACDB_ANNOTATIONSCALES
350
1CDF
  0
DIMASSOC
  5
1D01
102
{ACAD_REACTORS
330
1CF0
102
}
330
1CF0
100
AcDbDimAssoc
330
1CEF
 90
        1
 70
     0
 71
     0
  1
AcDbOsnapPointRef
 72
     2
331
1BB7
 73
     2
 91
        6
 40
1.570796326794896
 10
0.0
 20
0.0
 30
0.0
 75
     0
  0
DICTIONARY
  5
1CF1
102
{ACAD_REACTORS
330
1CF0
102
}
330
1CF0
100
AcDbDictionary
281
     1
  3
ACDB_ANNOTATIONSCALES
350
1CF2
  0
DIMASSOC
  5
1E5E
102
{ACAD_REACTORS
330
1E4D
102
}
330
1E4D
100
AcDbDimAssoc
330
1E4C
 90
        1
 70
     0
 71
     0
  1
AcDbOsnapPointRef
 72
     1
331
1BB7
 73
     2
 91
        4
 40
1.0
 10
0.0
 20
0.0
 30
2.000000000000000E+50
 75
     0
  0
DICTIONARY
  5
1E4E
102
{ACAD_REACTORS
330
1E4D
102
}
330
1E4D
100
AcDbDictionary
281
     1
  3
ACDB_ANNOTATIONSCALES
350
1E4F
  0
DICTIONARY
  5
1654
102
{ACAD_REACTORS
330
1653
102
}
330
1653
100
AcDbDictionary
280
     1
281
     1
  3
TEXT
360
1655
  0
DICTIONARY
  5
165B
102
{ACAD_REACTORS
330
165A
102
}
330
165A
100
AcDbDictionary
280
     1
281
     1
  3
TEXT
360
165C
  0
DICTIONARY
  5
1660
102
{ACAD_REACTORS
330
165F
102
}
330
165F
100
AcDbDictionary
280
     1
281
     1
  3
TEXT
360
1661
  0
DICTIONARY
  5
1668
102
{ACAD_REACTORS
330
1667
102
}
330
1667
100
AcDbDictionary
280
     1
281
     1
  3
TEXT
360
1669
  0
LAYOUT
  5
120
102
{ACAD_XDICTIONARY
360
121
102
}
102
{ACAD_REACTORS
330
6A
102
}
330
6A
100
AcDbPlotSettings
  1

  2
(a3)HP5500DNPS_P2_v2.pc3
  4
A3
  6

 40
5.365749835968016
 41
5.027085781097412
 42
4.68841552734375
 43
5.027069091796875
 44
420.1583251953125
 45
297.0530090332031
 46
6.0
 47
2.0
 48
0.5721580000000001
 49
0.5097310000000001
140
806.8586059999999
141
558.2577639999998
142
1.0
143
2.0
 70
   688
 72
     1
 73
     2
 74
     5
  7
Blanc i negre.ctb
 75
    17
147
0.5
 76
     0
 77
     4
 78
   300
148
0.0
149
0.0
100
AcDbLayout
  1
Full (Projecte)
 70
     1
 71
     1
 10
-21.3768310546875
 20
-14.05413818359375
 11
818.9398193359375
 21
580.0518798828123
 12
0.0
 22
0.0
 32
0.0
 14
417.4221373833173
 24
4.219996831597851
 34
0.0
 15
796.2098947907698
 25
559.6425649167598
 35
0.0
146
0.0
 13
0.0
 23
0.0
 33
0.0
 16
1.0
 26
0.0
 36
0.0
 17
0.0
 27
1.0
 37
0.0
 76
     0
330
123
331
124
1001
ACAD_PSEXT
1000
(a3)HP5500DNPS_P2_v2.pc3
1000
HP Color LaserJet 5550 PS
1000
Entrada 2ª Planta
1000
Color Duplex A4/A3
1070
     0
  0
LAYOUT
  5
78
102
{ACAD_REACTORS
330
6A
102
}
330
6A
100
AcDbPlotSettings
  1

  2
\\sprint\HP9000DNPS
  4
A4
  6

 40
3.174999952316283
 41
3.174999952316283
 42
3.175003051757812
 43
3.17498779296875
 44
209.8886566162109
 45
297.0530090332031
 46
-3.230673193931578
 47
-3.148489356041038
 48
318.848696
 49
29.86362299999999
140
329.348696
141
44.713623
142
1.0
143
0.05
 70
 11940
 72
     1
 73
     0
 74
     4
  7
Blanc i negre.ctb
 75
     0
147
19.38463367734636
 76
     0
 77
     2
 78
   300
148
-318.848696
149
-29.86362299999999
100
AcDbLayout
  1
Model
 70
     1
 71
     0
 10
0.0
 20
0.0
 11
12.0
 21
9.0
 12
0.0
 22
0.0
 32
0.0
 14
0.0
 24
0.0
 34
0.0
 15
0.0
 25
0.0
 35
0.0
146
0.0
 13
0.0
 23
0.0
 33
0.0
 16
1.0
 26
0.0
 36
0.0
 17
0.0
 27
1.0
 37
0.0
 76
     0
330
75
331
5F
1001
ACAD_PSEXT
1000
\\sprint\HP9000DNPS
1000
HP LaserJet 9000 PS
1000
Planta 2. SPP
1000
A4/A3 B/N Dúplex
1070
     0
  0
MATERIAL
  5
19
102
{ACAD_XDICTIONARY
360
1A
102
}
102
{ACAD_REACTORS
330
10
102
}
330
10
100
AcDbMaterial
  1
ByBlock
 72
     0
 43
0.0208333333333333
 43
0.0
 43
0.0
 43
0.0
 43
0.0
 43
0.0208333333333333
 43
0.0
 43
0.0
 43
0.0
 43
0.0
 43
1.0
 43
0.0
 43
0.0
 43
0.0
 43
0.0
 43
1.0
 77
     0
 47
0.0208333333333333
 47
0.0
 47
0.0
 47
0.0
 47
0.0
 47
0.0208333333333333
 47
0.0
 47
0.0
 47
0.0
 47
0.0
 47
1.0
 47
0.0
 47
0.0
 47
0.0
 47
0.0
 47
1.0
171
     0
 49
0.0208333333333333
 49
0.0
 49
0.0
 49
0.0
 49
0.0
 49
0.0208333333333333
 49
0.0
 49
0.0
 49
0.0
 49
0.0
 49
1.0
 49
0.0
 49
0.0
 49
0.0
 49
0.0
 49
1.0
175
     0
142
0.0208333333333333
142
0.0
142
0.0
142
0.0
142
0.0
142
0.0208333333333333
142
0.0
142
0.0
142
0.0
142
0.0
142
1.0
142
0.0
142
0.0
142
0.0
142
0.0
142
1.0
179
     0
144
0.0208333333333333
144
0.0
144
0.0
144
0.0
144
0.0
144
0.0208333333333333
144
0.0
144
0.0
144
0.0
144
0.0
144
1.0
144
0.0
144
0.0
144
0.0
144
0.0
144
1.0
147
0.0208333333333333
147
0.0
147
0.0
147
0.0
147
0.0
147
0.0208333333333333
147
0.0
147
0.0
147
0.0
147
0.0
147
1.0
147
0.0
147
0.0
147
0.0
147
0.0
147
1.0
  0
MATERIAL
  5
11
102
{ACAD_XDICTIONARY
360
12
102
}
102
{ACAD_REACTORS
330
10
102
}
330
10
100
AcDbMaterial
  1
ByLayer
 72
     0
 43
0.0208333333333333
 43
0.0
 43
0.0
 43
0.0
 43
0.0
 43
0.0208333333333333
 43
0.0
 43
0.0
 43
0.0
 43
0.0
 43
1.0
 43
0.0
 43
0.0
 43
0.0
 43
0.0
 43
1.0
 77
     0
 47
0.0208333333333333
 47
0.0
 47
0.0
 47
0.0
 47
0.0
 47
0.0208333333333333
 47
0.0
 47
0.0
 47
0.0
 47
0.0
 47
1.0
 47
0.0
 47
0.0
 47
0.0
 47
0.0
 47
1.0
171
     0
 49
0.0208333333333333
 49
0.0
 49
0.0
 49
0.0
 49
0.0
 49
0.0208333333333333
 49
0.0
 49
0.0
 49
0.0
 49
0.0
 49
1.0
 49
0.0
 49
0.0
 49
0.0
 49
0.0
 49
1.0
175
     0
142
0.0208333333333333
142
0.0
142
0.0
142
0.0
142
0.0
142
0.0208333333333333
142
0.0
142
0.0
142
0.0
142
0.0
142
1.0
142
0.0
142
0.0
142
0.0
142
0.0
142
1.0
179
     0
144
0.0208333333333333
144
0.0
144
0.0
144
0.0
144
0.0
144
0.0208333333333333
144
0.0
144
0.0
144
0.0
144
0.0
144
1.0
144
0.0
144
0.0
144
0.0
144
0.0
144
1.0
147
0.0208333333333333
147
0.0
147
0.0
147
0.0
147
0.0
147
0.0208333333333333
147
0.0
147
0.0
147
0.0
147
0.0
147
1.0
147
0.0
147
0.0
147
0.0
147
0.0
147
1.0
  0
MATERIAL
  5
21
102
{ACAD_XDICTIONARY
360
22
102
}
102
{ACAD_REACTORS
330
10
102
}
330
10
100
AcDbMaterial
  1
Global
 72
     0
 43
0.0208333333333333
 43
0.0
 43
0.0
 43
0.0
 43
0.0
 43
0.0208333333333333
 43
0.0
 43
0.0
 43
0.0
 43
0.0
 43
1.0
 43
0.0
 43
0.0
 43
0.0
 43
0.0
 43
1.0
 77
     0
 47
0.0208333333333333
 47
0.0
 47
0.0
 47
0.0
 47
0.0
 47
0.0208333333333333
 47
0.0
 47
0.0
 47
0.0
 47
0.0
 47
1.0
 47
0.0
 47
0.0
 47
0.0
 47
0.0
 47
1.0
171
     0
 49
0.0208333333333333
 49
0.0
 49
0.0
 49
0.0
 49
0.0
 49
0.0208333333333333
 49
0.0
 49
0.0
 49
0.0
 49
0.0
 49
1.0
 49
0.0
 49
0.0
 49
0.0
 49
0.0
 49
1.0
175
     0
142
0.0208333333333333
142
0.0
142
0.0
142
0.0
142
0.0
142
0.0208333333333333
142
0.0
142
0.0
142
0.0
142
0.0
142
1.0
142
0.0
142
0.0
142
0.0
142
0.0
142
1.0
179
     0
144
0.0208333333333333
144
0.0
144
0.0
144
0.0
144
0.0
144
0.0208333333333333
144
0.0
144
0.0
144
0.0
144
0.0
144
1.0
144
0.0
144
0.0
144
0.0
144
0.0
144
1.0
147
0.0208333333333333
147
0.0
147
0.0
147
0.0
147
0.0
147
0.0208333333333333
147
0.0
147
0.0
147
0.0
147
0.0
147
1.0
147
0.0
147
0.0
147
0.0
147
0.0
147
1.0
  0
MLEADERSTYLE
  5
1411
102
{ACAD_REACTORS
330
6E
102
}
330
6E
100
AcDbMLeaderStyle
170
     2
171
     1
172
     0
 90
        2
 40
0.0
 41
0.0
173
     1
 91
-1056964608
340
63
 92
       -2
290
     1
 42
1.0
291
     1
 43
2.0
  3
Standard
 44
1.5
300

342
80
174
     2
178
     2
175
     1
176
     0
 93
-1056964608
 45
3.0
292
     0
297
     0
 46
0.18
 94
-1056964608
 47
1.0
 49
1.0
140
1.0
293
     1
141
0.0
294
     1
177
     0
142
1.0
295
     0
296
     1
143
2.0
1001
ACAD_MLEADERVER
1070
     2
  0
MLEADERSTYLE
  5
142D
102
{ACAD_REACTORS
330
6E
102
}
330
6E
100
AcDbMLeaderStyle
170
     2
171
     1
172
     0
 90
        2
 40
0.0
 41
0.0
173
     1
 91
-1056964608
340
63
 92
       -2
290
     1
 42
1.0
291
     1
 43
2.0
  3
Standard
341
1433
 44
1.5
300

342
80
174
     2
178
     2
175
     1
176
     0
 93
-1056964608
 45
3.0
292
     0
297
     0
 46
0.18
 94
-1056964608
 47
1.0
 49
1.0
140
1.0
293
     1
141
0.0
294
     1
177
     0
142
1.0
295
     0
296
     1
143
2.0
1001
ACAD_MLEADERVER
1070
     2
  0
MLEADERSTYLE
  5
6F
102
{ACAD_REACTORS
330
6E
102
}
330
6E
100
AcDbMLeaderStyle
170
     2
171
     1
172
     0
 90
        2
 40
0.0
 41
0.0
173
     1
 91
-1056964608
340
63
 92
       -2
290
     1
 42
0.09
291
     1
 43
0.36
  3
Standard
 44
0.18
300

342
5D
174
     1
178
     6
175
     1
176
     0
 93
-1056964608
 45
0.18
292
     0
297
     0
 46
0.18
 94
-1056964608
 47
1.0
 49
1.0
140
1.0
293
     1
141
0.0
294
     1
177
     0
142
1.0
295
     0
296
     0
143
0.125
1001
ACAD_MLEADERVER
1070
     2
  0
MLINESTYLE
  5
68
102
{ACAD_REACTORS
330
67
102
}
330
67
100
AcDbMlineStyle
  2
STANDARD
 70
     0
  3

 62
   256
 51
90.0
 52
90.0
 71
     2
 49
0.5
 62
   256
  6
BYLAYER
 49
-0.5
 62
   256
  6
BYLAYER
  0
PLOTSETTINGS
  5
360
102
{ACAD_REACTORS
330
69
102
}
330
69
100
AcDbPlotSettings
  1
(A1)HP5500PLOTPS_v2
  2
(A1)HP5500PLOTPS_v2.pc3
  4
User32767
  6

 40
3.174999952316283
 41
3.174999952316283
 42
3.17498779296875
 43
3.17498779296875
 44
900.0
 45
650.0
 46
60.0
 47
40.0
 48
0.5721580000000001
 49
0.5097310000000001
140
806.8586059999999
141
558.2577639999998
142
1.0
143
1.0
 70
  2720
 72
     1
 73
     0
 74
     5
  7
CLABSA.ctb
 75
    17
147
0.5
 76
     0
 77
     4
 78
   300
148
0.0
149
0.0
1001
ACAD_PSEXT
1000
(A1)HP5500PLOTPS_v2.pc3
1000
HP Designjet 5500ps 42 PS3
1000
Planta 2 . Cartografia
1000
A4/A3/A2/A0 Color Plotter
1070
     0
  0
PLOTSETTINGS
  5
35E
102
{ACAD_REACTORS
330
69
102
}
330
69
100
AcDbPlotSettings
  1
(A3 Reduit a A4)HP5500DNPS_v2
  2
(A4)HP5500DNPS_v2.pc3
  4
A4
  6

 40
5.365749835968016
 41
5.027070522308348
 42
5.4080810546875
 43
5.027084350585936
 44
297.0530090332031
 45
209.8886566162109
 46
2.0
 47
0.0
 48
0.5721580000000001
 49
0.5097310000000001
140
806.8586059999999
141
558.2577639999998
142
297.0
143
840.0
 70
  2720
 72
     1
 73
     0
 74
     5
  7
CLABSA.ctb
 75
    17
147
0.5
 76
     0
 77
     4
 78
   300
148
0.0
149
0.0
1001
ACAD_PSEXT
1000
(A4)HP5500DNPS_v2.pc3
1000
HP Color LaserJet 5500 PS
1000
Planta 2 . Entrada
1000
A4/A3 Color Dúplex
1070
     0
  0
PLOTSETTINGS
  5
1900
102
{ACAD_REACTORS
330
69
102
}
330
69
100
AcDbPlotSettings
  1
(A3 Reduit a A4)HP5550PS_P2_v2
  2
(A4)HP5550PS_P2_v2.pc3
  4
A4
  6

 40
5.365749835968016
 41
5.027070522308348
 42
5.4080810546875
 43
5.027084350585936
 44
297.0530090332031
 45
209.8886566162109
 46
2.0
 47
0.0
 48
0.5721580000000001
 49
0.5097310000000001
140
806.8586059999999
141
558.2577639999998
142
297.0
143
840.0
 70
  2720
 72
     1
 73
     0
 74
     5
  7
CLABSA.ctb
 75
    17
147
0.5
 76
     0
 77
     4
 78
   300
148
0.0
149
0.0
1001
ACAD_PSEXT
1000
(A4)HP5550PS_P2_v2.pc3
1000
HP Color LaserJet 5550 PS
1000
Entrada 2ª Planta
1000
Color Duplex A4/A3
1070
     0
  0
PLOTSETTINGS
  5
35C
102
{ACAD_REACTORS
330
69
102
}
330
69
100
AcDbPlotSettings
  1
(A3)AdobePDF_v2
  2
(A3)Adobe PDF_v2.pc3
  4
A3
  6

 40
3.174999952316283
 41
3.174999952316283
 42
3.17498779296875
 43
3.17498779296875
 44
420.1583251953125
 45
297.0318298339844
 46
10.0
 47
4.0
 48
0.5721580000000001
 49
0.5097310000000001
140
806.8586059999999
141
558.2577639999998
142
1.0
143
2.0
 70
  2736
 72
     1
 73
     0
 74
     5
  7
CLABSA.ctb
 75
    17
147
0.5
 76
     0
 77
     4
 78
   300
148
0.0
149
0.0
1001
ACAD_PSEXT
1000
(A3)Adobe PDF_v2.pc3
1000
Adobe PDF Converter
1000
Mis documentos
1000
Crea documentos PDF de Adobe
1070
     0
  0
PLOTSETTINGS
  5
35F
102
{ACAD_REACTORS
330
69
102
}
330
69
100
AcDbPlotSettings
  1
(A3)HP2600_1PS_v2
  2
HP2600_1PS_v2.pc3
  4
A3
  6

 40
13.83241653442383
 41
6.085421085357666
 42
4.3497314453125
 43
6.085418701171875
 44
420.1583251953125
 45
297.0530090332031
 46
-3.0
 47
2.0
 48
0.5721580000000001
 49
0.5097310000000001
140
806.8586059999999
141
558.2577639999998
142
1.0
143
2.0
 70
  2720
 72
     1
 73
     0
 74
     5
  7
CLABSA.ctb
 75
    17
147
0.5
 76
     0
 77
     4
 78
   300
148
0.0
149
0.0
1001
ACAD_PSEXT
1000
HP2600_1PS_v2.pc3
1000
HP Business Inkjet 2600 PS
1000
Planta 2. Delineants
1000
A4/A3 Color Dúplex
1070
     0
  0
PLOTSETTINGS
  5
35B
102
{ACAD_REACTORS
330
69
102
}
330
69
100
AcDbPlotSettings
  1
(A3)HP5500DNPS_v2
  2
(A3)HP5500DNPS_v2.pc3
  4
A3
  6

 40
5.365749835968016
 41
8.921770095825195
 42
9.64141845703125
 43
5.027069091796875
 44
420.1583251953125
 45
297.0530090332031
 46
2.0
 47
2.0
 48
0.5721580000000001
 49
0.5097310000000001
140
806.8586059999999
141
558.2577639999998
142
1.0
143
2.0
 70
  2736
 72
     1
 73
     2
 74
     5
  7
CLABSA.ctb
 75
    17
147
0.5
 76
     0
 77
     4
 78
   300
148
0.0
149
0.0
1001
ACAD_PSEXT
1000
(A3)HP5500DNPS_v2.pc3
1000
HP Color LaserJet 5500 PS
1000
Planta 2 . Entrada
1000
A4/A3 Color Dúplex
1070
     0
  0
PLOTSETTINGS
  5
17E9
102
{ACAD_REACTORS
330
69
102
}
330
69
100
AcDbPlotSettings
  1
(A3)HP5550PS_P2_v2
  2
(a3)HP5500DNPS_P2_v2.pc3
  4
A3
  6

 40
5.365749835968016
 41
5.027085781097412
 42
4.68841552734375
 43
5.027069091796875
 44
420.1583251953125
 45
297.0530090332031
 46
6.0
 47
2.0
 48
0.5721580000000001
 49
0.5097310000000001
140
806.8586059999999
141
558.2577639999998
142
1.0
143
2.0
 70
  2736
 72
     1
 73
     2
 74
     5
  7
CLABSA.ctb
 75
    17
147
0.5
 76
     0
 77
     4
 78
   300
148
0.0
149
0.0
1001
ACAD_PSEXT
1000
(a3)HP5500DNPS_P2_v2.pc3
1000
HP Color LaserJet 5550 PS
1000
Entrada 2ª Planta
1000
Color Duplex A4/A3
1070
     0
  0
PLOTSETTINGS
  5
1A2E
102
{ACAD_REACTORS
330
69
102
}
330
69
100
AcDbPlotSettings
  1
(A3)HP5550PS_P3_v2
  2
(A3)HP5550DNPS_P3_v2.pc3
  4
A3
  6

 40
5.365749835968016
 41
5.027085781097412
 42
4.68841552734375
 43
5.027069091796875
 44
420.1583251953125
 45
297.0530090332031
 46
6.0
 47
2.0
 48
0.5721580000000001
 49
0.5097310000000001
140
806.8586059999999
141
558.2577639999998
142
1.0
143
2.0
 70
  2736
 72
     1
 73
     2
 74
     5
  7
CLABSA.ctb
 75
    17
147
0.5
 76
     0
 77
     4
 78
   300
148
0.0
149
0.0
1001
ACAD_PSEXT
1000
(A3)HP5550DNPS_P3_v2.pc3
1000
HP Color LaserJet 5550 PS
1000
Entrada 3ª Planta
1000
Color A4/A3 Duplex
1070
     0
  0
PLOTSETTINGS
  5
35D
102
{ACAD_REACTORS
330
69
102
}
330
69
100
AcDbPlotSettings
  1
(A3)HP9000DNPS_v2
  2
HP9000DNPS_v2.pc3
  4
A3
  6

 40
3.174999952316283
 41
3.174999952316283
 42
3.17498779296875
 43
3.17498779296875
 44
420.1583251953125
 45
297.0530090332031
 46
10.0
 47
4.0
 48
0.5721580000000001
 49
0.5097310000000001
140
806.8586059999999
141
558.2577639999998
142
1.0
143
2.0
 70
  2736
 72
     1
 73
     2
 74
     5
  7
CLABSA.ctb
 75
    17
147
0.5
 76
     0
 77
     4
 78
   300
148
0.0
149
0.0
1001
ACAD_PSEXT
1000
HP9000DNPS_v2.pc3
1000
HP LaserJet 9000 PS
1000
Planta 2. SPP
1000
A4/A3 B/N Dúplex
1070
     0
  0
PLOTSETTINGS
  5
16AA
102
{ACAD_REACTORS
330
69
102
}
330
69
100
AcDbPlotSettings
  1
(A3)Plt_v2
  2
(A3)HP5500DNPS_PLT_v2.pc3
  4
A3
  6

 40
5.365749835968016
 41
8.921770095825195
 42
9.64141845703125
 43
5.027069091796875
 44
420.1583251953125
 45
297.0530090332031
 46
2.0
 47
2.0
 48
0.5721580000000001
 49
0.5097310000000001
140
806.8586059999999
141
558.2577639999998
142
1.0
143
2.0
 70
  2736
 72
     1
 73
     2
 74
     5
  7
CLABSA.ctb
 75
    17
147
0.5
 76
     0
 77
     4
 78
   300
148
0.0
149
0.0
1001
ACAD_PSEXT
1000
(A3)HP5500DNPS_PLT_v2.pc3
1000
HP Color LaserJet 5500 PS
1000
Archivo
1000
A4/A3 Color Dúplex
1070
     0
  0
PLOTSETTINGS
  5
1AC6
102
{ACAD_REACTORS
330
69
102
}
330
69
100
AcDbPlotSettings
  1
(A3)ProjectesAntics
  2
Adobe PDF
  4
A3
  6

 40
3.174999952316283
 41
3.174999952316283
 42
3.17498779296875
 43
3.17498779296875
 44
297.0318298339844
 45
420.1583251953125
 46
5.0
 47
10.0
 48
0.5721580000000001
 49
0.5097310000000001
140
806.8586059999999
141
558.2577639999998
142
1.0
143
2.0
 70
  2720
 72
     1
 73
     3
 74
     5
  7
STANDARD2.ctb
 75
    17
147
0.5
 76
     0
 77
     4
 78
   300
148
0.0
149
0.0
1001
ACAD_PSEXT
1000
Adobe PDF
1000
Adobe PDF Converter
1000
Mis documentos
1000
Crea documentos PDF de Adobe
1070
     0
  0
ACDBPLACEHOLDER
  5
1B96
102
{ACAD_REACTORS
330
E
102
}
330
E
  0
ACDBPLACEHOLDER
  5
F
102
{ACAD_REACTORS
330
E
102
}
330
E
  0
SCALE
  5
408
102
{ACAD_REACTORS
330
3A
102
}
330
3A
100
AcDbScale
 70
     0
300
1:1000
140
1.0
141
1.0
290
     1
  0
SCALE
  5
1A49
102
{ACAD_REACTORS
330
3A
102
}
330
3A
100
AcDbScale
 70
     0
300
A3: 1/60000 i A1: 1/30000 (1200)
140
1.0
141
30.0
290
     0
  0
SCALE
  5
1A4A
102
{ACAD_REACTORS
330
3A
102
}
330
3A
100
AcDbScale
 70
     0
300
A3: 1/50000 i A1: 1/25000 (1000)
140
1.0
141
25.0
290
     0
  0
SCALE
  5
1A4B
102
{ACAD_REACTORS
330
3A
102
}
330
3A
100
AcDbScale
 70
     0
300
A3: 1/40000 i A1: 1/20000 (800)
140
1.0
141
20.0
290
     0
  0
SCALE
  5
1A4C
102
{ACAD_REACTORS
330
3A
102
}
330
3A
100
AcDbScale
 70
     0
300
A3: 1/30000 i A1: 1/15000 (600)
140
1.0
141
15.0
290
     0
  0
SCALE
  5
1A4D
102
{ACAD_REACTORS
330
3A
102
}
330
3A
100
AcDbScale
 70
     0
300
A3: 1/25000 i A1: 1/12500 (500)
140
1.0
141
12.5
290
     0
  0
SCALE
  5
1A4E
102
{ACAD_REACTORS
330
3A
102
}
330
3A
100
AcDbScale
 70
     0
300
A3: 1/20000 i A1: 1/10000 (400)
140
1.0
141
10.0
290
     0
  0
SCALE
  5
1A4F
102
{ACAD_REACTORS
330
3A
102
}
330
3A
100
AcDbScale
 70
     0
300
A3: 1/16000 i A1: 1/8000 (320)
140
1.0
141
8.0
290
     0
  0
SCALE
  5
1A50
102
{ACAD_REACTORS
330
3A
102
}
330
3A
100
AcDbScale
 70
     0
300
A3: 1/14000 i A1: 1/7000 (280)
140
1.0
141
7.0
290
     0
  0
SCALE
  5
1A51
102
{ACAD_REACTORS
330
3A
102
}
330
3A
100
AcDbScale
 70
     0
300
A3: 1/12000 i A1: 1/6000 (240)
140
1.0
141
6.0
290
     0
  0
SCALE
  5
1A52
102
{ACAD_REACTORS
330
3A
102
}
330
3A
100
AcDbScale
 70
     0
300
A3: 1/10000 i A1: 1/5000 (200)
140
1.0
141
5.0
290
     0
  0
SCALE
  5
1A53
102
{ACAD_REACTORS
330
3A
102
}
330
3A
100
AcDbScale
 70
     0
300
A3: 1/8000 i A1: 1/4000 (160)
140
1.0
141
4.0
290
     0
  0
SCALE
  5
1A54
102
{ACAD_REACTORS
330
3A
102
}
330
3A
100
AcDbScale
 70
     0
300
A3: 1/6000 i A1: 1/3000 (120)
140
1.0
141
3.0
290
     0
  0
SCALE
  5
1A55
102
{ACAD_REACTORS
330
3A
102
}
330
3A
100
AcDbScale
 70
     0
300
A3: 1/5000 i A1: 1/2500 (100)
140
1.0
141
2.5
290
     0
  0
SCALE
  5
1A56
102
{ACAD_REACTORS
330
3A
102
}
330
3A
100
AcDbScale
 70
     0
300
A3: 1/4000 i A1: 1/2000 (80)
140
1.0
141
2.0
290
     0
  0
SCALE
  5
1A57
102
{ACAD_REACTORS
330
3A
102
}
330
3A
100
AcDbScale
 70
     0
300
A3: 1/3000 i A1: 1/1500 (60)
140
1.0
141
1.5
290
     0
  0
SCALE
  5
1A58
102
{ACAD_REACTORS
330
3A
102
}
330
3A
100
AcDbScale
 70
     0
300
A3: 1/2500 i A1: 1/1250 (50)
140
1.0
141
1.25
290
     0
  0
SCALE
  5
1A59
102
{ACAD_REACTORS
330
3A
102
}
330
3A
100
AcDbScale
 70
     0
300
A3: 1/2000 i A1: 1/1000 (40)
140
1.0
141
1.0
290
     0
  0
SCALE
  5
1A5A
102
{ACAD_REACTORS
330
3A
102
}
330
3A
100
AcDbScale
 70
     0
300
A3: 1/1600 i A1: 1/800 (32)
140
1.0
141
0.8
290
     0
  0
SCALE
  5
1A5B
102
{ACAD_REACTORS
330
3A
102
}
330
3A
100
AcDbScale
 70
     0
300
A3: 1/1500 i A1: 1/750 (30)
140
1.0
141
0.75
290
     0
  0
SCALE
  5
1A5C
102
{ACAD_REACTORS
330
3A
102
}
330
3A
100
AcDbScale
 70
     0
300
A3: 1/1200 i A1: 1/600 (24)
140
1.0
141
0.6
290
     0
  0
SCALE
  5
1A5D
102
{ACAD_REACTORS
330
3A
102
}
330
3A
100
AcDbScale
 70
     0
300
A3: 1/1000 i A1: 1/500 (20)
140
1.0
141
0.5
290
     0
  0
SCALE
  5
1A5E
102
{ACAD_REACTORS
330
3A
102
}
330
3A
100
AcDbScale
 70
     0
300
A3: 1/800 i A1: 1/400 (16)
140
1.0
141
0.4
290
     0
  0
SCALE
  5
1A5F
102
{ACAD_REACTORS
330
3A
102
}
330
3A
100
AcDbScale
 70
     0
300
A3: 1/600 i A1: 1/300 (12)
140
1.0
141
0.3
290
     0
  0
SCALE
  5
1A60
102
{ACAD_REACTORS
330
3A
102
}
330
3A
100
AcDbScale
 70
     0
300
A3: 1/500 i A1: 1/250 (10)
140
1.0
141
0.25
290
     0
  0
SCALE
  5
1A61
102
{ACAD_REACTORS
330
3A
102
}
330
3A
100
AcDbScale
 70
     0
300
A3: 1/400 i A1: 1/200 (8)
140
1.0
141
0.2
290
     0
  0
SCALE
  5
1A62
102
{ACAD_REACTORS
330
3A
102
}
330
3A
100
AcDbScale
 70
     0
300
A3: 1/300 i A1: 1/150 (6)
140
1.0
141
0.15
290
     0
  0
SCALE
  5
1A63
102
{ACAD_REACTORS
330
3A
102
}
330
3A
100
AcDbScale
 70
     0
300
A3: 1/250 i A1: 1/125 (5)
140
1.0
141
0.125
290
     0
  0
SCALE
  5
1A64
102
{ACAD_REACTORS
330
3A
102
}
330
3A
100
AcDbScale
 70
     0
300
A3: 1/200 i A1: 1/100 (4)
140
1.0
141
0.1
290
     0
  0
SCALE
  5
1A65
102
{ACAD_REACTORS
330
3A
102
}
330
3A
100
AcDbScale
 70
     0
300
A3: 1/160 i A1: 1/80 (3.2)
140
1.0
141
0.08
290
     0
  0
SCALE
  5
1A66
102
{ACAD_REACTORS
330
3A
102
}
330
3A
100
AcDbScale
 70
     0
300
A3: 1/150 i A1: 1/75 (3)
140
1.0
141
0.075
290
     0
  0
SCALE
  5
145C
102
{ACAD_REACTORS
330
3A
102
}
330
3A
100
AcDbScale
 70
     0
300
A3: 1/120 i A1: 1/60 (2.4)
140
1.0
141
0.06
290
     0
  0
SCALE
  5
1A67
102
{ACAD_REACTORS
330
3A
102
}
330
3A
100
AcDbScale
 70
     0
300
A3: 1/100 i A1: 1/50 (2)
140
1.0
141
0.05
290
     0
  0
SCALE
  5
1A68
102
{ACAD_REACTORS
330
3A
102
}
330
3A
100
AcDbScale
 70
     0
300
A3: 1/80 i A1: 1/40 (1.6)
140
1.0
141
0.04
290
     0
  0
SCALE
  5
1A69
102
{ACAD_REACTORS
330
3A
102
}
330
3A
100
AcDbScale
 70
     0
300
A3: 1/60 i A1: 1/30 (1.2)
140
1.0
141
0.03
290
     0
  0
SCALE
  5
1A6A
102
{ACAD_REACTORS
330
3A
102
}
330
3A
100
AcDbScale
 70
     0
300
A3: 1/50 i A1: 1/25 (1)
140
1.0
141
0.025
290
     0
  0
SCALE
  5
1A6B
102
{ACAD_REACTORS
330
3A
102
}
330
3A
100
AcDbScale
 70
     0
300
A3: 1/40 i A1: 1/20 (0.8)
140
1.0
141
0.02
290
     0
  0
SCALE
  5
1A6C
102
{ACAD_REACTORS
330
3A
102
}
330
3A
100
AcDbScale
 70
     0
300
A3: 1/30 i A1: 1/15 (0.6)
140
1.0
141
0.015
290
     0
  0
SCALE
  5
1A6D
102
{ACAD_REACTORS
330
3A
102
}
330
3A
100
AcDbScale
 70
     0
300
A3: 1/25 i A1: 1/12.5 (0.5)
140
1.0
141
0.0125
290
     0
  0
SCALE
  5
1A6E
102
{ACAD_REACTORS
330
3A
102
}
330
3A
100
AcDbScale
 70
     0
300
A3: 1/20 i A1: 1/10 (0.4)
140
1.0
141
0.01
290
     0
  0
SCALE
  5
1A6F
102
{ACAD_REACTORS
330
3A
102
}
330
3A
100
AcDbScale
 70
     0
300
A3: 1/10 i A1: 1/5 (0.2)
140
1.0
141
0.005
290
     0
  0
SCALE
  5
1A70
102
{ACAD_REACTORS
330
3A
102
}
330
3A
100
AcDbScale
 70
     0
300
A3: 1/8 i A1: 1/4 (0.16)
140
1.0
141
0.004
290
     0
  0
SCALE
  5
1A71
102
{ACAD_REACTORS
330
3A
102
}
330
3A
100
AcDbScale
 70
     0
300
A3: 1/6 i A1: 1/3 (0.12)
140
1.0
141
0.003
290
     0
  0
SCALE
  5
1A72
102
{ACAD_REACTORS
330
3A
102
}
330
3A
100
AcDbScale
 70
     0
300
A3: 1/5 i A1: 1/2.5 (0.1)
140
1.0
141
0.0025
290
     0
  0
TABLESTYLE
  5
284
102
{ACAD_XDICTIONARY
360
285
102
}
102
{ACAD_REACTORS
330
6C
102
}
330
6C
100
AcDbTableStyle
  3

 70
     0
 71
     1
 40
0.06
 41
0.06
280
     0
281
     0
  7
Standard
140
0.4
170
     4
 62
     0
 63
     7
283
     0
274
    -2
284
     0
 64
     0
275
    -2
285
     0
 65
     0
276
    -2
286
     1
 66
     0
277
    -2
287
     1
 67
     0
278
    -2
288
     0
 68
     0
279
    -2
289
     1
 69
     0
  7
Standard
140
0.5
170
     5
 62
     0
 63
     7
283
     0
274
    -2
284
     1
 64
     0
275
    -2
285
     0
 65
     0
276
    -2
286
     1
 66
     0
277
    -2
287
     1
 67
     0
278
    -2
288
     0
 68
     0
279
    -2
289
     1
 69
     0
  7
Standard
140
0.4
170
     4
 62
     0
 63
     7
283
     0
274
    -2
284
     1
 64
     0
275
    -2
285
     0
 65
     0
276
    -2
286
     1
 66
     0
277
    -2
287
     1
 67
     0
278
    -2
288
     0
 68
     0
279
    -2
289
     1
 69
     0
  0
TABLESTYLE
  5
286
102
{ACAD_XDICTIONARY
360
287
102
}
102
{ACAD_REACTORS
330
6C
102
}
330
6C
100
AcDbTableStyle
  3
Standard
 70
     0
 71
     2
 40
0.06
 41
0.06
280
     0
281
     0
  7
ARIAL
140
3.5
170
     5
 62
     0
 63
    64
283
     1
274
    -2
284
     1
 64
     0
275
    -2
285
     1
 65
     0
276
    -2
286
     1
 66
     0
277
    -2
287
     1
 67
     0
278
    -2
288
     1
 68
     0
279
    -2
289
     1
 69
     0
  7
Standard
140
0.25
170
     5
 62
     0
 63
     7
283
     0
274
    -2
284
     1
 64
     0
275
    -2
285
     1
 65
     0
276
    -2
286
     1
 66
     0
277
    -2
287
     1
 67
     0
278
    -2
288
     1
 68
     0
279
    -2
289
     1
 69
     0
  7
ARIAL
140
3.5
170
     5
 62
     0
 63
    64
283
     1
274
    -2
284
     1
 64
     0
275
    -2
285
     1
 65
     0
276
    -2
286
     1
 66
     0
277
    -2
287
     1
 67
     0
278
    -2
288
     1
 68
     0
279
    -2
289
     1
 69
     0
  0
TABLESTYLE
  5
6D
102
{ACAD_XDICTIONARY
360
314
102
}
102
{ACAD_REACTORS
330
6C
102
}
330
6C
100
AcDbTableStyle
  3
Standard
 70
     0
 71
     0
 40
1.5
 41
1.5
280
     0
281
     0
  7
Standard
140
4.5
170
     2
 62
     0
 63
     7
283
     0
274
    -2
284
     1
 64
     0
275
    -2
285
     1
 65
     0
276
    -2
286
     1
 66
     0
277
    -2
287
     1
 67
     0
278
    -2
288
     1
 68
     0
279
    -2
289
     1
 69
     0
  7
Standard
140
6.0
170
     5
 62
     0
 63
     7
283
     0
274
    -2
284
     1
 64
     0
275
    -2
285
     1
 65
     0
276
    -2
286
     1
 66
     0
277
    -2
287
     1
 67
     0
278
    -2
288
     1
 68
     0
279
    -2
289
     1
 69
     0
  7
Standard
140
4.5
170
     5
 62
     0
 63
     7
283
     0
274
    -2
284
     1
 64
     0
275
    -2
285
     1
 65
     0
276
    -2
286
     1
 66
     0
277
    -2
287
     1
 67
     0
278
    -2
288
     1
 68
     0
279
    -2
289
     1
 69
     0
  0
VISUALSTYLE
  5
2F
102
{ACAD_REACTORS
330
29
102
}
330
29
100
AcDbVisualStyle
  2
2dWireframe
 70
     4
 71
     0
 72
     2
 73
     0
 90
        0
 40
-0.6
 41
-30.0
 62
     5
 63
     7
421
 16777215
 74
     1
 91
        4
 64
     7
 65
   257
 75
     1
175
     1
 42
1.0
 92
        0
 66
   257
 43
1.0
 76
     1
 77
     6
 78
     2
 67
     7
 79
     5
170
     0
171
     0
290
     0
174
     0
 93
        1
 44
0.0
173
     0
291
     0
 45
0.0
1001
ACAD
1000
AcDbSavedByObjectVersion
1070
     0
1000
AcDbSavedByObjectVersion
1070
     0
  0
VISUALSTYLE
  5
31
102
{ACAD_REACTORS
330
29
102
}
330
29
100
AcDbVisualStyle
  2
3D Hidden
 70
     6
 71
     1
 72
     2
 73
     2
 90
        0
 40
-0.6
 41
-30.0
 62
     5
 63
     7
421
 16777215
 74
     2
 91
        2
 64
     7
 65
   257
 75
     2
175
     1
 42
40.0
 92
        0
 66
   257
 43
1.0
 76
     1
 77
     6
 78
     2
 67
     7
 79
     3
170
     0
171
     0
290
     0
174
     0
 93
        1
 44
0.0
173
     0
291
     0
 45
0.0
1001
ACAD
1000
AcDbSavedByObjectVersion
1070
     0
1000
AcDbSavedByObjectVersion
1070
     0
  0
VISUALSTYLE
  5
30
102
{ACAD_REACTORS
330
29
102
}
330
29
100
AcDbVisualStyle
  2
3dWireframe
 70
     5
 71
     0
 72
     2
 73
     0
 90
        0
 40
-0.6
 41
-30.0
 62
     5
 63
     7
421
 16777215
 74
     1
 91
        4
 64
     7
 65
   257
 75
     1
175
     1
 42
1.0
 92
        0
 66
   257
 43
1.0
 76
     1
 77
     6
 78
     2
 67
     7
 79
     5
170
     0
171
     0
290
     0
174
     0
 93
        1
 44
0.0
173
     0
291
     0
 45
0.0
1001
ACAD
1000
AcDbSavedByObjectVersion
1070
     0
1000
AcDbSavedByObjectVersion
1070
     0
  0
VISUALSTYLE
  5
2E
102
{ACAD_REACTORS
330
29
102
}
330
29
100
AcDbVisualStyle
  2
Basic
 70
     7
 71
     1
 72
     0
 73
     1
 90
        0
 40
-0.6
 41
-30.0
 62
     5
 63
     7
421
 16777215
 74
     0
 91
        4
 64
     7
 65
   257
 75
     1
175
     1
 42
1.0
 92
        8
 66
     7
 43
1.0
 76
     1
 77
     6
 78
     2
 67
     7
 79
     5
170
     0
171
     0
290
     0
174
     0
 93
        1
 44
0.0
173
     0
291
     1
 45
0.0
1001
ACAD
1000
AcDbSavedByObjectVersion
1070
     0
1000
AcDbSavedByObjectVersion
1070
     0
  0
VISUALSTYLE
  5
35
102
{ACAD_REACTORS
330
29
102
}
330
29
100
AcDbVisualStyle
  2
Brighten
 70
    12
 71
     2
 72
     2
 73
     0
 90
        0
 40
-0.6
 41
-30.0
 62
     5
 63
     7
421
 16777215
 74
     1
 91
        4
 64
     7
 65
   257
 75
     1
175
     1
 42
1.0
 92
        8
 66
     7
 43
1.0
 76
     1
 77
     6
 78
     2
 67
     7
 79
     5
170
     0
171
     0
290
     0
174
     0
 93
        1
 44
50.0
173
     0
291
     1
 45
0.0
1001
ACAD
1000
AcDbSavedByObjectVersion
1070
     0
1000
AcDbSavedByObjectVersion
1070
     0
  0
VISUALSTYLE
  5
39
102
{ACAD_REACTORS
330
29
102
}
330
29
100
AcDbVisualStyle
  2
ColorChange
 70
    16
 71
     2
 72
     2
 73
     3
 90
        0
 40
-0.6
 41
-30.0
 62
     5
 63
     8
421
  8421504
 74
     1
 91
        4
 64
     7
 65
   257
 75
     1
175
     1
 42
1.0
 92
        8
 66
     8
424
  8421504
 43
1.0
 76
     1
 77
     6
 78
     2
 67
     7
 79
     5
170
     0
171
     0
290
     0
174
     0
 93
        1
 44
0.0
173
     0
291
     1
 45
0.0
1001
ACAD
1000
AcDbSavedByObjectVersion
1070
     0
1000
AcDbSavedByObjectVersion
1070
     0
  0
VISUALSTYLE
  5
32
102
{ACAD_REACTORS
330
29
102
}
330
29
100
AcDbVisualStyle
  2
Conceptual
 70
     9
 71
     3
 72
     2
 73
     0
 90
        0
 40
-0.6
 41
-30.0
 62
     5
 63
     7
421
 16777215
 74
     2
 91
        2
 64
     7
 65
   257
 75
     1
175
     1
 42
40.0
 92
        8
 66
     7
 43
1.0
 76
     1
 77
     6
 78
     2
 67
     7
 79
     3
170
     0
171
     0
290
     0
174
     0
 93
        1
 44
0.0
173
     0
291
     0
 45
0.0
1001
ACAD
1000
AcDbSavedByObjectVersion
1070
     0
1000
AcDbSavedByObjectVersion
1070
     0
  0
VISUALSTYLE
  5
34
102
{ACAD_REACTORS
330
29
102
}
330
29
100
AcDbVisualStyle
  2
Dim
 70
    11
 71
     2
 72
     2
 73
     0
 90
        0
 40
-0.6
 41
-30.0
 62
     5
 63
     7
421
 16777215
 74
     1
 91
        4
 64
     7
 65
   257
 75
     1
175
     1
 42
1.0
 92
        8
 66
     7
 43
1.0
 76
     1
 77
     6
 78
     2
 67
     7
 79
     5
170
     0
171
     0
290
     0
174
     0
 93
        1
 44
-50.0
173
     0
291
     1
 45
0.0
1001
ACAD
1000
AcDbSavedByObjectVersion
1070
     0
1000
AcDbSavedByObjectVersion
1070
     0
  0
VISUALSTYLE
  5
38
102
{ACAD_REACTORS
330
29
102
}
330
29
100
AcDbVisualStyle
  2
Facepattern
 70
    15
 71
     2
 72
     2
 73
     0
 90
        0
 40
-0.6
 41
-30.0
 62
     5
 63
     7
421
 16777215
 74
     1
 91
        4
 64
     7
 65
   257
 75
     1
175
     1
 42
1.0
 92
        8
 66
     7
 43
1.0
 76
     1
 77
     6
 78
     2
 67
     7
 79
     5
170
     0
171
     0
290
     0
174
     0
 93
        1
 44
0.0
173
     0
291
     1
 45
0.0
1001
ACAD
1000
AcDbSavedByObjectVersion
1070
     0
1000
AcDbSavedByObjectVersion
1070
     0
  0
VISUALSTYLE
  5
2A
102
{ACAD_REACTORS
330
29
102
}
330
29
100
AcDbVisualStyle
  2
Flat
 70
     0
 71
     2
 72
     1
 73
     1
 90
        2
 40
-0.6
 41
30.0
 62
     5
 63
     7
421
 16777215
 74
     0
 91
        4
 64
     7
 65
   257
 75
     1
175
     1
 42
1.0
 92
        8
 66
     7
 43
1.0
 76
     1
 77
     6
 78
     2
 67
     7
 79
     5
170
     0
171
     0
290
     0
174
     0
 93
       13
 44
0.0
173
     0
291
     1
 45
0.0
1001
ACAD
1000
AcDbSavedByObjectVersion
1070
     0
1000
AcDbSavedByObjectVersion
1070
     0
  0
VISUALSTYLE
  5
2B
102
{ACAD_REACTORS
330
29
102
}
330
29
100
AcDbVisualStyle
  2
FlatWithEdges
 70
     1
 71
     2
 72
     1
 73
     1
 90
        2
 40
-0.6
 41
30.0
 62
     5
 63
     7
421
 16777215
 74
     1
 91
        4
 64
     7
 65
   257
 75
     1
175
     1
 42
1.0
 92
        0
 66
   257
 43
1.0
 76
     1
 77
     6
 78
     2
 67
     7
 79
     5
170
     0
171
     0
290
     0
174
     0
 93
       13
 44
0.0
173
     0
291
     1
 45
0.0
1001
ACAD
1000
AcDbSavedByObjectVersion
1070
     0
1000
AcDbSavedByObjectVersion
1070
     0
  0
VISUALSTYLE
  5
2C
102
{ACAD_REACTORS
330
29
102
}
330
29
100
AcDbVisualStyle
  2
Gouraud
 70
     2
 71
     2
 72
     2
 73
     1
 90
        2
 40
-0.6
 41
30.0
 62
     5
 63
     7
421
 16777215
 74
     0
 91
        4
 64
     7
 65
   257
 75
     1
175
     1
 42
1.0
 92
        0
 66
     7
 43
1.0
 76
     1
 77
     6
 78
     2
 67
     7
 79
     5
170
     0
171
     0
290
     0
174
     0
 93
       13
 44
0.0
173
     0
291
     1
 45
0.0
1001
ACAD
1000
AcDbSavedByObjectVersion
1070
     0
1000
AcDbSavedByObjectVersion
1070
     0
  0
VISUALSTYLE
  5
2D
102
{ACAD_REACTORS
330
29
102
}
330
29
100
AcDbVisualStyle
  2
GouraudWithEdges
 70
     3
 71
     2
 72
     2
 73
     1
 90
        2
 40
-0.6
 41
30.0
 62
     5
 63
     7
421
 16777215
 74
     1
 91
        4
 64
     7
 65
   257
 75
     1
175
     1
 42
1.0
 92
        0
 66
   257
 43
1.0
 76
     1
 77
     6
 78
     2
 67
     7
 79
     5
170
     0
171
     0
290
     0
174
     0
 93
       13
 44
0.0
173
     0
291
     1
 45
0.0
1001
ACAD
1000
AcDbSavedByObjectVersion
1070
     0
1000
AcDbSavedByObjectVersion
1070
     0
  0
VISUALSTYLE
  5
37
102
{ACAD_REACTORS
330
29
102
}
330
29
100
AcDbVisualStyle
  2
Linepattern
 70
    14
 71
     2
 72
     2
 73
     0
 90
        0
 40
-0.6
 41
-30.0
 62
     5
 63
     7
421
 16777215
 74
     1
 91
        4
 64
     7
 65
   257
 75
     7
175
     7
 42
1.0
 92
        8
 66
     7
 43
1.0
 76
     1
 77
     6
 78
     2
 67
     7
 79
     5
170
     0
171
     0
290
     0
174
     0
 93
        1
 44
0.0
173
     0
291
     1
 45
0.0
1001
ACAD
1000
AcDbSavedByObjectVersion
1070
     0
1000
AcDbSavedByObjectVersion
1070
     0
  0
VISUALSTYLE
  5
33
102
{ACAD_REACTORS
330
29
102
}
330
29
100
AcDbVisualStyle
  2
Realistic
 70
     8
 71
     2
 72
     2
 73
     0
 90
        0
 40
-0.6
 41
-30.0
 62
     5
 63
     7
421
 16777215
 74
     1
 91
        0
 64
     7
 65
   257
 75
     1
175
     1
 42
1.0
 92
        8
 66
     8
424
  7895160
 43
1.0
 76
     1
 77
     6
 78
     2
 67
     7
 79
     5
170
     0
171
     0
290
     0
174
     0
 93
       13
 44
0.0
173
     0
291
     0
 45
0.0
1001
ACAD
1000
AcDbSavedByObjectVersion
1070
     0
1000
AcDbSavedByObjectVersion
1070
     0
  0
VISUALSTYLE
  5
36
102
{ACAD_REACTORS
330
29
102
}
330
29
100
AcDbVisualStyle
  2
Thicken
 70
    13
 71
     2
 72
     2
 73
     0
 90
        0
 40
-0.6
 41
-30.0
 62
     5
 63
     7
421
 16777215
 74
     1
 91
        4
 64
     7
 65
   257
 75
     1
175
     1
 42
1.0
 92
       12
 66
     7
 43
1.0
 76
     1
 77
     6
 78
     2
 67
     7
 79
     5
170
     0
171
     0
290
     0
174
     0
 93
        1
 44
0.0
173
     0
291
     1
 45
0.0
1001
ACAD
1000
AcDbSavedByObjectVersion
1070
     0
1000
AcDbSavedByObjectVersion
1070
     0
  0
DICTIONARY
  5
1BB4
102
{ACAD_REACTORS
330
1BB3
102
}
330
1BB3
100
AcDbDictionary
280
     1
281
     1
  3
Standards
360
1BB5
  0
DICTIONARYVAR
  5
31C
102
{ACAD_REACTORS
330
319
102
}
330
319
100
DictionaryVariables
280
     0
  1
A3: 1/120 i A1: 1/60 (2.4)
  0
DICTIONARYVAR
  5
31B
102
{ACAD_REACTORS
330
319
102
}
330
319
100
DictionaryVariables
280
     0
  1
Punt
  0
DICTIONARYVAR
  5
31A
102
{ACAD_REACTORS
330
319
102
}
330
319
100
DictionaryVariables
280
     0
  1
STANDARD
  0
DICTIONARYVAR
  5
1513
102
{ACAD_REACTORS
330
319
102
}
330
319
100
DictionaryVariables
280
     0
  1
0
  0
DICTIONARYVAR
  5
1514
102
{ACAD_REACTORS
330
319
102
}
330
319
100
DictionaryVariables
280
     0
  1
0
  0
DICTIONARYVAR
  5
1EBC
102
{ACAD_REACTORS
330
319
102
}
330
319
100
DictionaryVariables
280
     0
  1
2
  0
DICTIONARYVAR
  5
1EBB
102
{ACAD_REACTORS
330
319
102
}
330
319
100
DictionaryVariables
280
     0
  1
1
  0
XRECORD
  5
1A73
102
{ACAD_REACTORS
330
3DD
102
}
330
3DD
100
AcDbXrecord
280
     1
1000
ADE02C001
1070
     1
1070
     0
1002
{
1002
}
1002
{
1002
}
1002
{
1002
}
1000

  0
XRECORD
  5
1CA0
102
{ACAD_REACTORS
330
1C9F
102
}
330
1C9F
100
AcDbXrecord
280
     1
330
125
330
128
330
1651
330
1C48
330
1C49
  0
ACAD_PROXY_OBJECT
  5
3AB
102
{ACAD_REACTORS
330
377
102
}
330
377
100
AcDbProxyObject
 90
      499
 91
      741
 95
  1703963
 70
     0
 93
       11
310
404C
 94
        0
  0
DICTIONARY
  5
3AC
102
{ACAD_REACTORS
330
377
102
}
330
377
100
AcDbDictionary
280
     1
281
     1
  0
DATATABLE
  5
37B
102
{ACAD_REACTORS
330
377
102
}
330
377
100
AcDbDataTable
 70
     2
 90
        4
 91
       15
  1

 92
        3
  2
OriginalClassName
  3
AcMapDMDefaultStyle
  3
AcMapDMEntityStyle
  3
AcMapDMRasterStyle
  3
AcMapDMSEAnnotationStyle
  3
AcMapDMSEHatchStyle
  3
AcMapDMSETextStyle
  3
AcMapDMThematicStyle
  3
AcMapDMBaseElement
  3
AcMapDMAttachedDwgsQueryElement
  3
AcMapDMFeatureElement
  3
AcMapDMLayerElement
  3
AcMapDMCurrentDwgQueryElement
  3
AcMapDMRasterElement
  3
AcMapDMTopoElement
  3
AcMapDMTopoQueryElement
 92
        3
  2
ProxyDisplayName
  3
Default
  3
Entity
  3
Raster
  3
Annotation
  3
Hatch
  3
Text
  3
Thematic
  3
Map Base
  3
Ade Query
  3
Feature Class
  3
Layer
  3
Ade Project Query
  3
Raster
  3
Topology
  3
Topology Query
 92
        1
  2
CustomObjectType
 93
        2
 93
        2
 93
        2
 93
        2
 93
        2
 93
        2
 93
        2
 93
        1
 93
        1
 93
        1
 93
        1
 93
        1
 93
        1
 93
        1
 93
        1
 92
        1
  2
StyleCoExistanceType
 93
        1
 93
        1
 93
        1
 93
        1
 93
        1
 93
        1
 93
        2
 93
        0
 93
        0
 93
        0
 93
        0
 93
        0
 93
        0
 93
        0
 93
        0
  0
ACAD_PROXY_OBJECT
  5
378
102
{ACAD_REACTORS
330
377
102
}
330
377
100
AcDbProxyObject
 90
      499
 91
      732
 95
  1703963
 70
     0
 93
      241
310
40501004050B44006900730070006C00610079004D00610070003100BA00CC
350
3A4
340
3A4
340
3A4
 94
        0
  0
ACAD_PROXY_OBJECT
  5
379
102
{ACAD_REACTORS
330
377
102
}
330
377
100
AcDbProxyObject
 90
      499
 91
      733
 95
  1703963
 70
     0
 93
       21
310
405014
360
37A
 94
        0
  0
XRECORD
  5
2023
102
{ACAD_REACTORS
330
2022
102
}
330
2022
100
AcDbXrecord
280
     1
1070
     0
1070
     1
1070
     1
  0
XRECORD
  5
2025
102
{ACAD_REACTORS
330
2024
102
}
330
2024
100
AcDbXrecord
280
     1
1070
     0
1070
     1
1070
     1
  0
XRECORD
  5
2029
102
{ACAD_REACTORS
330
2028
102
}
330
2028
100
AcDbXrecord
280
     1
1070
     0
1070
     1
1070
     1
  0
FIELD
  5
15FE
102
{ACAD_REACTORS
330
15FD
102
}
330
15FD
100
AcDbField
  1
_text
  2
%<\_FldIdx 0>%
 90
        1
360
15FF
 97
        0
  4

 91
       63
 92
        0
 94
        9
 95
        2
 96
        0
300

 93
        2
  6
ACFD_FIELDTEXT_ATTDEF
 90
        1
 91
        1
  6
ACFD_FIELDTEXT_CHECKSUM
 90
        2
140
350.0
  7
ACFD_FIELD_VALUE
 90
        0
 91
        0
301

 98
        0
  0
FIELD
  5
1603
102
{ACAD_REACTORS
330
1602
102
}
330
1602
100
AcDbField
  1
_text
  2
%<\_FldIdx 0>%
 90
        1
360
1604
 97
        0
  4

 91
       63
 92
        0
 94
        9
 95
        2
 96
        0
300

 93
        2
  6
ACFD_FIELDTEXT_ATTDEF
 90
        1
 91
        1
  6
ACFD_FIELDTEXT_CHECKSUM
 90
        2
140
350.0
  7
ACFD_FIELD_VALUE
 90
        0
 91
        0
301

 98
        0
  0
FIELD
  5
160D
102
{ACAD_REACTORS
330
160C
102
}
330
160C
100
AcDbField
  1
_text
  2
%<\_FldIdx 0>%
 90
        1
360
160E
 97
        0
  4

 91
       63
 92
        0
 94
        9
 95
        2
 96
        0
300

 93
        2
  6
ACFD_FIELDTEXT_ATTDEF
 90
        1
 91
        1
  6
ACFD_FIELDTEXT_CHECKSUM
 90
        2
140
350.0
  7
ACFD_FIELD_VALUE
 90
        0
 91
        0
301

 98
        0
  0
DICTIONARY
  5
1CA8
102
{ACAD_REACTORS
330
1CA7
102
}
330
1CA7
100
AcDbDictionary
281
     1
  3
*A1
350
1CA9
  0
DICTIONARY
  5
1CBA
102
{ACAD_REACTORS
330
1CB9
102
}
330
1CB9
100
AcDbDictionary
281
     1
  3
*A1
350
1CBB
  0
DICTIONARY
  5
1CCC
102
{ACAD_REACTORS
330
1CCB
102
}
330
1CCB
100
AcDbDictionary
281
     1
  3
*A1
350
1CCD
  0
DICTIONARY
  5
1CDF
102
{ACAD_REACTORS
330
1CDE
102
}
330
1CDE
100
AcDbDictionary
281
     1
  3
*A1
350
1CE0
  0
DICTIONARY
  5
1CF2
102
{ACAD_REACTORS
330
1CF1
102
}
330
1CF1
100
AcDbDictionary
281
     1
  3
*A1
350
1CF3
  0
DICTIONARY
  5
1E4F
102
{ACAD_REACTORS
330
1E4E
102
}
330
1E4E
100
AcDbDictionary
281
     1
  3
*A1
350
1E50
  0
FIELD
  5
1655
102
{ACAD_REACTORS
330
1654
102
}
330
1654
100
AcDbField
  1
_text
  2
%<\_FldIdx 0>%
 90
        1
360
1656
 97
        0
  4

 91
       63
 92
        0
 94
        9
 95
        2
 96
        0
300

 93
        1
  6
ACFD_FIELDTEXT_CHECKSUM
 90
        2
140
350.0
  7
ACFD_FIELD_VALUE
 90
        0
 91
        0
301

 98
        0
  0
FIELD
  5
165C
102
{ACAD_REACTORS
330
165B
102
}
330
165B
100
AcDbField
  1
_text
  2
%<\_FldIdx 0>%
 90
        1
360
165D
 97
        0
  4

 91
       63
 92
        0
 94
        9
 95
        2
 96
        0
300

 93
        1
  6
ACFD_FIELDTEXT_CHECKSUM
 90
        2
140
350.0
  7
ACFD_FIELD_VALUE
 90
        0
 91
        0
301

 98
        0
  0
FIELD
  5
1661
102
{ACAD_REACTORS
330
1660
102
}
330
1660
100
AcDbField
  1
_text
  2
%<\_FldIdx 0>%
 90
        1
360
1662
 97
        0
  4

 91
       63
 92
        0
 94
        9
 95
        2
 96
        0
300

 93
        1
  6
ACFD_FIELDTEXT_CHECKSUM
 90
        2
140
350.0
  7
ACFD_FIELD_VALUE
 90
        0
 91
        0
301

 98
        0
  0
FIELD
  5
1669
102
{ACAD_REACTORS
330
1668
102
}
330
1668
100
AcDbField
  1
_text
  2
%<\_FldIdx 0>%
 90
        1
360
166A
 97
        0
  4

 91
       63
 92
        0
 94
        9
 95
        2
 96
        0
300

 93
        1
  6
ACFD_FIELDTEXT_CHECKSUM
 90
        2
140
350.0
  7
ACFD_FIELD_VALUE
 90
        0
 91
        0
301

 98
        0
  0
DICTIONARY
  5
121
330
120
100
AcDbDictionary
280
     1
281
     1
  3
ADSK_XREC_LAYOUTTHUMBNAIL
360
122
  0
DICTIONARY
  5
1A
330
19
100
AcDbDictionary
280
     1
281
     1
  3
ACAD_XREC_ROUNDTRIP
360
1F52
  3
BUMPTILE
360
1C
  3
DIFFUSETILE
360
1B
  3
OPACITYTILE
360
1F
  3
REFLECTIONTILE
360
1E
  3
REFRACTIONTILE
360
20
  3
SPECULARTILE
360
1D
  0
DICTIONARY
  5
12
330
11
100
AcDbDictionary
280
     1
281
     1
  3
ACAD_XREC_ROUNDTRIP
360
1F51
  3
BUMPTILE
360
14
  3
DIFFUSETILE
360
13
  3
OPACITYTILE
360
17
  3
REFLECTIONTILE
360
16
  3
REFRACTIONTILE
360
18
  3
SPECULARTILE
360
15
  0
DICTIONARY
  5
22
330
21
100
AcDbDictionary
280
     1
281
     1
  3
ACAD_XREC_ROUNDTRIP
360
1F53
  3
BUMPTILE
360
24
  3
DIFFUSETILE
360
23
  3
OPACITYTILE
360
27
  3
REFLECTIONTILE
360
26
  3
REFRACTIONTILE
360
28
  3
SPECULARTILE
360
25
  0
DICTIONARY
  5
285
330
284
100
AcDbDictionary
280
     1
281
     1
  3
ACAD_ROUNDTRIP_2008_TABLESTYLE_CELLSTYLEMAP
360
1FD1
  3
ACAD_XREC_ROUNDTRIP
360
2026
  0
DICTIONARY
  5
287
330
286
100
AcDbDictionary
280
     1
281
     1
  3
ACAD_ROUNDTRIP_2008_TABLESTYLE_CELLSTYLEMAP
360
1FD2
  3
ACAD_XREC_ROUNDTRIP
360
2027
  0
DICTIONARY
  5
314
330
6D
100
AcDbDictionary
280
     1
281
     1
  3
ACAD_ROUNDTRIP_2008_TABLESTYLE_CELLSTYLEMAP
360
1FCF
  3
ACAD_XREC_ROUNDTRIP
360
2021
  0
BINRECORD
  5
1BB5
102
{ACAD_REACTORS
330
1BB4
102
}
330
1BB4
100
AcAecBinRecord
 90
        0
 91
     7984
 70
     0
310
0100FFFEFF1442005300310031003900320020002D002000440065007300630072006900700074006900760065000700FFFF01001C004163416563556B4C6179657244657363726970746976654669656C64FFFEFF0A4400690073006300690070006C0069006E006500010000000000000000000000000000000000000000
310
0000000000000000000000FFFEFF001500FFFEFF01440002000000FFFEFF2344007200610069006E006100670065002C002000530065007700610067006500200061006E006400200052006F0061006400200045006E00670069006E006500650072007300000000000000FFFEFF01450002000000FFFEFF1445006C006500
310
6300740072006900630061006C00200045006E00670069006E006500650072007300000000000000FFFEFF01570002000000FFFEFF0B43006F006E00740072006100630074006F0072007300000000000000FFFEFF01460002000000FFFEFF1346006100630069006C006900740069006500730020004D0061006E00610067
310
00650072007300000000000000FFFEFF01580002000000FFFEFF0F5300750062002D0043006F006E00740072006100630074006F0072007300000000000000FFFEFF01470002000000FFFEFF1F4700490053002C00200045006E00670069006E0065006500720073002000260020004C0061006E0064002000530075007200
310
7600650079006F0072007300000000000000FFFEFF01590002000000FFFEFF145300700065006300690061006C006900730074002000440065007300690067006E00650072007300000000000000FFFEFF01480002000000FFFEFF1F480065006100740069006E006700200026002000560065006E00740069006C00610074
310
0069006E006700200045006E00670069006E006500650072007300000000000000FFFEFF015A0002000000FFFEFF1A470065006E006500720061006C00200028006E006F006E002D006400690073006300690070006C0069006E006100720079002900000000000000FFFEFF01490002000000FFFEFF1249006E0074006500
310
720069006F0072002000640065007300690067006E00650072007300000000000000FFFEFF014A0002000000FFFEFF12540065006C00650063006F006D006D0075006E00690063006100740069006F006E007300000000000000FFFEFF014B0002000000FFFEFF0643006C00690065006E007400000000000000FFFEFF014C
310
0002000000FFFEFF144C0061006E0064007300630061007000650020004100720063006800690074006500630074007300000000000000FFFEFF014D0002000000FFFEFF144D0065006300680061006E006900630061006C00200045006E00670069006E006500650072007300000000000000FFFEFF01500002000000FFFE
310
FF175000750062006C006900630020004800650061006C0074006800200045006E00670069006E006500650072007300000000000000FFFEFF01510002000000FFFEFF125100750061006E00740069007400790020005300750072007600650079006F0072007300000000000000FFFEFF01410002000000FFFEFF0A410072
310
0063006800690074006500630074007300000000000000FFFEFF01530002000000FFFEFF145300740072007500630074007500720061006C00200045006E00670069006E006500650072007300000000000000FFFEFF01420002000000FFFEFF124200750069006C00640069006E0067002000530075007200760065007900
310
6F0072007300000000000000FFFEFF01540002000000FFFEFF1754006F0077006E0020002600200043006F0075006E00740072007900200050006C0061006E006E00650072007300000000000000FFFEFF01430002000000FFFEFF0F43006900760069006C00200045006E00670069006E0065006500720073000000000000
310
000180FFFEFF0745006C0065006D0065006E00740002000000004164642061626F7665207468652073656C6563746564206974656DFFFEFF004100FFFEFF0A2D00570061006C006C00420065006C006F00770002000000FFFEFF16570061006C006C0020002800620065006C006F0077002000630075007400200070006C00
310
61006E0065002900000000000000FFFEFF072D0043006F006C0075006D006E0002000000FFFEFF0743006F006C0075006D006E007300000000000000FFFEFF062D0045006C0065006300740002000000FFFEFF1445006C0065006300740072006900630061006C0020002800670065006E006500720061006C002900000000
310
000000FFFEFF0C2D00460069006E0069007300680046006C006F006F00720002000000FFFEFF0E460069006E006900730068002000280066006C006F006F0072002900000000000000FFFEFF0A2D004D0061007300730053006C0069006300650002000000FFFEFF0B4D00610073007300200073006C006900630065007300
310
000000000000FFFEFF0E2D0053007400610069007200480061006E0064007200610069006C0002000000FFFEFF1253007400610069007200730020002800680061006E0064007200610069006C0073002900000000000000FFFEFF0C2D0053006900740065005500740069006C0069007400790002000000FFFEFF10530069
310
0074006500200028007500740069006C00690074006900650073002900000000000000FFFEFF0C2D005300690074006500560065006800690063006C00650002000000FFFEFF08560065006800690063006C0065007300000000000000FFFEFF082D0043006100620069006E006500740002000000FFFEFF13430061006200
310
69006E00650074007300200026002000630061007300650077006F0072006B00000000000000FFFEFF102D00530061006E0069007400610072007900460069007800740075007200650002000000FFFEFF13530061006E006900740061007200790020002800660069007800740075007200650073002900000000000000FF
310
FEFF052D00530069007400650002000000FFFEFF0E530069007400650020002800670065006E006500720061006C002900000000000000FFFEFF0E2D0054006F0069006C0065007400460069007800740075007200650002000000FFFEFF0F54006F0069006C00650074002000660069007800740075007200650073000000
310
00000000FFFEFF0B2D0041006E006E006F0074006100740069006F006E0002000000FFFEFF1441006E006E006F0074006100740069006F006E0020002800670065006E006500720061006C002900000000000000FFFEFF072D00430061006D0065007200610002000000FFFEFF07430061006D006500720061007300000000
310
000000FFFEFF0D2D0050006C0061006E0074004F007500740064006F006F00720002000000FFFEFF1050006C0061006E0074007300200028006F007500740064006F006F0072002900000000000000FFFEFF0B2D00440065007400610069006C004D00610072006B0002000000FFFEFF1941006E006E006F00740061007400
310
69006F006E0020002800640065007400610069006C0020006D00610072006B0073002900000000000000FFFEFF052D004C0069006600740002000000FFFEFF124C00690066007400730020002600200045007300630061006C00610074006F0072007300000000000000FFFEFF0C2D004D0061007300730045006C0065006D
310
0065006E00740002000000FFFEFF0D4D00610073007300200065006C0065006D0065006E0074007300000000000000FFFEFF082D00530065006100740069006E00670002000000FFFEFF07530065006100740069006E006700000000000000FFFEFF0B2D0047007200690064004C00610079006F007500740002000000FFFE
310
FF0E47007200690064007300200028006C00610079006F00750074002900000000000000FFFEFF052D0052006F006F006D0002000000FFFEFF0552006F006F006D007300000000000000FFFEFF052D00570061006C006C0002000000FFFEFF05570061006C006C007300000000000000FFFEFF052D00410072006500610002
310
000000FFFEFF0541007200650061007300000000000000FFFEFF0A2D004100700070006C00690061006E006300650002000000FFFEFF124B00690074006300680065006E0020006100700070006C00690061006E00630065007300000000000000FFFEFF052D0044006F006F00720002000000FFFEFF0544006F006F007200
310
7300000000000000FFFEFF082D00440069006D006C0069006E00650002000000FFFEFF0A440069006D0065006E00730069006F006E007300000000000000FFFEFF092D0044007200610069006E0061006700650002000000FFFEFF1144007200610069006E0061006700650020007300650072007600690063006500730000
310
0000000000FFFEFF0E2D00460069006E006900730068004300650069006C0069006E00670002000000FFFEFF10460069006E00690073006800200028006300650069006C0069006E0067002900000000000000FFFEFF0F2D0045006C006500630074004C006900670068007400570061006C006C0002000000FFFEFF224500
310
6C0065006300740072006900630061006C0020006C00690067006800740069006E00670020002800770061006C006C0020006D006F0075006E007400650064002900000000000000FFFEFF0E2D005300700061006300650042006F0075006E00640061007200790002000000FFFEFF12530070006100630065002000280062
310
006F0075006E006400610072006900650073002900000000000000FFFEFF0A2D0045006C0065006300740043006F006D006D0002000000FFFEFF1B45006C0065006300740072006900630061006C002000280063006F006D006D0075006E00690063006100740069006F006E0073002900000000000000FFFEFF0A2D004600
310
750072006E006900740075007200650002000000FFFEFF094600750072006E0069007400750072006500000000000000FFFEFF062D005300700061006300650002000000FFFEFF1053007000610063006500200028006400690061006700720061006D0073002900000000000000FFFEFF072D0054006F0069006C00650074
310
0002000000FFFEFF0754006F0069006C00650074007300000000000000FFFEFF062D005400690074006C00650002000000FFFEFF105400690074006C006500730020002600200062006F0072006400650072007300000000000000FFFEFF0B2D00440065007400610069006C00570069006400650002000000FFFEFF144400
310
65007400610069006C00730020002800770069006400650020006C0069006E00650073002900000000000000FFFEFF0E2D004300650069006C0069006E0067004F0062006A0065006300740002000000FFFEFF194300650069006C0069006E00670020002800720065006C00610074006500640020006F0062006A00650063
310
00740073002900000000000000FFFEFF0A2D00450071007500690070006D0065006E00740002000000FFFEFF13450071007500690070006D0065006E00740020002800670065006E006500720061006C002900000000000000FFFEFF0E2D0045006C006500630074004C00690067006800740043006C00670002000000FFFE
310
FF1D45006C0065006300740072006900630061006C0020004C00690067006800740069006E006700200028006300650069006C0069006E0067002900000000000000FFFEFF082D00530065006300740069006F006E0002000000FFFEFF15530065006300740069006F006E00730020002600200065006C0065007600610074
310
0069006F006E007300000000000000FFFEFF062D005300740061006900720002000000FFFEFF06530074006100690072007300000000000000FFFEFF0C2D0045006C0065006300740053007700690074006300680002000000FFFEFF1545006C0065006300740072006900630061006C002000280073007700690074006300
310
6800650073002900000000000000FFFEFF092D00570061006C006C0043006F006D00700002000000FFFEFF11570061006C006C002000280063006F006D0070006F006E0065006E00740073002900000000000000FFFEFF052D004E006F007400650002000000FFFEFF1941006E006E006F0074006100740069006F006E0020
310
0028006E006F0074006500730020002600200074006500780074002900000000000000FFFEFF0C2D00530065006300740069006F006E004D00610072006B0002000000FFFEFF0D530065006300740069006F006E0020006D00610072006B007300000000000000FFFEFF072D00500065006F0070006C00650002000000FFFE
310
FF06500065006F0070006C006500000000000000FFFEFF0C2D0050006C0061006E00740049006E0064006F006F00720002000000FFFEFF0F50006C0061006E00740073002000280069006E0064006F006F0072002900000000000000FFFEFF072D00570069006E0064006F00770002000000FFFEFF07570069006E0064006F
310
0077007300000000000000FFFEFF0B2D00570061006C006C00430065006E0074007200650002000000FFFEFF12570061006C006C0020002800630065006E0074007200650020006C0069006E0065002900000000000000FFFEFF0A2D00570061006C006C00410062006F007600650002000000FFFEFF16570061006C006C00
310
20002800610062006F00760065002000630075007400200070006C0061006E0065002900000000000000FFFEFF0D2D0045006C0065006300740043006F006E00740072006F006C0002000000FFFEFF1545006C0065006300740072006900630061006C002000280063006F006E00740072006F006C00730029000000000000
310
00FFFEFF082D005000610072006B0069006E00670002000000FFFEFF0E5000610072006B0069006E0067002000730070006100630065007300000000000000FFFEFF052D0052006F006F00660002000000FFFEFF0552006F006F0066007300000000000000FFFEFF0A2D00440065007400610069006C004D00650064000200
310
0000FFFEFF16440065007400610069006C007300200028006D0065006400690075006D0020006C0069006E00650073002900000000000000FFFEFF092D0053006500630074004D0063007500740002000000FFFEFF0B530065006300740069006F006E002000630075007400000000000000FFFEFF092D0052006500760069
310
00730069006F006E0002000000FFFEFF1641006E006E006F0074006100740069006F006E00200028007200650076006900730069006F006E0073002900000000000000FFFEFF0E2D00450071007500690070006D0065006E007400460069007200650002000000FFFEFF10450071007500690070006D0065006E0074002000
310
280066006900720065002900000000000000FFFEFF052D00470072006900640002000000FFFEFF044700720069006400000000000000FFFEFF0A2D004D00610073007300470072006F007500700002000000FFFEFF0B4D006100730073002000670072006F00750070007300000000000000FFFEFF0B2D0044006500740061
310
0069006C005400680069006E0002000000FFFEFF14440065007400610069006C007300200028007400680069006E0020006C0069006E00650073002900000000000000FFFEFF0C2D004300650069006C0069006E006700470072006900640002000000FFFEFF0F4300650069006C0069006E00670020002800670072006900
310
640073002900000000000000FFFEFF0B2D0045006C0065006300740050006F0077006500720002000000FFFEFF1B45006C0065006300740072006900630061006C002000280070006F00770065007200200073007500700070006C006900650073002900000000000000FFFEFF082D004F00700065006E0069006E00670002
310
000000FFFEFF0D570061006C006C0020006F00700065006E0069006E0067007300000000000000FFFEFF0B2D00440065007400610069006C00460069006E00650002000000FFFEFF14440065007400610069006C00730020002800660069006E00650020006C0069006E00650073002900000000000000FFFEFF0C2D004400
310
65007400610069006C004800610074006300680002000000FFFEFF12440065007400610069006C007300200028006800610074006300680069006E00670029000000000000000180FFFEFF08470072006100700068006900630073000300000000000000000000000000000000000000000000000000000000000000FFFEFF
310
000700FFFEFF022D00410002000000FFFEFF0A4100740074007200690062007500740065007300000000000000FFFEFF022D00300002000000FFFEFF074E006F0074002000730065007400000000000000FFFEFF022D00430002000000FFFEFF0C43006F006E0073007400720075006300740069006F006E00000000000000
310
FFFEFF022D00540002000000FFFEFF045400650078007400000000000000FFFEFF022D00440002000000FFFEFF0A440069006D0065006E00730069006F006E007300000000000000FFFEFF022D00470002000000FFFEFF0847007200610070006800690063007300000000000000FFFEFF022D00480002000000FFFEFF0848
310
00610074006300680069006E0067000000000000000180FFFEFF054C006500760065006C000400000000000000000000000000000000000000000000000000000000000000FFFEFF000B00FFFEFF023000300002000000FFFEFF074C006500760065006C0020003000000000000000FFFEFF023000310002000000FFFEFF07
310
4C006500760065006C0020003100000000000000FFFEFF023000320002000000FFFEFF074C006500760065006C0020003200000000000000FFFEFF023000330002000000FFFEFF074C006500760065006C0020003300000000000000FFFEFF023000340002000000FFFEFF074C006500760065006C00200034000000000000
310
00FFFEFF023000350002000000FFFEFF074C006500760065006C0020003500000000000000FFFEFF023000360002000000FFFEFF074C006500760065006C0020003600000000000000FFFEFF023000370002000000FFFEFF074C006500760065006C0020003700000000000000FFFEFF023000380002000000FFFEFF074C00
310
6500760065006C0020003800000000000000FFFEFF023000390002000000FFFEFF074C006500760065006C0020003900000000000000FFFEFF023100300002000000FFFEFF084C006500760065006C002000310030000000000000000180FFFEFF065300740061007400750073000500000000000000000000000000000000
310
000000000000000000000000000000FFFEFF000400FFFEFF01580002000000FFFEFF084500780069007300740069006E006700000000000000FFFEFF014E0002000000FFFEFF034E0065007700000000000000FFFEFF01520002000000FFFEFF0D54006F002000620065002000720065006D006F0076006500640000000000
310
0000FFFEFF01300002000000FFFEFF074E006F00740020007300650074000000000000000180FFFEFF055300630061006C0065000600000000000000000000000000000000000000000000000000000000000000FFFEFF000500FFFEFF01440002000000FFFEFF06440065007400610069006C00000000000000FFFEFF0150
310
0002000000FFFEFF0850006C0061006E006E0069006E006700000000000000FFFEFF01300002000000FFFEFF074E006F0074002000730065007400000000000000FFFEFF01410002000000FFFEFF0841006300740069007600690074007900000000000000FFFEFF01530002000000FFFEFF04530069007400650000000000
310
00000180FFFEFF05500068006100730065000700000000000000000000000000000000000000000000000000000000000000FFFEFF000900FFFEFF01440002000000FFFEFF075000680061007300650020004400000000000000FFFEFF01330002000000FFFEFF075000680061007300650020003300000000000000FFFEFF
310
01340002000000FFFEFF075000680061007300650020003400000000000000FFFEFF01350002000000FFFEFF075000680061007300650020003500000000000000FFFEFF01410002000000FFFEFF075000680061007300650020004100000000000000FFFEFF01420002000000FFFEFF075000680061007300650020004200
310
000000000000FFFEFF01310002000000FFFEFF075000680061007300650020003100000000000000FFFEFF01430002000000FFFEFF075000680061007300650020004300000000000000FFFEFF01320002000000FFFEFF0750006800610073006500200032000000000000000700FFFF04001A004163416563556B4C617965
310
72436F6D706F6E656E744669656C64FFFEFF0A4400690073006300690070006C0069006E00650001000000FFFEFF065B00300041002D005A005D00000000000100000000FFFEFF014100000000000980FFFEFF0745006C0065006D0065006E00740010000000FFFEFF022D002A0000000000000000002DFFFEFF052D005700
310
61006C006C00000000000980FFFEFF084700720061007000680069006300730002000000FFFEFF0B2D005B0030004100430044004700480054005A005D0000000000010000002DFFFEFF022D004700000000000980FFFEFF054C006500760065006C0002000000FFFEFF105B0030002D00390041002D005A005D005B003000
310
2D00390041002D005A005D00010000000100000000FFFEFF0230003000000000000980FFFEFF0653007400610074007500730001000000FFFEFF065B0030004E00580052005D00010000000100000000FFFEFF013000000000000980FFFEFF055300630061006C00650001000000FFFEFF075B00300041005300500044005D
310
00010000000100000000FFFEFF013000000000000980FFFEFF055000680061007300650001000000FFFEFF085B0030002D00390041002D005A005D00010000000100000000FFFEFF0130000000000003000001020300FFFEFF00FFFEFF022C002000FFFEFF022C002000FFFEFF00
  0
ACAD_PROXY_OBJECT
  5
3A4
102
{ACAD_REACTORS
330
378
330
3A5
102
}
330
378
100
AcDbProxyObject
 90
      499
 91
      736
 95
  1703963
 70
     0
 93
      883
310
4050140501404FFFFFFFFFFFFEF7FA0B1FFFFFFFFFFFFDEFFA00000000000004202027FFFFFFFFFFFF7BF9C0000000000204FA02D0000000000201190000000000008046404A10142D4001BC01C800800190019401980194018C01D001BC01064C006500670065006E00640089806C
330
0
360
3A5
360
3A6
 94
        0
  0
ACAD_PROXY_OBJECT
  5
37A
102
{ACAD_REACTORS
330
379
102
}
330
0
100
AcDbProxyObject
 90
      499
 91
      734
 95
  1703963
 70
     0
 93
      327
310
4064495801A401CC01D4018401B001A401E8018401C80080019401CC01D001A401B001BC01CC00A806
 94
        0
  0
FIELD
  5
15FF
330
15FE
100
AcDbField
  1
AcSm
  2
\AcSm Sheet.Number \f "%tc1"
 90
        0
 97
        0
  4
%tc1
 91
       63
 92
        0
 94
       43
 95
       32
 96
      335
300

 93
        2
  6
SheetSetCompName
 90
        4
  1
Sheet
  6
SheetSetPropertyName
 90
        4
  1
Number
  7
ACFD_FIELD_VALUE
 90
        0
 91
        0
301
####
 98
        4
  0
FIELD
  5
1604
330
1603
100
AcDbField
  1
AcSm
  2
\AcSm Sheet.Title \f "%tc1"
 90
        0
 97
        0
  4
%tc1
 91
       63
 92
        0
 94
       43
 95
       32
 96
      335
300

 93
        2
  6
SheetSetCompName
 90
        4
  1
Sheet
  6
SheetSetPropertyName
 90
        4
  1
Title
  7
ACFD_FIELD_VALUE
 90
        0
 91
        0
301
####
 98
        4
  0
FIELD
  5
160E
330
160D
100
AcDbField
  1
AcSm
  2
\AcSm Sheet.Full \f "%tc2"
 90
        0
 97
        0
  4
%tc2
 91
       63
 92
        0
 94
       43
 95
       32
 96
      335
300

 93
        2
  6
SheetSetCompName
 90
        4
  1
Sheet
  6
SheetSetPropertyName
 90
        4
  1
Full
  7
ACFD_FIELD_VALUE
 90
        0
 91
        0
301
####
 98
        4
  0
ACDB_ALDIMOBJECTCONTEXTDATA_CLASS
  5
1CA9
102
{ACAD_REACTORS
330
1CA8
102
}
330
1CA8
100
AcDbObjectContextData
 70
     3
290
     1
100
AcDbAnnotScaleObjectContextData
340
145C
100
AcDbDimensionObjectContextData
  2
*D20
293
     0
 10
321.8486529869348
 20
34.5988494305707
294
     1
140
0.0
298
     0
291
     0
 70
     0
292
     0
 71
     0
280
     0
295
     0
296
     0
297
     0
100
AcDbAlignedDimensionObjectContextData
 11
321.8486529869348
 21
34.04884943057065
 31
0.0
  0
ACDB_ALDIMOBJECTCONTEXTDATA_CLASS
  5
1CBB
102
{ACAD_REACTORS
330
1CBA
102
}
330
1CBA
100
AcDbObjectContextData
 70
     3
290
     1
100
AcDbAnnotScaleObjectContextData
340
145C
100
AcDbDimensionObjectContextData
  2
*D21
293
     0
 10
325.5796907292263
 20
34.2988494305707
294
     1
140
0.0
298
     0
291
     0
 70
     0
292
     0
 71
     0
280
     0
295
     0
296
     0
297
     0
100
AcDbAlignedDimensionObjectContextData
 11
325.5796907292263
 21
34.54884943057065
 31
0.0
  0
ACDB_ALDIMOBJECTCONTEXTDATA_CLASS
  5
1CCD
102
{ACAD_REACTORS
330
1CCC
102
}
330
1CCC
100
AcDbObjectContextData
 70
     3
290
     1
100
AcDbAnnotScaleObjectContextData
340
145C
100
AcDbDimensionObjectContextData
  2
*D22
293
     0
 10
325.9260751775812
 20
33.7478242916899
294
     1
140
0.0
298
     0
291
     0
 70
     0
292
     0
 71
     0
280
     0
295
     0
296
     0
297
     0
100
AcDbAlignedDimensionObjectContextData
 11
326.6010751775813
 21
33.7478242916899
 31
0.0
  0
ACDB_ALDIMOBJECTCONTEXTDATA_CLASS
  5
1CE0
102
{ACAD_REACTORS
330
1CDF
102
}
330
1CDF
100
AcDbObjectContextData
 70
     3
290
     1
100
AcDbAnnotScaleObjectContextData
340
145C
100
AcDbDimensionObjectContextData
  2
*D23
293
     0
 10
326.913718715912
 20
34.8488494305707
294
     1
140
0.0
298
     0
291
     0
 70
     0
292
     0
 71
     0
280
     0
295
     0
296
     0
297
     0
100
AcDbAlignedDimensionObjectContextData
 11
326.913718715912
 21
35.14884943057065
 31
0.0
  0
ACDB_ALDIMOBJECTCONTEXTDATA_CLASS
  5
1CF3
102
{ACAD_REACTORS
330
1CF2
102
}
330
1CF2
100
AcDbObjectContextData
 70
     3
290
     1
100
AcDbAnnotScaleObjectContextData
340
145C
100
AcDbDimensionObjectContextData
  2
*D24
293
     0
 10
327.2531050675703
 20
35.7488494305707
294
     1
140
0.0
298
     0
291
     0
 70
     0
292
     0
 71
     0
280
     0
295
     0
296
     0
297
     0
100
AcDbAlignedDimensionObjectContextData
 11
327.2531050675703
 21
34.54884943057065
 31
0.0
  0
ACDB_ALDIMOBJECTCONTEXTDATA_CLASS
  5
1E50
102
{ACAD_REACTORS
330
1E4F
102
}
330
1E4F
100
AcDbObjectContextData
 70
     3
290
     1
100
AcDbAnnotScaleObjectContextData
340
145C
100
AcDbDimensionObjectContextData
  2
*D25
293
     0
 10
324.3510751775813
 20
33.33778227702029
294
     1
140
0.0
298
     0
291
     0
 70
     0
292
     0
 71
     0
280
     0
295
     0
296
     0
297
     0
100
AcDbAlignedDimensionObjectContextData
 11
322.1010751775813
 21
33.33778227702029
 31
0.0
  0
FIELD
  5
1656
330
1655
100
AcDbField
  1
AcSm
  2
\AcSm Sheet.Number \f "%tc1"
 90
        0
 97
        0
  4
%tc1
 91
       63
 92
        0
 94
       43
 95
       32
 96
       22
300

 93
        2
  6
SheetSetCompName
 90
        4
  1
Sheet
  6
SheetSetPropertyName
 90
        4
  1
Number
  7
ACFD_FIELD_VALUE
 90
        0
 91
        0
301
####
 98
        4
  0
FIELD
  5
165D
330
165C
100
AcDbField
  1
AcSm
  2
\AcSm Subset.Name \f "%tc1"
 90
        0
 97
        0
  4
%tc1
 91
       63
 92
        0
 94
       43
 95
       32
 96
       22
300

 93
        2
  6
SheetSetCompName
 90
        4
  1
Subset
  6
SheetSetPropertyName
 90
        4
  1
Name
  7
ACFD_FIELD_VALUE
 90
        0
 91
        0
301
####
 98
        4
  0
FIELD
  5
1662
330
1661
100
AcDbField
  1
AcSm
  2
\AcSm Sheet.Title \f "%tc1"
 90
        0
 97
        0
  4
%tc1
 91
       63
 92
        0
 94
       43
 95
       32
 96
       22
300

 93
        2
  6
SheetSetCompName
 90
        4
  1
Sheet
  6
SheetSetPropertyName
 90
        4
  1
Title
  7
ACFD_FIELD_VALUE
 90
        0
 91
        0
301
####
 98
        4
  0
FIELD
  5
166A
330
1669
100
AcDbField
  1
AcSm
  2
\AcSm Sheet.Full \f "%tc2"
 90
        0
 97
        0
  4
%tc2
 91
       63
 92
        0
 94
       43
 95
       32
 96
       22
300

 93
        2
  6
SheetSetCompName
 90
        4
  1
Sheet
  6
SheetSetPropertyName
 90
        4
  1
Full
  7
ACFD_FIELD_VALUE
 90
        0
 91
        0
301
####
 98
        4
  0
XRECORD
  5
122
102
{ACAD_REACTORS
330
121
102
}
330
121
100
AcDbXrecord
280
     1
310
28000000B40000007F00000001000800000000004C59000000000000000000000001000000000000FFFFFF0000000000FFFFFF000000000000000000000000000000000000000000000000000000000000000000330000006600000099000000CC000000FF00000000330000333300006633000099330000CC330000FF3300
310
0000660000336600006666000099660000CC660000FF66000000990000339900006699000099990000CC990000FF99000000CC000033CC000066CC000099CC0000CCCC0000FFCC000000FF000033FF000066FF000099FF0000CCFF0000FFFF000000003300330033006600330099003300CC003300FF003300003333003333
310
33006633330099333300CC333300FF33330000663300336633006666330099663300CC663300FF66330000993300339933006699330099993300CC993300FF99330000CC330033CC330066CC330099CC3300CCCC3300FFCC330000FF330033FF330066FF330099FF3300CCFF3300FFFF330000006600330066006600660099
310
006600CC006600FF00660000336600333366006633660099336600CC336600FF33660000666600336666006666660099666600CC666600FF66660000996600339966006699660099996600CC996600FF99660000CC660033CC660066CC660099CC6600CCCC6600FFCC660000FF660033FF660066FF660099FF6600CCFF6600
310
FFFF660000009900330099006600990099009900CC009900FF00990000339900333399006633990099339900CC339900FF33990000669900336699006666990099669900CC669900FF66990000999900339999006699990099999900CC999900FF99990000CC990033CC990066CC990099CC9900CCCC9900FFCC990000FF99
310
0033FF990066FF990099FF9900CCFF9900FFFF99000000CC003300CC006600CC009900CC00CC00CC00FF00CC000033CC003333CC006633CC009933CC00CC33CC00FF33CC000066CC003366CC006666CC009966CC00CC66CC00FF66CC000099CC003399CC006699CC009999CC00CC99CC00FF99CC0000CCCC0033CCCC0066CC
310
CC0099CCCC00CCCCCC00FFCCCC0000FFCC0033FFCC0066FFCC0099FFCC00CCFFCC00FFFFCC000000FF003300FF006600FF009900FF00CC00FF00FF00FF000033FF003333FF006633FF009933FF00CC33FF00FF33FF000066FF003366FF006666FF009966FF00CC66FF00FF66FF000099FF003399FF006699FF009999FF00CC
310
99FF00FF99FF0000CCFF0033CCFF0066CCFF0099CCFF00CCCCFF00FFCCFF0000FFFF0033FFFF0066FFFF0099FFFF00CCFFFF00FFFFFF00000000000D0D0D001A1A1A00282828003535350043434300505050005D5D5D006B6B6B00787878008686860093939300A1A1A100AEAEAE00BBBBBB00C9C9C900D6D6D600E4E4E400
310
F1F1F100FFFFFF0000000000000000000000000000000000000000000000000000000000000000000000000000000000E2E2E2E2E2E2E2E2E2E2E2E2E2E2E2E2E2E2E2E2E2E2E2E2E2E2E2E2E2E2E2E2E2E2E2E2E2E2E2E2E2E2E2E2E2E2E2E2E2E2E2E2E2E2E2E2E2E2E2E2E2E2E2E2E2E2E2E2E2E2E2E2E2E2E2E2E2E2E2
310
E2E2E2E2E2E2E2E2E2E2E2E2E2E2E2E2E2E2E2E2E2E2E2E2E2E2E2E2E2E2E2E2E2E2E2E2E2E2E2E2E2E2E2E2E2E2E2E2E2E2E2E2E2E2E2E2E2E2E2E2E2E2E2E2E2E2E2E2E2E2E2E2E2E2E2E2E2E2E2E2E2E2E2E2E2E2E2E2E2E2E2E2E2E2E2E2E2E2E2E2EFE2F5F5F5F5F5F5F5F5F5F5F5F5F5F5F5F5F5F5F5F5F5F5F5F5F5
310
F5F5F5F5F5F5F5F5F5F5F5F5F5F5F5F5F5F5F5F5F5F5F5F5F5F5F5F5F5F5F5F5F5F5F5F5F5F5F5F5F5F5F5F5F5F5F5F5F5F5F5F5F5F5F5F5F5F5F5F5F5F5F5F5F5F5F5F5F5F5F5F5F5F5F5F5F5F5F5F5F5F5F5F5F5F5F5F5F5F5F5F5F5F5F5F5F5F5F5F5F5F5F5F5F5F5F5F5F5F5F5F5F5F5F5F5F5F5F5F5F5F5F5F5F5F5F5
310
F5F5F5F5F5F5F5F5F5F5F5F5F5F5F5F5F5F5F5F5F5F5F5F5F5E2EFE2F5E2E2E2E2E2E2E2E2F5F5F5F5F5F5F5F5F5E2E2E2E2E2E2E2E2E2E2E2E2E2E2E2E2F5F5F5F5F5F5F5F5F5E2E2E2E2E2E2E2E2E2E2E2E2E2E2E2E2F5F5F5F5F5F5F5F5F5E2E2E2E2E2E2E2E2E2E2E2E2E2E2E2E2F5F5F5F5F5F5F5F5F5E2E2E2E2E2E2
310
E2E2E2E2E2E2E2E2E2E2F5F5F5F5F5F5F5F5F5E2E2E2E2E2E2E2E2E2E2E2E2E2E2E2E2F5F5F5F5F5F5F5F5F5E2E2E2E2E2E2E2E2E2E2E2E2E2E2E2E2F5F5F5F5F5F5F5F5F5E2E2E2E2E2E2E2E2F5E2EFE2F5E2F5F5F5F5F5F5F5F5F5F5F5F5F5F5F5F5F5F5F5F5F5F5F5F5F5F5F5F5F5F5F5F5F5F5F5F5F5F5F5F5F5F5F5F5
310
F5F5F5F5F5F5F5F5F5F5F5F5F5F5F5F5F5F5F5F5F5F5F5F5F5F5F5F5F5F5F5F5F5F5F5F5F5F5F5F5F5F5F5F5F5F5F5F5F5F5F5F5F5F5F5F5F5F5F5F5F5F5F5F5F5F5F5F5F5F5F5F5F5F5F5F5F5F5F5F5F5F5F5F5F5F5F5F5F5F5F5F5F5F5F5F5F5F5F5F5F5F5F5F5F5F5F5F5F5F5F5F5F5F5F5F5F5F5F5F5F5F5F5F5F5F5F5
310
F5F5E2F5E2EFE2F5E2F5F5F5F5F5F5F5F5F5F5F5F5F5F5F5F5F5F5F5F5F5F5F5F5F5F5F5F5F5F5F5F5F5F5F5F5F5F5F5F5F5F5F5F5F5F5F5F5F5F5F5F5F5F5F5F5F5F5F5F5F5F5F5F5F5F5F5F5F5F5F5F5F5F5F5F5F5F5F5F5F5F5F5F5F5F5F5F5F5F5F5F5F5F5F5F5F5F5F5F5F5F5F5F5F5F5F5F5F5F5F5F5F5F5F5F5F5F5
310
F5F5F5F5F5F5F5F5F5F5F5F5F5F5F5F5F5F5F5F5F5F5F5F5F5F5F5F5F5E2F1F5F5F5F5F5F5F5F5F5F5F5F5E2E2E2F1F5F5F5F5F5F5F5F5E2F5E2EFE2F5E2F5F5F5F5F5F5F5F5F5F5F5F5F5F5F5F5F5F5F5F5F5F5F5F5F5F5F5F5F5F5F5F5F5F5F5F5F5F5F5F5F5F5F5F5F5F5F5F5F5F5F5F5F5F5F5F5F5F5F5F5F5F5F5F5F5
310
F5F5F5F5F5F5F5F5F5F5F5F5F5F5F5F5F5F5F5F5F5F5F5F5F5F5F5F5F5F5F5F5F5F5F5F5F5F5F5F5F5F5F5F5F5F5F5F5F5F5F5F5F5F5F5F5F5F5F5F5F5F5F5F5F5F5F5F5F5F5F5F5F5F5F5F5F5F5F5F5F5F5F1F1F5F5F5F5F5F5F5F5F5F5F5F5F1F1F1F1F5F5F5F5F5F5F5F5E2F5E2EFE2F5E2F5F5F5F5F5F5F5F5F5F5F5F5
310
F5F5F5F5F5F5F5F5F5F5F5F5F5F5F5F5F5F5F5F5F5F5F5F5F5F5F5F5F5F5F5F5F5F5F5F5F5F5F5F5F5F5F5F5F5F5F5F5F5F5F5F5F5F5F5F5F5F5F5F5F5F5F5F5F5F5F5F5F5F5F5F5F5F5F5F5F5F5F5F5F5F5F5F5F5F5F5F5F5F5F5F5F5F5F5F5F5F5F5F5F5F5F5F5F5F5F5F5F5F5F5F5F5F5F5F5F5F5F5F52DF5F5F5F5F5F5
310
F5F5F5F5F5F5F5E2E2E2F1F5F5F5F5F5F5F5F5F5F5F5F5F5F5F5F5F5F5F5F5F5F5F5E2F5E2EFE2F5E2F5F5F5F5F5F5F5F5F5F5F5F5F5F5F5F5F5F5F5F5F5F5F5F5F5F5F5F5F5F5F5F5F5F5F5F5F5F5F5F5F5F5F5F5F5F5F5F5F5F5F5F5F5F5F5F5F5F5F5F5F5F5F5F5F5F5F5F5F5F5F5F5F5F5F5F5F5F5F5F5F5F5F5F5F5F5
310
F5F5F5F5F5F5F5F5F5F5F5F5F5F5F5F5F5F5F5F5F5F5F5F5F5F5F5F5F5F5F5F5F5F5F5F5F5F5F5E2E2E2E2E2F5F5F5F5F5F5F5F5F5F5F5F5F5F5E2E2F1F1F1F1E2F5F5F5F5F5F5F5F5F5F5CACACAF1F5F5F5F5F5F5F5F5E2F5E2EFE2F5E2F5F5F5F5F5F5F5F5F5F5F5F5F5F5F5F5F5F5F5F5F5F5F5F5F5F5F5F5F5F5F5F5F5
310
F5F5F5F5F5F5F5F5F5F5F5F5F5F5F5F5F5F5F5F5F5F5F5F5F5F5F5F5F5F5F5F5F5F5F5F5F5F5F5F5F5F5F5F5F5F5F5F5F5F5F5F5F5F5F5F5F5F5F5F5F5F5F5F5F5F5F5F5F5F5F5F5F5F5F5F5F5F5F5F5F5F5F5F5F5F5F5F5F5F5F5F5E2E2E2E2E2F5F5F5F5F5F5F5F5F5F5F5F5F5F5F5F5F5F5F5F5F5F5F5F5F5F5F5F5F5F5
310
F5CACACAF1F5F5F5F5F5F5F5F5E2F5E2EFE2F5E2F5F5F5F5F5F5F5F5F5F5F5F5F5F5F5F5F5F5F5F5F5F5F5F5F5F5F5F5F5F5F5F5F5F5F5F5F5F5F5F5F5F5F5F5F5F5F5F5F5F5F5F5F5F5F5F5F5F5F5F5F5F5F5F5F5F5F5F5F5F5F5F5F5F5F5F5F5F5F5F5F5F5F5F5F5F5F5F5F5F5F5F5F5F5F5F5F5F5F5F5F5F5F5F5F5F5F5
310
F5F5F5F5F5F5F5F5F5F5F5F5F5F5F5F5F5F5F5F5F5F5F5F5F5F5F5F5F5F5F5F5F5F5F5F5F5F5F5F5F5F5F5F5F5F5F5F5F5F5F5F5F5F5F1F1F1F1F5F5F5F5F5F5F5F5E2F5E2EFE2F5F5F5F5F5F5F5F5F5F5F5F5F5F5F5F5F5F5F5F5F5F5F5F5F5F5F5F5F5F5F5F5F5F5F5F5F5F5F5F5F5F5F5F5F5F5F5F5F5F5F5F5F5F5F5F5
310
F5F5F5F5F5F5F5F5F5F5F5F5F5F5F5F5F5F5F5F5F5F5F5F5F5F5F5F5F5F5F5F5F5F5F5F5F5F5F5F5F5F5F5F5F5F5F5F5F5F5F5F5F5F5F5F5F5F5F5F5F5F5F5F5F5F5F5F5F5F5F5F5F5F5F5F5F5F5F5F5F5F5F5F5F5F5F5F5F5F5F5F5F5F5F5F5F5F5F5F5F5F5F5F5F5F5F5F5F5F5F5F5F5F5F5F5F5F5F5F5F5E2EFE2F5F5F5
310
F5F5F5F5F5F5F5F5F5F5F5F5F5F5F5F5F5F5F5F5F5F5F5F5F5F5F5F5F5F5F5F5F5F5F5F5F5F5F5F5F5F5F5F5F5F5F5F5F5F5F5F5F5F5F5F5F5F5F5F5F5F5F5F5F5F5F5F5F5F5F5F5F5F5F5F5F5F5F5F5F5F5F5F5F5F5F5F5F5F5F5F5F5F5F5F5F5F5F5F5F5F5F5F5F5F5F5F5F5F5F5F5F5F5F5F5F5F5F5F5F5F5F5F5F5F5F5
310
F5F5F5F5F5F5F5F5F5F5F5F5F5F5F5F5F5F5F5F5F5F5F5F5F5F5F5F5F5F5F5F5F5F5F5F5F5F5F5F5F5F5F5F5F5F5F5E2EFE2F5F5F5F5F5F5F5F5F5F5F5F5F5F5F5F5F5F5F5F5F5F5F5F5F5F5F5F5F5F5F5F5F5F5F5F5F5F5F5F5F5F5F5F5F5F5F5F5F5F5F5F5F5F5F5F5F5F5F5F5F5F5F5F5F5F5F5F5F5F5F5F5F5F5F5F5F5
310
F5F5F5F5F5F5F5F5F5F5F5F5F5F5F5F5F5F5F5F5F5F5F5F5F5F5F5F5F5F5F5F5F5F5F5F5F5F5F5F5F5F5F5F5F5F5F5F5F5F5F5F5F5F5F5F5F5F5F5F5F5F5F5F5F5F5F5F5F5F5F5F5F5F5F5F5F5F5F5F5F5F5F5F5F5F5F5F5F5F5F5F5F5F5F5F5F5F5F5F5E2EFE2F5F5F5F5F5F5F5F5F5F5F5F5F5F5F5F5F5F5F5F5F5F5F5F5
310
F5F5F5F5F5F5F5F5F5F5F5F5F5F5F5F5F5F5F5F5F5F5F5F5F5F5F5F5F5F5F5F5F5F5F5F5F5F5F5F5F5F5F5F5F5F5F5F5F5F5F5F5F5F5F5F5F5F5F5F5F5F5F5F5F5F5F5F5F5F5F5F5F5F5F5F5F5F5F5F5F5F5F5F5F5F5F5F5F5F5F5F5F5F5F5F5F5F5F5F5F5F5F5F5F5F5F5F5F5F5F5F5F5F5F5F5F5F5F5F5F5F5F5F5F5F5F5
310
F5F5F5F5F5F5F5F5F5F5F5F5F5F5F5F5F5F5F5F5F5F5F5F5F5F5E2EFE2F5F5F5F5F5F5F5F5F5F5F5F5F5F5F5F5F5F5F5F5F5F5F5F5F5F5F5F5F5F5F5F5F5F5F5F5F5F5F5F5F5F5F5F5F5F5F5F5F5F5F5F5F5F5F5F5F5F5F5F5F5F5F5F5F5F5F5F5F5F5F5F5F5F5F5F5F5F5F5F5F5F5F5F5F5F5F5F5F5F5F5F5F5F5F5F5F5F5
310
F5F5F5F5F5F5F5F5F5F5F5F5F5F5F5F5F5F5F5F5F5F5F5F5F5F5F5F5F5F5F5F5F5F5F5F5F5F5F5F5F5F5F5F5F5F5F5F5F5F5F5F5F5F5F5F5F5F5F5F5F5F5F5F5F5F5F5F5F5F5F5F5F5F5F5F5F5F5F5E2EFE2F5F5F5F5F5F5F5F5F5F5F5F5F5F5F5F5F5F5F5F5F5F5F5F5F5F5F5F5F5F5F5F5F5F5F5F5F5F5F5F5F5F5F5F5F5
310
F5F5F5F5F5F5F5F5F5F5F5F5F5F5F5F5F5F5F5F5F5F5F5F5F5F5F5F5F5F5F5F5F5F5F5F5F5F5F5F5F5F5F5F5F5F5F5F5F5F5F5F5F5F5F5F5F5F5F5F5F5F5F5F5F5F5F5F5F5F5F5F5F5F5F5F5F5F5F5F5F5F5F5F5F5F5F5F5F5F5F5F5F5F5F5F5F5F5F5F5F5F5F5F5F5F5F5F5F5F5F5F5F5F5F5F5F5F5F5F5F5F5F5F5F5F5F5
310
F5F5F5F5F5E2EFE2F5F5F5F5F5F5F5F5F5F5F5F5F5F5F5F5F5F5F5F5F5F5F5F5F5F5F5F5F5F5F5F5F5F5F5F5F5F5F5F5F5F5F5F5F5F5F5F5F5F5F5F5F5F5F5F5F5F5F5F5F5F5F5F5F5F5F5F5F5F5F5F5F5F5F5F5F5F5F5F5F5F5F5F5F5F5F5F5F5F5F5F5F5F5F5F5F5F5F5F5F5F5F5F5F5F5F5F5F5F5F5F5F5F5F5F5F5F5F5
310
F5F5F5F5F5F5F5F5F5F5F5F5F5F5F5F5F5F5F5F5F5F5F5F5F5F5F5F5F5F5F5F5F5F5F5F5F5F5F5F5F5F5F5F5F5F5F5F5F5F5F5F5F5F5F5F5F5F5E2EFE2F5F5F5F5F5F5F5F5F5F5F5F5F5F5F5F5F5F5F5F5F5F5F5F5F5F5F5F5F5F5F5F5F5F5F5F5F5F5F5F5F5F5F5F5F5F5F5F5F5F5F5F5F5F5F5F5F5F5F5F5F5F5F5F5F5F5
310
F5F5F5F5F5F5F5F5F5F5F5F5F5F5F5F5F5F5F5F5F5F5F5F5F5F5F5F5F5F5F5F5F5F5F5F5F5F5F5F5F5F5F5F5F5F5F5F5F5F5F5F5F5F5F5F5F5F5F5F5F5F5F5F5F5F5F5F5F5F5F5F5F5F5F5F5F5F5F5F5F5F5F5F5F5F5F5F5F5F5F5F5F5F5F5F5F5F5F5F5F5F5F5F5F5F5F5F5F5F5F5E2EFE2F5F5F5F5F5F5F5F5F5F5F5F5F5
310
F5F5F5F5F5F5F5F5F5F5F5F5F5F5F5F5F5F5F5F5F5F5F5F5F5F5F5F5F5F5F5F5F5F5F5F5F5F5F5F5F5F5F5F5F5F5F5F5F5F5F5F5F5F5F5F5F5F5F5F5F5F5F5F5F5F5F5F5F5F5F5F5F5F5F5F5F5F5F5F5F5F5F5F5F5F5F5F5F5F5F5F5F5F5F5F5F5F5F5F5F5F5F5F5F5F5F5F5F5F5F5F5F5F5F5F5F5F5F5F5F5F5F5F5F5F5F5
310
F5F5F5F5F5F5F5F5F5F5F5F5F5F5F5F5F5F5F5F5F5F5F5F5F5F5F5F5F5F5F5F5F5F5F5F5F5E2EFE2F5E2F5F5F5F5F5F5F5F5F5F5F5F5F5F5F5F5F5F5F5F5F5F5F5F5F5F5F5F5F5F5F5F5F5F5F5F5F5F5F5F5F5F5F5F5F5F5F5F5F5F5F5F5F5F5F5F5F5F5F5F5F5F5F5F5F5F5F5F5F5F5F5F5F5F5F5F5F5F5F5F5F5F5F5F5F5
310
F5F5F5F5F5F5F5F5F5F5F5F5F5F5F5F5F5F5F5F5F5F5F5F5F5F5F5F5F5F5F5F5F5F5F5F5F5F5F5F5F5F5F5F5F5F5F5F5F5F5F5F5F5F5F5F5F5F5F5F5F5F5F5F5F5F5F5F5F5F5F5F5F5F5F5F5F5F5F5F5F5F5F5F5F5F5F5F5E2F5E2EFE2F5E2F5F5F5F5F5F5F5F5F5F5F5F5F5F5F5F5F5F5F5F5F5F5F5F5F5F5F5F5F5F5F5F5
310
F5F5F5F5F5F5F5F5F5F5F5F5F5F5F5F5F5F5F5F5F5F5F5F5F5F5F5F5F5F5F5F5F5F5F5F5F5F5F5F5F5F5F5F5F5F5F5F5F5F5F5F5F5F5F5F5F5F5F5F5F5F5F5F5F5F5F5F5F5F5F5F5F5F5F5F5F5F5F5F5F5F5F5F5F5F5F5F5F5F5F5F5F5F5F5F5F5F5F5F5F5F5F5F5F5F5F5F5F5F5F5F5F5F5F5F5F5F5F5F5F5F5F5F5F5F5F5
310
F5F5F5F5F5F5F5F5F5F5F5F5F5F5E2F5E2EFE2F5E2F5F5F5F5F5F5F5F5F5F5F5F5F5F5F5F5F5F5F5F5F5F5F5F5F5F5F5F5F5F5F5F5F5F5F5F5F5F5F5F5F5F5F5F5F5F5F5F5F5F5F5F5F5F5F5F5F5F5F5F5F5F5F5F5F5F5F5F5F5F5F5F5F5F5F5F5F5F5F5F5F5F5F5F5F5F5F5F5F5F5F5F5F5F5F5F5F5F5F5F5F5F5F5F5F5F5
310
F5F5F5F5F5F5F5F5F5F5F5F5F5F5F5F5F5F5F5F5F5F5F5F5F5F5F5F5F5F5F5F5F5F5F5F5F5F5F5F5F5F5F5F5F5F5F5F5F5F5F5F5F5F5F5F5F5F5F5F5F5F5F5F5F5F5F5E2F5E2EFE2F5E2F5F5F5F5F5F5F5F5F5F5F5F5F5F5F5F5F5F5F5F5F5F5F5F5F5F5F5F5F5F5F5F5F5F5F5F5F5F5F5F5F5F5F5F5F5F5F5F5F5F5F5F5F5
310
F5F5F5F5F5F5F5F5F5F5F5F5F5F5F5F5F5F5F5F5F5F5F5F5F5F5F5F5F5F5F5F5F5F5F5F5F5F5F5F5F5F5F5F5F5F5F5F5F5F5F5F5F5F5F5F5F5F5F5F5F5F5F5F5F5F5F5F5F5F5F5F5F5F5F5F5F5F5F5F5F5F5F5F5F5F5F5F5F5F5F5F5F5F5F5F5F5F5F5F5F5F5F5F5F5F5F5F5F5F5F5F5F5F5F5F5F5F5F5F5E2F5E2EFE2F5E2
310
F5F5F5F5F5F5F5F5F5F5F5F5F5F5F5F5F5F5F5F5F5F5F5F5F5F5F5F5F5F5F5F5F5F5F5F5F5F5F5F5F5F5F5F5F5F5F5F5F5F5F5F5F5F5F5F5F5F5F5F5F5F5F5F5F5F5F5F5F5F5F5F5F5F5F5F5F5F5F5F5F5F5F5F5F5F5F5F5F5F5F5F5F5F5F5F5F5F5F5F5F5F5F5F5F5F5F5F5F5F5F5F5F5F5F5F5F5F5F5F5F5F5F5F5F5F5F5
310
F5F5F5F5F5F5F5F5F5F5F5F5F5F5F5F5F5F5F5F5F5F5F5F5F5F5F5F5F5F5F5F5F5F5F5F5F5F5F5F5F5F5F5F5F5F5E2F5E2EFE2F5E2F5F5F5F5F5F5F5F5F5F5F5F5F5F5F5F5F5F5F5F5F5F5F5F5F5F5F5F5F5F5F5F5F5F5F5F5F5F5F5F5F5F5F5F5F5F5F5F5F5F5F5F5F5F5F5F5F5F5F5F5F5F5F5F5F5F5F5F5F5F5F5F5F5F5
310
F5F5F5F5F5F5F5F5F5F5F5F5F5F5F5F5F5F5F5F5F5F5F5F5F5F5F5F5F5F5F5F5F5F5F5F5F5F5F5F5F5F5F5F5F5F5F5F5F5F5F5F5F5F5F5F5F5F5F5F5F5F5F5F5F5F5F5F5F5F5F5F5F5F5F5F5F5F5F5F5F5F5F5F5F5F5F5F5F5F5F5F5F5F5F5F5F5F5F5E2F5E2EFE2F5E2F5F5F5F5F5F5F5F5F5F5F5F5F5F5F5F5F5F5F5F5F5
310
F5F5F5F5F5F5F5F5F5F5F5F5F5F5F5F5F5F5F5F5F5F5F5F5F5F5F5F5F5F5F5F5F5F5F5F5F5F5F5F5F5F5F5F5F5F5F5F5F5F5F5F5F5F5F5F5F5F5F5F5F5F5F5F5F5F5F5F5F5F5F5F5F5F5F5F5F5F5F5F5F5F5F5F5F5F5F5F5F5F5F5F5F5F5F5F5F5F5F5F5F5F5F5F5F5F5F5F5F5F5F5F5F5F5F5F5F5F5F5F5F5F5F5F5F5F5F5
310
F5F5F5F5F5F5F5F5F5F5F5F5F5F5F5F5F5F5F5F5F5F5F5F5F5E2F5E2EFE2F5E2F5F5F5F5F5F5F5F5F5F5F5F5F5F5F5F5F5F5F5F5F5F5F5F5F5F5F5F5F5F5F5F5F5F5F5F5F5F5F5F5F5F5F5F5F5F5F5F5F5F5F5F5F5F5F5F5F5F5F5F5F5F5F5F5F5F5F5F5F5F5F5F5F5F5F5F5F5F5F5F5F5F5F5F5F5F5F5F5F5F5F5F5F5F5F5
310
F5F5F5F5F5F5F5F5F5F5F5F5F5F5F5F5F5F5F5F5F5F5F5F5F5F5F5F5F5F5F5F5F5F5F5F5F5F5F5F5F5F5F5F5F5F5F5F5F5F5F5F5F5F5F5F5F5F5F5F5F5F5F5F5F5F5F5F5F5F5F5F5F5F5F5F5F5F5E2F5E2EFE2F5E2F5F5F5F5F5F5F5F5F5F5F5F5F5F5F5F5F5F5F5F5F5F5F5F5F5F5F5F5F5F5F5F5F5F5F5F5F5F5F5F5F5F5
310
F5F5F5F5F5F5F5F5F5F5F5F5F5F5F5F5F5F5F5F5F5F5F5F5F5F5F5F5F5F5F5F5F5F5F5F5F5F5F5F5F5F5F5F5F5F5F5F5F5F5F5F5F5F5F5F5F5F5F5F5F5F5F5F5F5F5F5F5F5F5F5F5F5F5F5F5F5F5F5F5F5F5F5F5F5F5F5F5F5F5F5F5F5F5F5F5F5F5F5F5F5F5F5F5F5F5F5F5F5F5F5F5F5F5F5F5F5F5F5F5F5F5F5F5F5F5F5
310
F5F5F5F5E2F5E2EFE2F5E2F5F5F5F5F5F5F5F5F5F5F5F5F5F5F5F5F5F5F5F5F5F5F5F5F5F5F5F5F5F5F5F5F5F5F5F5F5F5F5F5F5F5F5F5F5F5F5F5F5F5F5F5F5F5F5F5F5F5F5F5F5F5F5F5F5F5F5F5F5F5F5F5F5F5F5F5F5F5F5F5F5F5F5F5F5F5F5F5F5F5F5F5F5F5F5F5F5F5F5F5F5F5F5F5F5F5F5F5F5F5F5F5F5F5F5F5
310
F5F5F5F5F5F5F5F5F5F5F5F5F5F5F5F5F5F5F5F5F5F5F5F5F5F5F5F5F5F5F5F5F5F5F5F5F5F5F5F5F5F5F5F5F5F5F5F5F5F5F5F5F5F5F5F5F5E2F5E2EFE2F5E2F5F5F5F5F5F5F5F5F5F5F5F5F5F5F5F5F5F5F5F5F5F5F5F5F5F5F5F5F5F5F5F5F5F5F5F5F5F5F5F5F5F5F5F5F5F5F5F5F5F5F5F5F5F5F5F5F5F5F5F5F5F5F5
310
F5F5F5F5F5F5F5F5F5F5F5F5F5F5F5F5F5F5F5F5F5F5F5F5F5F5F5F5F5F5F5F5F5F5F5F5F5F5F5F5F5F5F5F5F5F5F5F5F5F5F5F5F5F5F5F5F5F5F5F5F5F5F5F5F5F5F5F5F5F5F5F5F5F5F5F5F5F5F5F5F5F5F5F5F5F5F5F5F5F5F5F5F5F5F5F5F5F5F5F5F5F5F5F5F5F5F5F5F5F5E2F5E2EFE2F5E2F5F5F5F5F5F5F5F5F5F5
310
F5F5F5F5F5F5F5F5F5F5F5F5F5F5F5F5F5F5F5F5F5F5F5F5F5F5F5F5F5F5F5F5F5F5F5F5F5F5F5F5F5F5F5F5F5F5F5F5F5F5F5F5F5F5F5F5F5F5F5F5F5F5F5F5F5F5F5F5F5F5F5F5F5F5F5F5F5F5F5F5F5F5F5F5F5F5F5F5F5F5F5F5F5F5F5F5F5F5F5F5F5F5F5F5F5F5F5F5F5F5F5F5F5F5F5F5F5F5F5F5F5F5F5F5F5F5F5
310
F5F5F5F5F5F5F5F5F5F5F5F5F5F5F5F5F5F5F5F5F5F5F5F5F5F5F5F5F5F5F5F5F5F5F5F5E2F5E2EFE2F5E2F5F5F5F5F5F5F5F5F5F5F5F5F5F5F5F5F5F5F5F5F5F5F5F5F5F5F5F5F5F5F5F5F5F5F5F5F5F5F5F5F5F5F5F5F5F5F5F5F5F5F5F5F5F5F5F5F5F5F5F5F5F5F5F5F5F5F5F5F5F5F5F5F5F5F5F5F5F5F5F5F5F5F5F5
310
F5F5F5F5F5F5F5F5F5F5F5F5F5F5F5F5F5F5F5F5F5F5F5F5F5F5F5F5F5F5F5F5F5F5F5F5F5F5F5F5F5F5F5F5F5F5F5F5F5F5F5F5F5F5F5F5F5F5F5F5F5F5F5F5F5F5F5F5F5F5F5F5F5F5F5F5F5F5F5F5F5F5F5F5F5F5F5F5F5E2F5E2EFE2F5E2F5F5F5F5F5F5F5F5F5F5F5F5F5F5F5F5F5F5F5F5F5F5F5F5F5F5F5F5F5F5F5
310
F5F5F5F5F5F5F5F5F5F5F5F5F5F5F5F5F5F5F5F5F5F5F5F5F5F5F5F5F5F5F5F5F5F5F5F5F5F5F5F5F5F5F5F5F5F5F5F5F5F5F5F5F5F5F5F5F5F5F5F5F5F5F5F5F5F5F5F5F5F5F5F5F5F5F5F5F5F5F5F5F5F5F5F5F5F5F5F5F5F5F5F5F5F5F5F5F5F5F5F5F5F5F5F5F5F5F5F5F5F5F5F5F5F5F5F5F5F5F5F5F5F5F5F5F5F5F5
310
F5F5F5F5F5F5F5F5F5F5F5F5F5F5F5E2F5E2EFE2F5E2F5F5F5F5F5F5F5F5F5F5F5F5F5F5F5F5F5F5F5F5F5F5F5F5F5F5F5F5F5F5F5F5F5F5F5F5F5F5F5F5F5F5F5F5F5F5F5F5F5F5F5F5F5F5F5F5F5F5F5F5F5F5F5F5F5F5F5F5F5F5F5F5F5F5F5F5F5F5F5F5F5F5F5F5F5F5F5F5F5F5F5F5F5F5F5F5F5F5F5F5F5F5F5F5F5
310
F5F5F5F5F5F5F5F5F5F5F5F5F5F5F5F5F5F5F5F5F5F5F5F5F5F5F5F5F5F5F5F5F5F5F5F5F5F5F5F5F5F5F5F5F5F5F5F5F5F5F5F5F5F5F5F5F5F5F5F5F5F5F5F5F5F5F5F5E2F5E2EFE2F5E2F5F5F5F5F5F5F5F5F5F5F5F5F5F5F5F5F5F5F5F5F5F5F5F5F5F5F5F5F5F5F5F5F5F5F5F5F5F5F5F5F5F5F5F5F5F5F5F5F5F5F5F5
310
F5F5F5F5F5F5F5F5F5F5F5F5F5F5F5F5F5F5F5F5F5F5F5F5F5F5F5F5F5F5F5F5F5F5F5F5F5F5F5F5F5F5F5F5F5F5F5F5F5F5F5F5F5F5F5F5F5F5F5F5F5F5F5F5F5F5F5F5F5F5F5F5F5F5F5F5F5F5F5F5F5F5F5F5F5F5F5F5F5F5F5F5F5F5F5F5F5F5F5F5F5F5F5F5F5F5F5F5F5F5F5F5F5F5F5F5F5F5F5F5F5E2F5E2EFE2F5
310
F5F5F5F5F5F5F5F5F5F5F5F5F5F5F5F5F5F5F5F5F5F5F5F5F5F5F5F5F5F5F5F5F5F5F5F5F5F5F5F5F5F5F5F5F5F5F5F5F5F5F5F5F5F5F5F5F5F5F5F5F5F5F5F5F5F5F5F5F5F5F5F5F5F5F5F5F5F5F5F5F5F5F5F5F5F5F5F5F5F5F5F5F5F5F5F5F5F5F5F5F5F5F5F5F5F5F5F5F5F5F5F5F5F5F5F5F5F5F5F5F5F5F5F5F5F5F5
310
F5F5F5F5F5F5F5F5F5F5F5F5F5F5F5F5F5F5F5F5F5F5F5F5F5F5F5F5F5F5F5F5F5F5F5F5F5F5F5F5F5F5F5F5F5F5F5F5F5E2EFE2F5F5F5F5F5F5F5F5F5F5F5F5F5F5F5F5F5F5F5F5F5F5F5F5F5F5F5F5F5F5F5F5F5F5F5F5F5F5F5F5F5F5F5F5F5F5F5F5F5F5F5F5F5F5F5F5F5F5F5F5F5F5F5F5F5F5F5F5F5F5F5F5F5F5F5
310
F5F5F5F5F5F5F5F5F5F5F5F5F5F5F5F5F5F5F5F5F5F5F5F5F5F5F5F5F5F5F5F5F5F5F5F5F5F5F5F5F5F5F5F5F5F5F5F5F5F5F5F5F5F5F5F5F5F5F5F5F5F5F5F5F5F5F5F5F5F5F5F5F5F5F5F5F5F5F5F5F5F5F5F5F5F5F5F5F5F5F5F5F5F5F5F5F5F5F5F5F5F5E2EFE2F5F5F5F5F5F5F5F5F5F5F5F5F5F5F5F5F5F5F5F5F5F5
310
F5F5F5F5F5F5F5F5F5F5F5F5F5F5F5F5F5F5F5F5F5F5F5F5F5F5F5F5F5F5F5F5F5F5F5F5F5F5F5F5F5F5F5F5F5F5F5F5F5F5F5F5F5F5F5F5F5F5F5F5F5F5F5F5F5F5F5F5F5F5F5F5F5F5F5F5F5F5F5F5F5F5F5F5F5F5F5F5F5F5F5F5F5F5F5F5F5F5F5F5F5F5F5F5F5F5F5F5F5F5F5F5F5F5F5F5F5F5F5F5F5F5F5F5F5F5F5
310
F5F5F5F5F5F5F5F5F5F5F5F5F5F5F5F5F5F5F5F5F5F5F5F5F5F5F5F5E2EFE2F5F5F5F5F5F5F5F5F5F5F5F5F5F5F5F5F5F5F5F5F5F5F5F5F5F5F5F5F5F5F5F5F5F5F5F5F5F5F5F5F5F5F5F5F5F5F5F5F5F5F5F5F5F5F5F5F5F5F5F5F5F5F5F5F5F5F5F5F5F5F5F5F5F5F5F5F5F5F5F5F5F5F5F5F5F5F5F5F5F5F5F5F5F5F5F5
310
F5F5F5F5F5F5F5F5F5F5F5F5F5F5F5F5F5F5F5F5F5F5F5F5F5F5F5F5F5F5F5F5F5F5F5F5F5F5F5F5F5F5F5F5F5F5F5F5F5F5F5F5F5F5F5F5F5F5F5F5F5F5F5F5F5F5F5F5F5F5F5F5F5F5F5F5F5F5F5F5F5E2EFE2F5F5F5F5F5F5F5F5F5F5F5F5F5F5F5F5F5F5F5F5F5F5F5F5F5F5F5F5F5F5F5F5F5F5F5F5F5F5F5F5F5F5F5
310
F5F5F5F5F5F5F5F5F5F5F5F5F5F5F5F5F5F5F5F5F5F5F5F5F5F5F5F5F5F5F5F5F5F5F5F5F5F5F5F5F5F5F5F5F5F5F5F5F5F5F5F5F5F5F5F5F5F5F5F5F5F5F5F5F5F5F5F5F5F5F5F5F5F5F5F5F5F5F5F5F5F5F5F5F5F5F5F5F5F5F5F5F5F5F5F5F5F5F5F5F5F5F5F5F5F5F5F5F5F5F5F5F5F5F5F5F5F5F5F5F5F5F5F5F5F5F5
310
F5F5F5F5F5F5F5E2EFE2F5F5F5F5F5F5F5F5F5F5F5F5F5F5F5F5F5F5F5F5F5F5F5F5F5F5F5F5F5F5F5F5F5F5F5F5F5F5F5F5F5F5F5F5F5F5F5F5F5F5F5F5F5F5F5F5F5F5F5F5F5F5F5F5F5F5F5F5F5F5F5F5F5F5F5F5F5F5F5F5F5F5F5F5F5F5F5F5F5F5F5F5F5F5F5F5F5F5F5F5F5F5F5F5F5F5F5F5F5F5F5F5F5F5F5F5F5
310
F5F5F5F5F5F5F5F5F5F5F5F5F5F5F5F5F5F5F5F5F5F5F5F5F5F5F5F5F5F5F5F5F5F5F5F5F5F5F5F5F5F5F5F5F5F5F5F5F5F5F5F5F5F5F5F5F5F5F5F5E2EFE2F5F5F5F5F5F5F5F5F5F5F5F5F5F5F5F5F5F5F5F5F5F5F5F5F5F5F5F5F5F5F5F5F5F5F5F5F5F5F5F5F5F5F5F5F5F5F5F5F5F5F5F5F5F5F5F5F5F5F5F5F5F5F5F5
310
F5F5F5F5F5F5F5F5F5F5F5F5F5F5F5F5F5F5F5F5F5F5F5F5F5F5F5F5F5F5F5F5F5F5F5F5F5F5F5F5F5F5F5F5F5F5F5F5F5F5F5F5F5F5F5F5F5F5F5F5F5F5F5F5F5F5F5F5F5F5F5F5F5F5F5F5F5F5F5F5F5F5F5F5F5F5F5F5F5F5F5F5F5F5F5F5F5F5F5F5F5F5F5F5F5F5F5F5F5F5F5F5F5E2EFE2F5F5F5F5F5F5F5F5F5F5F5
310
F5F5F5F5F5F5F5F5F5F5F5F5F5F5F5F5F5F5F5F5F5F5F5F5F5F5F5F5F5F5F5F5F5F5F5F5F5F5F5F5F5F5F5F5F5F5F5F5F5F5F5F5F5F5F5F5F5F5F5F5F5F5F5F5F5F5F5F5F5F5F5F5F5F5F5F5F5F5F5F5F5F5F5F5F5F5F5F5F5F5F5F5F5F5F5F5F5F5F5F5F5F5F5F5F5F5F5F5F5F5F5F5F5F5F5F5F5F5F5F5F5F5F5F5F5F5F5
310
F5F5F5F5F5F5F5F5F5F5F5F5F5F5F5F5F5F5F5F5F5F5F5F5F5F5F5F5F5F5F5F5F5F5F5F5F5F5F5E2EFE2F5E2F5F5F5F5F5F5F5F5F5F5F5F5F5F5F5F5F5F5F5F5F5F5F5F5F5F5F5F5F5F5F5F5F5F5F5F5F5F5F5F5F5F5F5F5F5F5F5F5F5F5F5F5F5F5F5F5F5F5F5F5F5F5F5F5F5F5F5F5F5F5F5F5F5F5F5F5F5F5F5F5F5F5F5
310
F5F5F5F5F5F5F5F5F5F5F5F5F5F5F5F5F5F5F5F5F5F5F5F5F5F5F5F5F5F5F5F5F5F5F5F5F5F5F5F5F5F5F5F5F5F5F5F5F5F5F5F5F5F5F5F5F5F5F5F5F5F5F5F5F5F5F5F5F5F5F5F5F5F5F5F5F5F5F5F5F5F5F5F5F5F5F5F5F5F5E2F5E2EFE2F5E2F5F5F5F5F5F5F5F5F5F5F5F5F5F5F5F5F5F5F5F5F5F5F5F5F5F5F5F5F5F5
310
F5F5F5F5F5F5F5F5F5F5F5F5F5F5F5F5F5F5F5F5F5F5F5F5F5F5F5F5F5F5F5F5F5F5F5F5F5F5F5F5F5F5F5F5F5F5F5F5F5F5F5F5F5F5F5F5F5F5F5F5F5F5F5F5F5F5F5F5F5F5F5F5F5F5F5F5F5F5F5F5F5F5F5F5F5F5F5F5F5F5F5F5F5F5F5F5F5F5F5F5F5F5F5F5F5F5F5F5F5F5F5F5F5F5F5F5F5F5F5F5F5F5F5F5F5F5F5
310
F5F5F5F5F5F5F5F5F5F5F5F5F5F5F5F5E2F5E2EFE2F5E2F5F5F5F5F5F5F5F5F5F5F5F5F5F5F5F5F5F5F5F5F5F5F5F5F5F5F5F5F5F5F5F5F5F5F5F5F5F5F5F5F5F5F5F5F5F5F5F5F5F5F5F5F5F5F5F5F5F5F5F5F5F5F5F5F5F5F5F5F5F5F5F5F5F5F5F5F5F5F5F5F5F5F5F5F5F5F5F5F5F5F5F5F5F5F5F5F5F5F5F5F5F5F5F5
310
F5F5F5F5F5F5F5F5F5F5F5F5F5F5F5F5F5F5F5F5F5F5F5F5F5F5F5F5F5F5F5F5F5F5F5F5F5F5F5F5F5F5F5F5F5F5F5F5F5F5F5F5F5F5F5F5F5F5F5F5F5F5F5F5F5F5F5F5F5E2F5E2EFE2F5E2F5F5F5F5F5F5F5F5F5F5F5F5F5F5F5F5F5F5F5F5F5F5F5F5F5F5F5F5F5F5F5F5F5F5F5F5F5F5F5F5F5F5F5F5F5F5F5F5F5F5F5
310
F5F5F5F5F5F5F5F5F5F5F5F5F5F5F5F5F5F5F5F5F5F5F5F5F5F5F5F5F5F5F5F5F5F5F5F5F5F5F5F5F5F5F5F5F5F5F5F5F5F5F5F5F5F5F5F5F5F5F5F5F5F5F5F5F5F5F5F5F5F5F5F5F5F5F5F5F5F5F5F5F5F5F5F5F5F5F5F5F5F5F5F5F5F5F5F5F5F5F5F5F5F5F5F5F5F5F5F5F5F5F5F5F5F5F5F5F5F5F5F5F5F5E2F5E2EFE2
310
F5E2F5F5F5F5F5F5F5F5F5F5F5F5F5F5F5F5F5F5F5F5F5F5F5F5F5F5F5F5F5F5F5F5F5F5F5F5F5F5F5F5F5F5F5F5F5F5F5F5F5F5F5F5F5F5F5F5F5F5F5F5F5F5F5F5F5F5F5F5F5F5F5F5F5F5F5F5F5F5F5F5F5F5F5F5F5F5F5F5F5F5F5F5F5F5F5F5F5F5F5F5F5F5F5F5F5F5F5F5F5F5F5F5F5F5F5F5F5F5F5F5F5F5F5F5F5
310
F5F5F5F5F5F5F5F5F5F5F5F5F5F5F5F5F5F5F5F5F5F5F5F5F5F5F5F5F5F5F5F5F5F5F5F5F5F5F5F5F5F5F5F5F5F5F5F5E2F5E2EFE2F5E2F5F5F5F5F5F5F5F5F5F5F5F5F5F5F5F5F5F5F5F5F5F5F5F5F5F5F5F5F5F5F5F5F5F5F5F5F5F5F5F5F5F5F5F5F5F5F5F5F5F5F5F5F5F5F5F5F5F5F5F5F5F5F5F5F5F5F5F5F5F5F5F5
310
F5F5F5F5F5F5F5F5F5F5F5F5F5F5F5F5F5F5F5F5F5F5F5F5F5F5F5F5F5F5F5F5F5F5F5F5F5F5F5F5F5F5F5F5F5F5F5F5F5F5F5F5F5F5F5F5F5F5F5F5F5F5F5F5F5F5F5F5F5F5F5F5F5F5F5F5F5F5F5F5F5F5F5F5F5F5F5F5F5F5F5F5F5F5F5F5F5F5F5F5F5E2F5E2EFE2F5E2F5F5F5F5F5F5F5F5F5F5F5F5F5F5F5F5F5F5F5
310
F5F5F5F5F5F5F5F5F5F5F5F5F5F5F5F5F5F5F5F5F5F5F5F5F5F5F5F5F5F5F5F5F5F5F5F5F5F5F5F5F5F5F5F5F5F5F5F5F5F5F5F5F5F5F5F5F5F5F5F5F5F5F5F5F5F5F5F5F5F5F5F5F5F5F5F5F5F5F5F5F5F5F5F5F5F5F5F5F5F5F5F5F5F5F5F5F5F5F5F5F5F5F5F5F5F5F5F5F5F5F5F5F5F5F5F5F5F5F5F5F5F5F5F5F5F5F5
310
F5F5F5F5F5F5F5F5F5F5F5F5F5F5F5F5F5F5F5F5F5F5F5F5F5F5F5E2F5E2EFE2F5E2F5F5F5F5F5F5F5F5F5F5F5F5F5F5F5F5F5F5F5F5F5F5F5F5F5F5F5F5F5F5F5F5F5F5F5F5F5F5F5F5F5F5F5F5F5F5F5F5F5F5F5F5F5F5F5F5F5F5F5F5F5F5F5F5F5F5F5F5F5F5F5F5F5F5F5F5F5F5F5F5F5F5F5F5F5F5F5F5F5F5F52828
310
282828282828282828282828282828F5F5F5F5F5F5F5F5F5F5F5F5F5F5F5F5F5F5F5F5F5F5F5F5F5F5F5F5F5F5F5F5F5F5F5F5F5F5F5F5F5F5F5F5F5F5F5F5F5F5F5F5F5F5F5F5F5F5F5F5F5F5F5F5F5E2F5E2EFE2F5E2F5F5F5F5F5F5F5F5F5F5F5F5F5F5F5F5F5F5F5F5F5F5F5F5F5F5F5F5F5F5F5F5F5F5F5F5F5F5F5F5
310
F5F5F5F5F5F5F5F5F5F5F5F5F5F5F5F5F5F5F5F5F5F5F5F5F5F5F5F5F5F5F5F5F5F5F5F5F5F5F5F5F5F5F5F5F5F5F5F5F5F5F52828282828282828282828282828285E28F5F5F5F5F5F5F5F5F5F5F5F5F5F5F5F5F5F5F5F5F5F5F5F5F5F5F5F5F5F5F5F5F5F5F5F5F5F5F5F5F5F5F5F5F5F5F5F5F5F5F5F5F5F5F5F5F5F5F5
310
F5F5F5F5F5F5E2F5E2EFE2F5E2F5F5F5F5F5F5F5F5F5F5F5F5F5F5F5F5F5F5F5F5F5F5F5F5F5F5F5F5F5F5F5F5F5F5F5F5F5F5F5F5F5F5F5F5F5F5F5F5F5F5F5F5F5F5F5F5F5F5F5F5F5F5F5F5F5F5F5F5F5F5F5F5F5F5F5F5F5F5F5F5F5F5F5F5F5F5F5F5F5F5F528285E2828282828282828282828282828F5F5F5F5F5F5
310
F5F5F5F5F5F5F5F5F5F5F5F5F5F5F5F5F5F5F5F5F5F5F5F5F5F5F5F5F5F5F5F5F5F5F5F5F5F5F5F5F5F5F5F5F5F5F5F5F5F5F5F5F5F5F5F5F5F5F5E2F5E2EFE2F5E2F5F5F5F5F5F5F5F5F5F5F5F5F5F5F5F5F5F5F5F5F5F5F5F5F5F5F5F5F5F5F5F5F5F5F5F5F5F5F5F5F5F5F5F5F5F5F5F5F5F5F5F5F5F5F5F5F5F5F5F5F5
310
F5F5F5F5F5F5F5F5F5F5F5F5F5F5F5F5F5F5F5F5F5F5F5F5F5F5F5F5F5F5F52828F5F5F5F5F5F5F5F5F5F5F5F5F5F5F5F5F5F5F5F5F5F5F5F5F5F5F5F5F5F5F5F5F5F5F5F5F5F5F5F5F5F5F5F5F5F5F5F5F5F5F5F5F5F5F5F5F5F5F5F5F5F5F5F5F5F5F5F5F5F5F5F5F5F5F5F5F5F5F5E2F5E2EFE2F5E2F5F5F5F5F5F5F5F5
310
F5F5F5F5F5F5F5F5F5F5F5F5F5F5F5F5F5F5F5F5F5F5F5F5F5F5F5F5F5F5F5F5F5F5F5F5F5F5F5F5F5F5F5F5F5F5F5F5F5F5F5F5F5F5F5F5F5F5F5F5F5F5F5F5F5F5F5F5F5F5F5F5F5F5F5F5F5F5F5F5F5F5F5285E28F5F5F5F5F5F5F5F5F5F5F5F5F5F5F5F5F5F5F5F5F5F5F5F5F5F5F5F5F5F5F5F5F5F5F5F5F5F5F5F5F5
310
F5F5F5F5F5F5F5F5F5F5F5F5F5F5F5F5F5F5F5F5F5F5F5F5F5F5F5F5F5F5F5F5F5F5F5F5F5F5E2F5E2EFE2F5E2F5F5F5F5F5F5F5F5F5F5F5F5F5F5F5F5F5F5F5F5F5F5F5F5F5F5F5F5F5F5F5F5F5F5F5F5F5F5F5F5F5F5F5F5F5F5F5F5F5F5F5F5F5F5F5F5F5F5F5F5F5F5F5F5F5F5F5F5F5F5F5F5F5F5F5F5F5F5F5F5F5F5
310
F5F5F5F5F5F5F5F5F52828F5F5F5F5F5F5F5F5F5F5F5F5F5F5F5F5F5F5F5F5F5F5F5F5F5F5F5F5F5F5F5F5F5F5F5F5F5F5F5F5F5F5F5F5F5F5F5F5F5F5F5F5F5F5F5F5F5F5F5F5F5F5F5F5F5F5F5F5F5F5F5F5F5F5F5F5F5F5F5F5E2F5E2EFE2F5E2F5F5F5F5F5F5F5F5F5F5F5F5F5F5F5F5F5F5F5F5F5F5F5F5F5F5F5F5F5
310
F5F5F5F5F5F5F5F5F5F5F5F5F5F5F5F5F5F5F5F5F5F5F5F5F5F5F5F5F5F5F5F5F5F5F5F5F5F5F5F5F5F5F5F5F5F5F5F5F5F5F5F5F5F5F5F5F5F5F5F5F5F528F5F5F5F5F5F5F5F5F5F5F5F5F5F5F5F5F5F5F5F5F5F5F5F5F5F5F5F5F5F5F5F5F5F5F5F5F5F5F5F5F5F5F5F5F5F5F5F5F5F5F5F5F5F5F5F5F5F5F5F5F5F5F5F5
310
F5F5F5F5F5F5F5F5F5F5F5F5F5F5F5F5F5E2F5E2EFE2F5E2F5F5F5F5F5F5F5F5F5F5F5F5F5F5F5F5F5F5F5F5F5F5F5F5F5F5F5F5F5F5F5F5F5F5F5F5F5F5F5F5F5F5F5F5F5F5F5F5F5F5F5F5F5F5F5F5F5F5F5F5F5F5F5F5F5F5F5F5F5F5F5F5F5F5F5F5F5F5F5F5F5F5F5F5F5F5F5F5F5F52828F5F5F5F5F5F5F5F5F5F5F5
310
F5F5F5F5F5F5F5F5F5F5F5F5F5F5F5F5F5F5F5F5F5F5F5F5F5F5F5F5F5F5F5F5F5F5F5F5F5F5F5F5F5F5F5F5F5F5F5F5F5F5F5F5F5F5F5F5F5F5F5F5F5F5F5F5F5F5F5F5F5F5E2F5E2EFE2F5E2F5F5F5F5F5F5F5F5F5F5F5F5F5F5F5F5F5F5F5F5F5F5F5F5F5F5F5F5F5F5F5F5F5F5F5F5F5F5F5F5F5F5F5F5F5F5F5F5F5F5
310
F5F5F5F5F5F5F5F5F5F5F5F5F5F5F5F5F5F5F5F5F5F5F5F5F5F5F5F5F5F5F5F5F5F5F5F5F5F5F5F528F5F5F5F5F5F5F5F5F5F5F5F5F5F5F5F5F5F5F5F5F5F5F5F5F5F5F5F5F5F5F5F5F5F5F5F5F5F5F5F5F5F5F5F5F5F5F5F5F5F5F5F5F5F5F5F5F5F5F5F5F5F5F5F5F5F5F5F5F5F5F5F5F5F5F5F5F5F5F5F5F5F5E2F5E2EF
310
E2F5F5F5F5F5F5F5F5F5F5F5F5F5F5F5F5F5F5F5F5F5F5F5F5F5F5F5F5F5F5F5F5F5F5F5F5F5F5F5F5F5F5F5F5F5F5F5F5F5F5F5F5F5F5F5F5F5F5F5F5F5F5F5F5F5F5F5F5F5F5F5F5F5F5F5F5F5F5F5F5F5F5F5F5F5F5F5F5F5F5F5F5F5F5F5F5F5F5F5F5F5F5F5F5F5F5F5F5F5F5F5F5F5F5F5F5F5F5F5F5F5F5F5F5F5F5
310
F5F5F5F5F5F5F5F5F5F5F5F5F5F5F5F5F5F5F5F5F5F5F5F5F5F5F5F5F5F5F5F5F5F5F5F5F5F5F5F5F5F5F5F5F5F5F5F5F5F5F5E2EFE2F5F5F5F5F5F5F5F5F5F5F5F5F5F5F5F5F5F5F5F5F5F5F5F5F5F5F5F5F5F5F5F5F5F5F5F5F5F5F5F5F5F5F5F5F5F5F5F5F5F5F5F5F5F5F5F5F5F5F5F5F5F5F5F5F5F5F5F5F5F5F5F5F5
310
F5F5F5F5F5F5F5F5F5F5F5F5F5F5F5F5F5F5F5F5F5F5F5F5F5F5F5F5F5F5F5F5F5F5F5F5F5F5F5F5F5F5F5F5F5F5F5F5F5F5F5F5F5F5F5F5F5F5F5F5F5F5F5F5F5F5F5F5F5F5F5F5F5F5F5F5F5F5F5F5F5F5F5F5F5F5F5F5F5F5F5F5F5F5F5F5F5F5F5F5F5F5F5F5E2EFE2F5F5F5F5F5F5F5F5F5F5F5F5F5F5F5F5F5F5F5F5
310
F5F5F5F5F5F5F5F5F5F5F5F5F5F5F5F5F5F5F5F5F5F5F5F5F5F5F5F5F5F5F5F5F5F5F5F5F5F5F5F5F5F5F5F5F5F5F5F5F5F5F5F5F5F5F5F5F5F5F5F5F5F5F5F5F5F5F5F5F5F5F5F5F5F5F5F5F5F5F5F5F5F5F5F5F5F5F5F5F5F5F5F5F5F5F5F5F5F5F5F5F5F5F5F5F5F5F5F5F5F5F5F5F5F5F5F5F5F5F5F5F5F5F5F5F5F5F5
310
F5F5F5F5F5F5F5F5F5F5F5F5F5F5F5F5F5F5F5F5F5F5F5F5F5F5F5F5F5F5E2EFE2F5F5F5F5F5F5F5F5F5F5F5F5F5F5F5F5F5F5F5F5F5F5F5F5F5F5F5F5F5F5F5F5F5F5F5F5F5F5F5F5F5F5F5F5F5F5F5F5F5F5F5F5F5F5F5F5F5F5F5F5F5F5F5F5F5F5F5F5F5F5F5F5F5F5F5F5F5F5F5F5F5F5F5F5F5F5F5F5F5F5F5F5F5F5
310
F5F5F5F5F5F5F5F5F5F5F5F5F5F5F5F5F5F5F5F5F5F5F5F5F5F5F5F5F5F5F5F5F5F5F5F5F5F5F5F5F5F5F5F5F5F5F5F5F5F5F5F5F5F5F5F5F5F5F5F5F5F5F5F5F5F5F5F5F5F5F5F5F5F5F5F5F5F5F5F5F5F5F5E2EFE2F5F5F5F5F5F5F5F5F5F5F5F5F5F5F5F5F5F5F5F5F5F5F5F5F5F5F5F5F5F5F5F5F5F5F5F5F5F5F5F5F5
310
F5F5F5F5F5F5F5F5F5F5F5F5F5F5F5F5F5F5F5F5F5F5F5F5F5F5F5F5F5F5F5F5F5F5F5F5F5F5F5F5F5F5F5F5F5F5F5F5F5F5F5F5F5F5F5F5F5F5F5F5F5F5F5F5F5F5F5F5F5F5F5F5F5F5F5F5F5F5F5F5F5F5F5F5F5F5F5F5F5F5F5F5F5F5F5F5F5F5F5F5F5F5F5F5F5F5F5F5F5F5F5F5F5F5F5F5F5F5F5F5F5F5F5F5F5F5F5
310
F5F5F5F5F5F5F5F5F5E2EFE2F5F5F5F5F5F5F5F5F5F5F5F5F5F5F5F5F5F5F5F5F5F5F5F5F5F5F5F5F5F5F5F5F5F5F5F5F5F5F5F5F5F5F5F5F5F5F5F5F5F5F5F5F5F5F5F5F5F5F5F5F5F5F5F5F5F5F5F5F5F5F5F5F5F5F5F5F5F5F5F5F5F5F5F5F5F5F5F5F5F5F5F5F5F5F5F5F5F5F5F5F5F5F5F5F5F5F5F5F5F5F5F5F5F5F5
310
F5F5F5F5F5F5F5F5F5F5F5F5F5F5F5F5F5F5F5F5F5F5F5F5F5F5F5F5F5F5F5F5F5F5F5F5F5F5F5F5F5F5F5F5F5F5F5F5F5F5F5F5F5F5F5F5F5F5F5F5F5F5E2EFE2F5F5F5F5F5F5F5F5F5F5F5F5F5F5F5F5F5F5F5F5F5F5F5F5F5F5F5F5F5F5F5F5F5F5F5F5F5F5F5F5F5F5F5F5F5F5F5F5F5F5F5F5F5F5F5F5F5F5F5F5F5F5
310
F5F5F5F5F5F5F5F5F5F5F5F5F5F5F5F5F5F5F5F5F5F5F5F5F5F5F5F5F5F5F5F5F5F5F5F5F5F5F5F5F5F5F5F5F5F5F5F5F5F5F5F5F5F5F5F5F5F5F5F5F5F5F5F5F5F5F5F5F5F5F5F5F5F5F5F5F5F5F5F5F5F5F5F5F5F5F5F5F5F5F5F5F5F5F5F5F5F5F5F5F5F5F5F5F5F5F5F5F5F5F5F5F5F5F5E2EFE2F5F5F5F5F5F5F5F5F5
310
F5F5F5F5F5F5F5F5F5F5F5F5F5F5F5F5F5F5F5F5F5F5F5F5F5F5F5F5F5F5F5F5F5F5F5F5F5F5F5F5F5F5F5F5F5F5F5F5F5F5F5F5F5F5F5F5F5F5F5F5F5F5F5F5F5F5F5F5F5F5F5F5F5F5F5F5F5F5F5F5F5F5F5F5F5F5F5F5F5F5F5F5F5F5F5F5F5F5F5F5F5F5F5F5F5F5F5F5F5F5F5F5F5F5F5F5F5F5F5F5F5F5F5F5F5F5F5
310
F5F5F5F5F5F5F5F5F5F5F5F5F5F5F5F5F5F5F5F5F5F5F5F5F5F5F5F5F5F5F5F5F5F5F5F5F5F5F5F5F5E2EFE2F5F5F5F5F5F5F5F5F5F5F5F5F5F5F5F5F5F5F5F5F5F5F5F5F5F5F5F5F5F5F5F5F5F5F5F5F5F5F5F5F5F5F5F5F5F5F5F5F5F5F5F5F5F5F5F5F5F5F5F5F5F5F5F5F5F5F5F5F5F5F5F5F5F5F5F5F5F5F5F5F5F5F5
310
F5F5F5F5F5F5F5F5F5F5F5F5F5F5F5F5F5F5F5F5F5F5F5F5F5F5F5F5F5F5F5F5F5F5F5F5F5F5F5F5F5F5F5F5F5F5F5F5F5F5F5F5F5F5F5F5F5F5F5F5F5F5F5F5F5F5F5F5F5F5F5F5F5F5F5F5F5F5F5F5F5F5F5F5F5F5F5F5F5F5F5F5F5F5E2EFE2F5E2F5F5F5F5F5F5F5F5F5F5F5F5F5F5F5F5F5F5F5F5F5F5F5F5F5F5F5F5
310
F5F5F5F5F5F5F5F5F5F5F5F5F5F5F5F5F5F5F5F5F5F5F5F5F5F5F5F5F5F5F5F5F5F5F5F5F5F5F5F5F5F5F5F5F5F5F5F5F5F5F5F5F5F5F5F5F5F5F5F5F5F5F5F5F5F5F5F5F5F5F5F5F5F5F5F5F5F5F5F5F5F5F5F5F5F5F5F5F5F5F5F5F5F5F5F5F5F5F5F5F5F5F5F5F5F5F5F5F5F5F5F5F5F5F5F5F5F5F5F5F5F5F5F5F5F5F5
310
F5F5F5F5F5F5F5F5F5F5F5F5F5F5F5F5F5F5E2F5E2EFE2F5E2F5F5F5F5F5F5F5F5F5F5F5F5F5F5F5F5F5F5F5F5F5F5F5F5F5F5F5F5F5F5F5F5F5F5F5F5F5F5F5F5F5F5F5F5F5F5F5F5F5F5F5F5F5F5F5F5F5F5F5F5F5F5F5F5F5F5F5F5F5F5F5F5F5F5F5F5F5F5F5F5F5F5F5F5F5F5F5F5F5F5F5F5F5F5F5F5F5F5F5F5F5F5
310
F5F5F5F5F5F5F5F5F5F5F5F5F5F5F5F5F5F5F5F5F5F5F5F5F5F5F5F5F5F5F5F5F5F5F5F5F5F5F5F5F5F5F5F5F5F5F5F5F5F5F5F5F5F5F5F5F5F5F5F5F5F5F5F5F5F5F5F5F5F5F5E2F5E2EFE2F5E2F5F5F5F5F5F5F5F5F5F5F5F5F5F5F5F5F5F5F5F5F5F5F5F5F5F5F5F5F5F5F5F5F5F5F5F5F5F5F5F5F5F5F5F5F5F5F5F5F5
310
F5F5F5F5F5F5F5F5F5F5F5F5F5F5F5F5F5F5F5F5F5F5F5F5F5F5F5F5F5F5F5F5F5F5F5F5F5F5F5F5F5F5F5F5F5F5F5F5F5F5F5F5F5F5F5F5F5F5F5F5F5F5F5F5F5F5F5F5F5F5F5F5F5F5F5F5F5F5F5F5F5F5F5F5F5F5F5F5F5F5F5F5F5F5F5F5F5F5F5F5F5F5F5F5F5F5F5F5F5F5F5F5F5F5F5F5F5F5F5F5F5F5F5F5E2F5E2
310
EFE2F5E2F5F5F5F5F5F5F5F5F5F5F5F5F5F5F5F5F5F5F5F5F5F5F5F5F5F5F5F5F5F5F5F5F5F5F5F5F5F5F5F5F5F5F5F5F5F5F5F5F5F5F5F5F5F5F5F5F5F5F5F5F5F5F5F5F5F5F5F5F5F5F5F5F5F5F5F5F5F5F5F5F5F5F5F5F5F5F5F5F5F5F5F5F5F5F5F5F5F5F5F5F5F5F5F5F5F5F5F5F5F5F5F5F5F5F5F5F5F5F5F5F5F5F5
310
F5F5F5F5F5F5F5F5F5F5F5F5F5F5F5F5F5F5F5F5F5F5F5F5F5F5F5F5F5F5F5F5F5F5F5F5F5F5F5F5F5F5F5F5F5F5F5F5F5F5E2F5E2EFE2F5E2F5F5F5F5F5F5F5F5F5F5F5F5F5F5F5F5F5F5F5F5F5F5F5F5F5F5F5F5F5F5F5F5F5F5F5F5F5F5F5F5F5F5F5F5F5F5F5F5F5F5F5F5F5F5F5F5F5F5F5F5F5F5F5F5F5F5F5F5F5F5
310
F5F5F5F5F5F5F5F5F5F5F5F5F5F5F5F5F5F5F5F5F5F5F5F5F5F5F5F5F5F5F5F5F5F5F5F5F5F5F5F5F5F5F5F5F5F5F5F5F5F5F5F5F5F5F5F5F5F5F5F5F5F5F5F5F5F5F5F5F5F5F5F5F5F5F5F5F5F5F5F5F5F5F5F5F5F5F5F5F5F5F5F5F5F5F5F5F5F5F5F5F5F5F5E2F5E2EFE2F5E2F5F5F5F5F5F5F5F5F5F5F5F5F5F5F5F5F5
310
F5F5F5F5F5F5F5F5F5F5F5F5F5F5F5F5F5F5F5F5F5F5F5F5F5F5F5F5F5F5F5F5F5F5F5F5F5F5F5F5F5F5F5F5F5F5F5F5F5F5F5F5F5F5F5F5F5F5F5F5F5F5F5F5F5F5F5F5F5F5F5F5F5F5F5F5F5F5F5F5F5F5F5F5F5F5F5F5F5F5F5F5F5F5F5F5F5F5F5F5F5F5F5F5F5F5F5F5F5F5F5F5F5F5F5F5F5F5F5F5F5F5F5F5F5F5F5
310
F5F5F5F5F5F5F5F5F5F5F5F5F5F5F5F5F5F5F5F5F5F5F5F5F5F5F5F5F5E2F5E2EFE2F5E2F5F5F5F5F5F5F5F5F5F5F5F5F5F5F5F5F5F5F5F5F5F5F5F5F5F5F5F5F5F5F5F5F5F5F5F5F5F5F5F5F5F5F5F5F5F5F5F5F5F5F5F5F5F5F5F5F5F5F5F5F5F5F5F5F5F5F5F5F5F5F5F5F5F5F5F5F5F5F5F5F5F5F5F5F5F5F5F5F5F5F5
310
F5F5F5F5F5F5F5F5F5F5F5F5F5F5F5F5F5F5F5F5F5F5F5F5F5F5F5F5F5F5F5F5F5F5F5F5F5F5F5F5F5F5F5F5F5F5F5F5F5F5F5F5F5F5F5F5F5F5F5F5F5F5F5F5F5F5F5F5F5F5F5F5F5F5F5F5F5F5F5F5F5F5E2F5E2EFE2F5E2F5F5F5F5F5F5F5F5F5F5F5F5F5F5F5F5F5F5F5F5F5F5F5F5F5F5F5F5F5F5F5F5F5F5F5F5F5F5
310
F5F5F5F5F5F5F5F5F5F5F5F5F5F5F5F5F5F5F5F5F5F5F5F5F5F5F5F5F5F5F5F5F5F5F5F5F5F5F5F5F5F5F5F5F5F5F5F5F5F5F5F5F5F5F5F5F5F5F5F5F5F5F5F5F5F5F5F5F5F5F5F5F5F5F5F5F5F5F5F5F5F5F5F5F5F5F5F5F5F5F5F5F5F5F5F5F5F5F5F5F5F5F5F5F5F5F5F5F5F5F5F5F5F5F5F5F5F5F5F5F5F5F5F5F5F5F5
310
F5F5F5F5F5F5F5F5E2F5E2EFE2F5E2F5F5F5F5F5F5F5F5F5F5F5F5F5F5F5F5F5F5F5F5F5F5F5F5F5F5F5F5F5F5F5F5F5F5F5F5F5F5F5F5F5F5F5F5F5F5F5F5F5F5F5F5F5F5F5F5F5F5F5F5F5F5F5F5F5F5F5F5F5F5F5F5F5F5F5F5F5F5F5F5F5F5F5F5F5F5F5F5F5F5F5F5F5F5F5F5F5F5F5F5F5F5F5F5F5F5F5F5F5F5F5F5
310
F5F5F5F5F5F5F5F5F5F5F5F5F5F5F5F5F5F5F5F5F5F5F5F5F5F5F5F5F5F5F5F5F5F5F5F5F5F5F5F5F5F5F5F5F5F5F5F5F5F5F5F5F5F5F5F5F5F5F5F5F5E2F5E2EFE2F5E2F5F5F5F5F5F5F5F5F5F5F5F5F5F5F5F5F5F5F5F5F5F5F5F5F5F5F5F5F5F5F5F5F5F5F5F5F5F5F5F5F5F5F5F5F5F5F5F5F5F5F5F5F5F5F5F5F5F5F5
310
F5F5F5F5F5F5F5F5F5F5F5F5F5F5F5F5F5F5F5F5F5F5F5F5F5F5F5F5F5F5F5F5F5F5F5F5F5F5F5F5F5F5F5F5F5F5F5F5F5F5F5F5F5F5F5F5F5F5F5F5F5F5F5F5F5F5F5F5F5F5F5F5F5F5F5F5F5F5F5F5F5F5F5F5F5F5F5F5F5F5F5F5F5F5F5F5F5F5F5F5F5F5F5F5F5F5F5F5F5F5F5F5F5F5E2F5E2EFE2F5E2F5F5F5F5F5F5
310
F5F5F5F5F5F5F5F5F5F5F5F5F5F5F5F5F5F5F5F5F5F5F5F5F5F5F5F5F5F5F5F5F5F5F5F5F5F5F5F5F5F5F5F5F5F5F5F5F5F5F5F5F5F5F5F5F5F5F5F5F5F5F5F5F5F5F5F5F5F5F5F5F5F5F5F5F5F5F5F5F5F5F5F5F5F5F5F5F5F5F5F5F5F5F5F5F5F5F5F5F5F5F5F5F5F5F5F5F5F5F5F5F5F5F5F5F5F5F5F5F5F5F5F5F5F5F5
310
F5F5F5F5F5F5F5F5F5F5F5F5F5F5F5F5F5F5F5F5F5F5F5F5F5F5F5F5F5F5F5F5F5F5F5F5F5F5F5F5E2F5E2EFE2F5E2F5F5F5F5F5F5F5F5F5F5F5F5F5F5F5F5F5F5F5F5F5F5F5F5F5F5F5F5F5F5F5F5F5F5F5F5F5F5F5F5F5F5F5F5F5F5F5F5F5F5F5F5F5F5F5F5F5F5F5F5F5F5F5F5F5F5F5F5F5F5F5F5F5F5F5F5F5F5F5F5
310
F5F5F5F5F5F5F5F5F5F5F5F5F5F5F5F5F5F5F5F5F5F5F5F5F5F5F5F5F5F5F5F5F5F5F5F5F5F5F5F5F5F5F5F5F5F5F5F5F5F5F5F5F5F5F5F5F5F5F5F5F5F5F5F5F5F5F5F5F5F5F5F5F5F5F5F5F5F5F5F5F5F5F5F5F5F5F5F5F5F5F5F5F5E2F5E2EFE2F5E2F5F5F5F5F5F5F5F5F5F5F5F5F5F5F5F5F5F5F5F5F5F5F5F5F5F5F5
310
F5F5F5F5F5F5F5F5F5F5F5F5F5F5F5F5F5F5F5F5F5F5F5F5F5F5F5F5F5F5F5F5F5F5F5F5F5F5F5F5F5F5F5F5F5F5F5F5F5F5F5F5F5F5F5F5F5F5F5F5F5F5F5F5F5F5F5F5F5F5F5F5F5F5F5F5F5F5F5F5F5F5F5F5F5F5F5F5F5F5F5F5F5F5F5F5F5F5F5F5F5F5F5F5F5F5F5F5F5F5F5F5F5F5F5F5F5F5F5F5F5F5F5F5F5F5F5
310
F5F5F5F5F5F5F5F5F5F5F5F5F5F5F5F5F5F5F5E2F5E2EFE2F5E2F5F5F5F5F5F5F5F5F5F5F5F5F5F5F5F5F5F5F5F5F5F5F5F5F5F5F5F5F5F5F5F5F5F5F5F5F5F5F5F5F5F5F5F5F5F5F5F5F5F5F5F5F5F5F5F5F5F5F5F5F5F5F5F5F5F5F5F5F5F5F5F5F5F5F5F5F5F5F5F5F5F5F5F5F5F5F5F5F5F5F5F5F5F5F5F5F5F5F5F5F5
310
F5F5F5F5F5F5F5F5F5F5F5F5F5F5F5F5F5F5F5F5F5F5F5F5F5F5F5F5F5F5F5F5F5F5F5F5F5F5F5F5F5F5F5F5F5F5F5F5F5F5F5F5F5F5F5F5F5F5F5F5F5F5F5F5F5F5F5F5F5F5F5F5E2F5E2EFE2F5E2F5F5F5F5F5F5F5F5F5F5F5F5F5F5F5F5F5F5F5F5F5F5F5F5F5F5F5F5F5F5F5F5F5F5F5F5F5F5F5F5F5F5F5F5F5F5F5F5
310
F5F5F5F5F5F5F5F5F5F5F5F5F5F5F5F5F5F5F5F5F5F5F5F5F5F5F5F5F5F5F5F5F5F5F5F5F5F5F5F5F5F5F5F5F5F5F5F5F5F5F5F5F5F5F5F5F5F5F5F5F5F5F5F5F5F5F5F5F5F5F5F5F5F5F5F5F5F5F5F5F5F5F5F5F5F5F5F5F5F5F5F5F5F5F5F5F5F5F5F5F5F5F5F5F5F5F5F5F5F5F5F5F5F5F5F5F5F5F5F5F5F5F5F5F5E2F5
310
E2EFE2F5E2F5F5F5F5F5F5F5F5F5F5F5F5F5F5F5F5F5F5F5F5F5F5F5F5F5F5F5F5F5F5F5F5F5F5F5F5F5F5F5F5F5F5F5F5F5F5F5F5F5F5F5F5F5F5F5F5F5F5F5F5F5F5F5F5F5F5F5F5F5F5F5F5F5F5F5F5F5F5F5F5F5F5F5F5F5F5F5F5F5F5F5F5F5F5F5F5F5F5F5F5F5F5F5F5F5F5F5F5F5F5F5F5F5F5F5F5F5F5F5F5F5F5
310
F5F5F5F5F5F5F5F5F5F5F5F5F5F5F5F5F5F5F5F5F5F5F5F5F5F5F5F5F5F5F5F5F5F5F5F5F5F5F5F5F5F5F5F5F5F5F5F5F5F5F5E2F5E2EFE2F5F5F5F5F5F5F5F5F5F5F5F5F5F5F5F5F5F5F5F5F5F5F5F5F5F5F5F5F5F5F5F5F5F5F5F5F5F5F5F5F5F5F5F5F5F5F5F5F5F5F5F5F5F5F5F5F5F5F5F5F5F5F5F5F5F5F5F5F5F5F5
310
F5F5F5F5F5F5F5F5F5F5F5F5F5F5F5F5F5F5F5F5F5F5F5F5F5F5F5F5F5F5F5F5F5F5F5F5F5F5F5F5F5F5F5F5F5F5F5F5F5F5F5F5F5F5F5F5F5F5F5F5F5F5F5F5F5F5F5F5F5F5F5F5F5F5F5F5F5F5F5F5F5F5F5F5F5F5F5F5F5F5F5F5F5F5F5F5F5F5F5F5F5F5F5F5F5F5E2EFE2F5F5F5F5F5F5F5F5F5F5F5F5F5F5F5F5F5F5
310
F5F5F5F5F5F5F5F5F5F5F5F5F5F5F5F5F5F5F5F5F5F5F5F5F5F5F5F5F5F5F5F5F5F5F5F5F5F5F5F5F5F5F5F5F5F5F5F5F5F5F5F5F5F5F5F5F5F5F5F5F5F5F5F5F5F5F5F5F5F5F5F5F5F5F5F5F5F5F5F5F5F5F5F5F5F5F5F5F5F5F5F5F5F5F5F5F5F5F5F5F5F5F5F5F5F5F5F5F5F5F5F5F5F5F5F5F5F5F5F5F5F5F5F5F5F5F5
310
F5F5F5F5F5F5F5F5F5F5F5F5F5F5F5F5F5F5F5F5F5F5F5F5F5F5F5F5F5F5F5F5E2EFE2F5F5F5F5F5F5F5F5F5F5F5F5F5F5F5F5F5F5F5F5F5F5F5F5F5F5F5F5F5F5F5F5F5F5F5F5F5F5F5F5F5F5F5F5F5F5F5F5F5F5F5F5F5F5F5F5F5F5F5F5F5F5F5F5F5F5F5F5F5F5F5F5F5F5F5F5F5F5F5F5F5F5F5F5F5F5F5F5F5F5F5F5
310
F5F5F5F5F5F5F5F5F5F5F5F5F5F5F5F5F5F5F5F5F5F5F5F5F5F5F5F5F5F5F5F5F5F5F5F5F5F5F5F5F5F5F5F5F5F5F5F5F5F5F5F5F5F5F5F5F5F5F5F5F5F5F5F5F5F5F5F5F5F5F5F5F5F5F5F5F5F5F5F5F5F5F5F5F5E2EFE2F5F5F5F5F5F5F5F5F5F5F5F5F5F5F5F5F5F5F5F5F5F5F5F5F5F5F5F5F5F5F5F5F5F5F5F5F5F5F5
310
F5F5F5F5F5F5F5F5F5F5F5F5F5F5F5F5F5F5F5F5F5F5F5F5F5F5F5F5F5F5F5F5F5F5F5F5F5F5F5F5F5F5F5F5F5F5F5F5F5F5F5F5F5F5F5F5F5F5F5F5F5F5F5F5F5F5F5F5F5F5F5F5F5F5F5F5F5F5F5F5F5F5F5F5F5F5F5F5F5F5F5F5F5F5F5F5F5F5F5F5F5F5F5F5F5F5F5F5F5F5F5F5F5F5F5F5F5F5F5F5F5F5F5F5F5F5F5
310
F5F5F5F5F5F5F5F5F5F5F5E2EFE2F5F5F5F5F5F5F5F5F5F5F5F5F5F5F5F5F5F5F5F5F5F5F5F5F5F5F5F5F5F5F5F5F5F5F5F5F5F5F5F5F5F5F5F5F5F5F5F5F5F5F5F5F5F5F5F5F5F5F5F5F5F5F5F5F5F5F5F5F5F5F5F5F5F5F5F5F5F5F5F5F5F5F5F5F5F5F5F5F5F5F5F5F5F5F5F5F5F5F5F5F5F5F5F5F5F5F5F5F5F5F5F5F5
310
F5F5F5F5F5F5F5F5F5F5F5F5F5F5F5F5F5F5F5F5F5F5F5F5F5F5F5F5F5F5F5F5F5F5F5F5F5F5F5F5F5F5F5F5F5F5F5F5F5F5F5F5F5F5F5F5F5F5F5F5F5F5F5F5E2EFE2F5F5F5F5F5F5F5F5F5F5F5F5F5F5F5F5F5F5F5F5F5F5F5F5F5F5F5F5F5F5F5F5F5F5F5F5F5F5F5F5F5F5F5F5F5F5F5F5F5F5F5F5F5F5F5F5F5F5F5F5
310
F5F5F5F5F5F5F5F5F5F5F5F5F5F5F5F5F5F5F5F5F5F5F5F5F5F5F5F5F5F5F5F5F5F5F5F5F5F5F5F5F5F5F5F5F5F5F5F5F5F5F5F5F5F5F5F5F5F5F5F5F5F5F5F5F5F5F5F5F5F5F5F5F5F5F5F5F5F5F5F5F5F5F5F5F5F5F5F5F5F5F5F5F5F5F5F5F5F5F5F5F5F5F5F5F5F5F5F5F5F5F5F5F5F5F5F5F5E2EFE2F5F5F5F5F5F5F5
310
F5F5F5F5F5F5F5F5F5F5F5F5F5F5F5F5F5F5F5F5F5F5F5F5F5F5F5F5F5F5F5F5F5F5F5F5F5F5F5F5F5F5F5F5F5F5F5F5F5F5F5F5F5F5F5F5F5F5F5F5F5F5F5F5F5F5F5F5F5F5F5F5F5F5F5F5F5F5F5F5F5F5F5F5F5F5F5F5F5F5F5F5F5F5F5F5F5F5F5F5F5F5F5F5F5F5F5F5F5F5F5F5F5F5F5F5F5F5F5F5F5F5F5F5F5F5F5
310
F5F5F5F5F5F5F5F5F5F5F5F5F5F5F5F5F5F5F5F5F5F5F5F5F5F5F5F5F5F5F5F5F5F5F5F5F5F5F5F5F5F5F5E2EFE2F5F5F5F5F5F5F5F5F5F5F5F5F5F5F5F5F5F5F5F5F5F5F5F5F5F5F5F5F5F5F5F5F5F5F5F5F5F5F5F5F5F5F5F5F5F5F5F5F5F5F5F5F5F5F5F5F5F5F5F5F5F5F5F5F5F5F5F5F5F5F5F5F5F5F5F5F5F5F5F5F5
310
F5F5F5F5F5F5F5F5F5F5F5F5F5F5F5F5F5F5F5F5F5F5F5F5F5F5F5F5F5F5F5F5F5F5F5F5F5F5F5F5F5F5F5F5F5F5F5F5F5F5F5F5F5F5F5F5F5F5F5F5F5F5F5F5F5F5F5F5F5F5F5F5F5F5F5F5F5F5F5F5F5F5F5F5F5F5F5F5F5F5F5F5F5F5F5F5E2EFE2F5E2F5F5F5F5F5F5F5F5F5F5F5F5F5F5F5F5F5F5F5F5F5F5F5F5F5F5
310
F5F5F5F5F5F5F5F5F5F5F5F5F5F5F5F5F5F5F5F5F5F5F5F5F5F5F5F5F5F5F5F5F5F5F5F5F5F5F5F5F5F5F5F5F5F5F5F5F5F5F5F5F5F5F5F5F5F5F5F5F5F5F5F5F5F5F5F5F5F5F5F5F5F5F5F5F5F5F5F5F5F5F5F5F5F5F5F5F5F5F5F5F5F5F5F5F5F5F5F5F5F5F5F5F5F5F5F5F5F5F5F5F5F5F5F5F5F5F5F5F5F5F5F5F5F5F5
310
F5F5F5F5F5F5F5F5F5F5F5F5F5F5F5F5F5F5F5F5E2F5E2EFE2F5E2F5F5F5F5F5F5F5F5F5F5F5F5F5F5F5F5F5F5F5F5F5F5F5F5F5F5F5F5F5F5F5F5F5F5F5F5F5F5F5F5F5F5F5F5F5F5F5F5F5F5F5F5F5F5F5F5F5F5F5F5F5F5F5F5F5F5F5F5F5F5F5F5F5F5F5F5F5F5F5F5F5F5F5F5F5F5F5F5F5F5F5F5F5F5F5F5F5F5F5F5
310
F5F5F5F5F5F5F5F5F5F5F5F5F5F5F5F5F5F5F5F5F5F5F5F5F5F5F5F5F5F5F5F5F5F5F5F5F5F5F5F5F5F5F5F5F5F5F5F5F5F5F5F5F5F5F5F5F5F5F5F5F5F5F5F5F5F5F5F5F5F5F5F5F5E2F5E2EFE2F5E2F5F5F5F5F5F5F5F5F5F5F5F5F5F5F5F5F5F5F5F5F5F5F5F5F5F5F5F5F5F5F5F5F5F5F5F5F5F5F5F5F5F5F5F5F5F5F5
310
F5F5F5F5F5F5F5F5F5F5F5F5F5F5F5F5F5F5F5F5F5F5F5F5F5F5F5F5F5F5F5F5F5F5F5F5F5F5F5F5F5F5F5F5F5F5F5F5F5F5F5F5F5F5F5F5F5F5F5F5F5F5F5F5F5F5F5F5F5F5F5F5F5F5F5F5F5F5F5F5F5F5F5F5F5F5F5F5F5F5F5F5F5F5F5F5F5F5F5F5F5F5F5F5F5F5F5F5F5F5F5F5F5F5F5F5F5F5F5F5F5F5F5F5F5F5E2
310
F5E2EFE2F5E2F5F5F5F5F5F5F5F5F5F5F5F5F5F5F5F5F5F5F5F5F5F5F5F5F5F5F5F5F5F5F5F5F5F5F5F5F5F5F5F5F5F5F5F5F5F5F5F5F5F5F5F5F5F5F5F5F5F5F5F5F5F5F5F5F5F5F5F5F5F5F5F5F5F5F5F5F5F5F5F5F5F5F5F5F5F5F5F5F5F5F5F5F5F5F5F5F5F5F5F5F5F5F5F5F5F5F5F5F5F5F5F5F5F5F5F5F5F5F5F5F5
310
F5F5F5F5F5F5F5F5F5F5F5F5F5F5F5F5F5F5F5F5F5F5F5F5F5F5F5F5F5F5F5F5F5F5F5F5F5F5F5F5F5F5F5F5F5F5F5F5F5F5F5F5E2F5E2EFE2F5E2F5F5F5F5F5F5F5F5F5F5F5F5F5F5F5F5F5F5F5F5F5F5F5F5F5F5F5F5F5F5F5F5F5F5F5F5F5F5F5F5F5F5F5F5F5F5F5F5F5F5F5F5F5F5F5F5F5F5F5F5F5F5F5F5F5F5F5F5
310
F5F5F5F5F5F5F5F5F5F5F5F5F5F5F5F5F5F5F5F5F5F5F5F5F5F5F5F5F5F5F5F5F5F5F5F5F5F5F5F5F5F5F5F5F5F5F5F5F5F5F5F5F5F5F5F5F5F5F5F5F5F5F5F5F5F5F5F5F5F5F5F5F5F5F5F5F5F5F5F5F5F5F5F5F5F5F5F5F5F5F5F5F5F5F5F5F5F5F5F5F5F5F5F5F5E2F5E2EFE2F5E2F5F5F5F5F5F5F5F5F5F5F5F5F5F5F5
310
F5F5F5F5F5F5F5F5F5F5F5F5F5F5F5F5F5F5F5F5F5F5F5F5F5F5F5F5F5F5F5F5F5F5F5F5F5F5F5F5F5F5F5F5F5F5F5F5F5F5F5F5F5F5F5F5F5F5F5F5F5F5F5F5F5F5F5F5F5F5F5F5F5F5F5F5F5F5F5F5F5F5F5F5F5F5F5F5F5F5F5F5F5F5F5F5F5F5F5F5F5F5F5F5F5F5F5F5F5F5F5F5F5F5F5F5F5F5F5F5F5F5F5F5F5F5F5
310
F5F5F5F5F5F5F5F5F5F5F5F5F5F5F5F5F5F5F5F5F5F5F5F5F5F5F5F5F5F5F5E2F5E2EFE2F5E2F5F5F5F5F5F5F5F5F5F5F5F5F5F5F5F5F5F5F5F5F5F5F5F5F5F5F5F5F5F5F5F5F5F5F5F5F5F5F5F5F5F5F5F5F5F5F5F5F5F5F5F5F5F5F5F5F5F5F5F5F5F5F5F5F5F5F5F5F5F5F5F5F5F5F5F5F5F5F5F5F5F5F5F5F5F5F5F5F5
310
F5F5F5F5F5F5F5F5F5F5F5F5F5F5F5F5F5F5F5F5F5F5F5F5F5F5F5F5F5F5F5F5F5F5F5F5F5F5F5F5F5F5F5F5F5F5F5F5F5F5F5F5F5F5F5F5F5F5F5F5F5F5F5F5F5F5F5F5F5F5F5F5F5F5F5F5F5F5F5F5F5F5F5F5E2F5E2EFE2F5E2F5F5F5F5F5F5F5F5F5F5F5F5F5F5F5F5F5F5F5F5F5F5F5F5F5F5F5F5F5F5F5F5F5F5F5F5
310
F5F5F5F5F5F5F5F5F5F5F5F5F5F5F5F5F5F5F5F5F5F5F5F5F5F5F5F5F5F5F5F5F5F5F5F5F5F5F5F5F5F5F5F5F5F5F5F5F5F5F5F5F5F5F5F5F5F5F5F5F5F5F5F5F5F5F5F5F5F5F5F5F5F5F5F5F5F5F5F5F5F5F5F5F5F5F5F5F5F5F5F5F5F5F5F5F5F5F5F5F5F5F5F5F5F5F5F5F5F5F5F5F5F5F5F5F5F5F5F5F5F5F5F5F5F5F5
310
F5F5F5F5F5F5F5F5F5F5E2F5E2EFE2F5E2F5F5F5F5F5F5F5F5F5F5F5F5F5F5F5F5F5F5F5F5F5F5F5F5F5F5F5F5F5F5F5F5F5F5F5F5F5F5F5F5F5F5F5F5F5F5F5F5F5F5F5F5F5F5F5F5F5F5F5F5F5F5F5F5F5F5F5F5F5F5F5F5F5F5F5F5F5F5F5F5F5F5F5F5F5F5F5F5F5F5F5F5F5F5F5F5F5F5F5F5F5F5F5F5F5F5F5F5F5F5
310
F5F5F5F5F5F5F5F5F5F5F5F5F5F5F5F5F5F5F5F5F5F5F5F5F5F5F5F5F5F5F5F5F5F5F5F5F5F5F5F5F5F5F5F5F5F5F5F5F5F5F5F5F5F5F5F5F5F5F5F5F5F5F5E2F5E2EFE2F5E2F5F5F5F5F5F5F5F5F5F5F5F5F5F5F5F5F5F5F5F5F5F5F5F5F5F5F5F5F5F5F5F5F5F5F5F5F5F5F5F5F5F5F5F5F5F5F5F5F5F5F5F5F5F5F5F5F5
310
F5F5F5F5F5F5F5F5F5F5F5F5F5F5F5F5F5F5F5F5F5F5F5F5F5F5F5F5F5F5F5F5F5F5F5F5F5F5F5F5F5F5F5F5F5F5F5F5F5F5F5F5F5F5F5F5F5F5F5F5F5F5F5F5F5F5F5F5F5F5F5F5F5F5F5F5F5F5F5F5F5F5F5F5F5F5F5F5F5F5F5F5F5F5F5F5F5F5F5F5F5F5F5F5F5F5F5F5F5F5F5F5F5F5F5F5E2F5E2EFE2F5E2F5F5F5F5
310
F5F5F5F5F5F5F5F5F5F5F5F5F5F5F5F5F5F5F5F5F5F5F5F5F5F5F5F5F5F5F5F5F5F5F5F5F5F5F5F5F5F5F5F5F5F5F5F5F5F5F5F5F5F5F5F5F5F5F5F5F5F5F5F5F5F5F5F5F5F5F5F5F5F5F5F5F5F5F5F5F5F5F5F5F5F5F5F5F5F5F5F5F5F5F5F5F5F5F5F5F5F5F5F5F5F5F5F5F5F5F5F5F5F5F5F5F5F5F5F5F5F5F5F5F5F5F5
310
F5F5F5F5F5F5F5F5F5F5F5F5F5F5F5F5F5F5F5F5F5F5F5F5F5F5F5F5F5F5F5F5F5F5F5F5F5F5F5F5F5F5E2F5E2EFE2F5E2F5F5F5F5F5F5F5F5F5F5F5F5F5F5F5F5F5F5F5F5F5F5F5F5F5F5F5F5F5F5F5F5F5F5F5F5F5F5F5F5F5F5F5F5F5F5F5F5F5F5F5F5F5F5F5F5F5F5F5F5F5F5F5F5F5F5F5F5F5F5F5F5F5F5F5F5F5F5
310
F5F5F5F5F5F5F5F5F5F5F5F5F5F5F5F5F5F5F5F5F5F5F5F5F5F5F5F5F5F5F5F5F5F5F5F5F5F5F5F5F5F5F5F5F5F5F5F5F5F5F5F5F5F5F5F5F5F5F5F5F5F5F5F5F5F5F5F5F5F5F5F5F5F5F5F5F5F5F5F5F5F5F5F5F5F5F5F5F5F5F5F5F5F5F5E2F5E2EFE2F5E2F5F5F5F5F5F5F5F5F5F5F5F5F5F5F5F5F5F5F5F5F5F5F5F5F5
310
F5F5F5F5F5F5F5F5F5F5F5F5F5F5F5F5F5F5F5F5F5F5F5F5F5F5F5F5F5F5F5F5F5F5F5F5F5F5F5F5F5F5F5F5F5F5F5F5F5F5F5F5F5F5F5F5F5F5F5F5F5F5F5F5F5F5F5F5F5F5F5F5F5F5F5F5F5F5F5F5F5F5F5F5F5F5F5F5F5F5F5F5F5F5F5F5F5F5F5F5F5F5F5F5F5F5F5F5F5F5F5F5F5F5F5F5F5F5F5F5F5F5F5F5F5F5F5
310
F5F5F5F5F5F5F5F5F5F5F5F5F5F5F5F5F5F5F5F5F5E2F5E2EFE2F5E2F5F5F5F5F5F5F5F5F5F5F5F5F5F5F5F5F5F5F5F5F5F5F5F5F5F5F5F5F5F5F5F5F5F5F5F5F5F5F5F5F5F5F5F5F5F5F5F5F5F5F5F5F5F5F5F5F5F5F5F5F5F5F5F5F5F5F5F5F5F5F5F5F5F5F5F5F5F5F5F5F5F5F5F5F5F5F5F5F5F5F5F5F5F5F5F5F5F5F5
310
F5F5F5F5F5F5F5F5F5F5F5F5F5F5F5F5F5F5F5F5F5F5F5F5F5F5F5F5F5F5F5F5F5F5F5F5F5F5F5F5F5F5F5F5F5F5F5F5F5F5F5F5F5F5F5F5F5F5F5F5F5F5F5F5F5F5F5F5F5F5F5F5F5F5E2F5E2EFE2F5E2F5F5F5F5F5F5F5F5F5F5F5F5F5F5F5F5F5F5F5F5F5F5F5F5F5F5F5F5F5F5F5F5F5F5F5F5F5F5F5F5F5F5F5F5F5F5
310
F5F5F5F5F5F5F5F5F5F5F5F5F5F5F5F5F5F5F5F5F5F5F5F5F5F5F5F5F5F5F5F5F5F5F5F5F5F5F5F5F5F5F5F5F5F5F5F5F5F5F5F5F5F5F5F5F5F5F5F5F5F5F5F5F5F5F5F5F5F5F5F5F5F5F5F5F5F5F5F5F5F5F5F5F5F5F5F5F5F5F5F5F5F5F5F5F5F5F5F5F5F5F5F5F5F5F5F5F5F5F5F5F5F5F5F5F5F5F5F5F5F5F5F5F5F5F5
310
E2F5E2EFE2F5E2F5F5F5F5F5F5F5F5F5F5F5F5F5F5F5F5F5F5F5F5F5F5F5F5F5F5F5F5F5F5F5F5F5F5F5F5F5F5F5F5F5F5F5F5F5F5F5F5F5F5F5F5F5F5F5F5F5F5F5F5F5F5F5F5F5F5F5F5F5F5F5F5F5F5F5F5F5F5F5F5F5F5F5F5F5F5F5F5F5F5F5F5F5F5F5F5F5F5F5F5F5F5F5F5F5F5F5F5F5F5F5F5F5F5F5F5F5F5F5F5
310
F5F5F5F5F5F5F5F5F5F5F5F5F5F5F5F5F5F5F5F5F5F5F5F5F5F5F5F5F5F5F5F5F5F5F5F5F5F5F5F5F5F5F5F5F5F5F5F5F5F5F5F5F5E2F5E2EFE2F5F5F5F5F5F5F5F5F5F5F5F5F5F5F5F5F5F5F5F5F5F5F5F5F5F5F5F5F5F5F5F5F5F5F5F5F5F5F5F5F5F5F5F5F5F5F5F5F5F5F5F5F5F5F5F5F5F5F5F5F5F5F5F5F5F5F5F5F5
310
F5F5F5F5F5F5F5F5F5F5F5F5F5F5F5F5F5F5F5F5F5F5F5F5F5F5F5F5F5F5F5F5F5F5F5F5F5F5F5F5F5F5F5F5F5F5F5F5F5F5F5F5F5F5F5F5F5F5F5F5F5F5F5F5F5F5F5F5F5F5F5F5F5F5F5F5F5F5F5F5F5F5F5F5F5F5F5F5F5F5F5F5F5F5F5F5F5F5F5F5F5F5F5F5F5F5F5F5E2EFE2F5F5F5F5F5F5F5F5F5F5F5F5F5F5F5F5
310
F5F5F5F5F5F5F5F5F5F5F5F5F5F5F5F5F5F5F5F5F5F5F5F5F5F5F5F5F5F5F5F5F5F5F5F5F5F5F5F5F5F5F5F5F5F5F5F5F5F5F5F5F5F5F5F5F5F5F5F5F5F5F5F5F5F5F5F5F5F5F5F5F5F5F5F5F5F5F5F5F5F5F5F5F5F5F5F5F5F5F5F5F5F5F5F5F5F5F5F5F5F5F5F5F5F5F5F5F5F5F5F5F5F5F5F5F5F5F5F5F5F5F5F5F5F5F5
310
F5F5F5F5F5F5F5F5F5F5F5F5F5F5F5F5F5F5F5F5F5F5F5F5F5F5F5F5F5F5F5F5F5F5E2EFE2F5F5F5F5F5F5F5F5F5F5F5F5F5F5F5F5F5F5F5F5F5F5F5F5F5F5F5F5F5F5F5F5F5F5F5F5F5F5F5F5F5F5F5F5F5F5F5F5F5F5F5F5F5F5F5F5F5F5F5F5F5F5F5F5F5F5F5F5F5F5F5F5F5F5F5F5F5F5F5F5F5F5F5F5F5F5F5F5F5F5
310
F5F5F5F5F5F5F5F5F5F5F5F5F5F5F5F5F5F5F5F5F5F5F5F5F5F5F5F5F5F5F5F5F5F5F5F5F5F5F5F5F5F5F5F5F5F5F5F5F5F5F5F5F5F5F5F5F5F5F5F5F5F5F5F5F5F5F5F5F5F5F5F5F5F5F5F5F5F5F5F5F5F5F5F5F5F5F5E2EFE2F5F5F5F5F5F5F5F5F5F5F5F5F5F5F5F5F5F5F5F5F5F5F5F5F5F5F5F5F5F5F5F5F5F5F5F5F5
310
F5F5F5F5F5F5F5F5F5F5F5F5F5F5F5F5F5F5F5F5F5F5F5F5F5F5F5F5F5F5F5F5F5F5F5F5F5F5F5F5F5F5F5F5F5F5F5F5F5F5F5F5F5F5F5F5F5F5F5F5F5F5F5F5F5F5F5F5F5F5F5F5F5F5F5F5F5F5F5F5F5F5F5F5F5F5F5F5F5F5F5F5F5F5F5F5F5F5F5F5F5F5F5F5F5F5F5F5F5F5F5F5F5F5F5F5F5F5F5F5F5F5F5F5F5F5F5
310
F5F5F5F5F5F5F5F5F5F5F5F5F5E2EFE2F5F5F5F5F5F5F5F5F5F5F5F5F5F5F5F5F5F5F5F5F5F5F5F5F5F5F5F5F5F5F5F5F5F5F5F5F5F5F5F5F5F5F5F5F5F5F5F5F5F5F5F5F5F5F5F5F5F5F5F5F5F5F5F5F5F5F5F5F5F5F5F5F5F5F5F5F5F5F5F5F5F5F5F5F5F5F5F5F5F5F5F5F5F5F5F5F5F5F5F5F5F5F5F5F5F5F5F5F5F5F5
310
F5F5F5F5F5F5F5F5F5F5F5F5F5F5F5F5F5F5F5F5F5F5F5F5F5F5F5F5F5F5F5F5F5F5F5F5F5F5F5F5F5F5F5F5F5F5F5F5F5F5F5F5F5F5F5F5E2E2F5F5F5F5F5F5F5F5E2EFE2F5F5F5F5F5F5F5F5F5F5F5F5F5F5F5F5F5F5F5F5F5F5F5F5F5F5F5F5F5F5F5F5F5F5F5F5F5F5F5F5F5F5F5F5F5F5F5F5F5F5F5F5F5F5F5F5F5F5
310
F5F5F5F5F5F5F5F5F5F5F5F5F5F5F5F5F5F5F5F5F5F5F5F5F5F5F5F5F5F5F5F5F5F5F5F5F5F5F5F5F5F5F5F5F5F5F5F5F5F5F5F5F5F5F5F5F5F5F5F5F5F5F5F5F5F5F5F5F5F5F5F5F5F5F5F5F5F5F5F5F5F5F5F5F5F5F5F5F5F5F5F5F5F5F5F5F5F5F5F5F5F5F5F5F5F5F5F5F5E2E2F5F5F5F5F5F5F5F5E2EFE2F5F5F5F5F5
310
F5F5F5F5F5F5F5F5F5F5F5F5F5F5F5F5F5F5F5F5F5F5F5F5F5F5F5F5F5F5F5F5F5F5F5F5F5F5F5F5F5F5F5F5F5F5F5F5F5F5F5F5F5F5F5F5F5F5F5F5F5F5F5F5F5F5F5F5F5F5F5F5F5F5F5F5F5F5F5F5F5F5F5F5F5F5F5F5F5F5F5F5F5F5F5F5F5F5F5F5F5F5F5F5F5F5F5F5F5F5F5F5F5F5F5F5F5F5F5F5F5F5F5F5F5F5F5
310
F5F5F5F5F5F5F5F5F5F5F5F5F5F5F5F5F5F5F5F5F5F5F5F5F5F5F5F5F5F5F5F5F5F5F5F5E2F5F5F5F5F5F5F5F5E2EFE2F5F5F5F5F5F5F5F5F5F5F5F5F5F5F5F5F5F5F5F5F5F5F5F5F5F5F5F5F5F5F5F5F5F5F5F5F5F5F5F5F5F5F5F5F5F5F5F5F5F5F5F5F5F5F5F5F5F5F5F5F5F5F5F5F5F5F5F5F5F5F5F5F5F5F5F5F5F5F5
310
F5F5F5F5F5F5F5F5F5F5F5F5F5F5F5F5F5F5F5F5F5F5F5F5F5F5F5F5F5F5F5F5F5F5F5F5F5F5F5F5F5F5F5F5F5F5F5F5F5F5F5F5F5F5F5F5F5F5F5F5F5F5F5F5F5F5F5F5F5F5F5F5F5F5F5F5F5F5F5F5F5F5F5F5E2E2F5E2E2E2E2E2F5F5F5F5F5F5E2EFE2F5F5F5F5F5F5F5F5F5F5F5F5F5F5F5F5F5F5F5F5F5F5F5F5F5F5
310
F5F5F5F5F5F5F5F5F5F5F5F5F5F5F5F5F5F5F5F5F5F5F5F5F5F5F5F5F5F5F5F5F5F5F5F5F5F5F5F5F5F5F5F5F5F5F5F5F5F5F5F5F5F5F5F5F5F5F5F5F5F5F5F5F5F5F5F5F5F5F5F5F5F5F5F5F5F5F5F5F5F5F5F5F5F5F5F5F5F5F5F5F5F5F5F5F5F5F5F5F5F5F5F5F5F5F5F5F5F5F5F5F5F5F5F5F5F5F5F5F5F5F5F5F5F5F5
310
F5F5F5F5F5F5F5F5F5F5E2E2E2E2E2E2E2E2E2E2F5F5F5F5E2EFE2F5E2F5F5F5F5F5F5F5F5F5F5F5F5F5F5F5F5F5F5F5F5F5F5F5F5F5F5F5F5F5F5F5F5F5F5F5F5F5F5F5F5F5F5F5F5F5F5F5F5F5F5F5F5F5F5F5F5F5F5F5F5F5F5F5F5F5F5F5F5F5F5F5F5F5F5F5F5F5F5F5F5F5F5F5F5F5F5F5F5F5F5F5F5F5F5F5F5F5F5
310
F5F5F5F5F5F5F5F5F5F5F5F5F5F5F5F5F5F5F5F5F5F5F5F5F5F5F5F5F5F5F5F5F5F5F5F5F5F5F5F5F5F5F5F5F5F5F5F5F5F5F5F5F5F5F5F5F5F5F5F5F5F5F5E2E2E2E2E2E2E2E2E2E2F5F5E2F5E2EFE2F5E2F5F5F5F5F5F5F5F5F5F5F5F5F5F5F5F5F5F5F5F5F5F5F5F5F5F5F5F5F5F5F5F5F5F5F5F5F5F5F5F5F5F5F5F5F5
310
F5F5F5F5F5F5F5F5F5F5F5F5F5F5F5F5F5F5F5F5F5F5F5F5F5F5F5F5F5F5F5F5F5F5F5F5F5F5F5F5F5F5F5F5F5F5F5F5F5F5F5F5F5F5F5F5F5F5F5F5F5F5F5F5F5F5F5F5F5F5F5F5F5F5F5F5F5F5F5F5F5F5F5F5F5F5F5F5F5F5F5F5F5F5F5F5F5F5F5F5F5F5F5F5F5F5F5F5F5F5F5F5F5F5F5F5F5F5E2E2E2E2E2E2F5F5F5
310
F5E2F5E2EFE2F5E2F5F5F5F5F5F5F5F5F5F5F5F5F5F5F5F5F5F5F5F5F5F5F5F5F5F5F5F5F5F5F5F5F5F5F5F5F5F5F5F5F5F5F5F5F5F5F5F5F5F5F5F5F5F5F5F5F5F5F5F5F5F5F5F5F5F5F5F5F5F5F5F5F5F5F5F5F5F5F5F5F5F5F5F5F5F5F5F5F5F5F5F5F5F5F5F5F5F5F5F5F5F5F5F5F5F5F5F5F5F5F5F5F5F5F5F5F5F5F5
310
F5F5F5F5F5F5F5F5F5F5F5F5F5F5F5F5F5F5F5F5F5F5F5F5F5F5F5F5F5F5F5F5F5F5F5F5F5F5F5F5F5F5F5F5F5E2E2E2E2E2F5F5F5F5E2F5E2EFE2F5E2F5F5F5F5F5F5F5F5F5F5F5F5F5F5F5F5F5F5F5F5F5F5F5F5F5F5F5F5F5F5F5F5F5F5F5F5F5F5F5F5F5F5F5F5F5F5F5F5F5F5F5F5F5F5F5F5F5F5F5F5F5F5F5F5F5F5
310
F5F5F5F5F5F5F5F5F5F5F5F5F5F5F5F5F5F5F5F5F5F5F5F5F5F5F5F5F5F5F5F5F5F5F5F5F5F5F5F5F5F5F5F5F5F5F5F5F5F5F5F5F5F5F5F5F5F5F5F5F5F5F5F5F5F5F5F5F5F5F5F5F5F5F5F5F5F5F5F5F5F5F5F5F5F5F5F5F5F5F5F5F5F5F5F5F5F5F5E2E2F5F5F5F5F5F5E2F5E2EFE2F5E2F5F5F5F5F5F5F5F5F5F5F5F5F5
310
F5F5F5F5F5F5F5F5F5F5F5F5F5F5F5F5F5F5F5F5F5F5F5F5F5F5F5F5F5F5F5F5F5F5F5F5F5F5F5F5F5F5F5F5F5F5F5F5F5F5F5F5F5F5F5F5F5F5F5F5F5F5F5F5F5F5F5F5F5F5F5F5F5F5F5F5F5F5F5F5F5F5F5F5F5F5F5F5F5F5F5F5F5F5F5F5F5F5F5F5F5F5F5F5F5F5F5F5F5F5F5F5F5F5F5F5F5F5F5F5F5F5F5F5F5F5F5
310
F5F5F5F5F5F5F5F5F5F5F5F5F5F5F5F5F5F5F5F5F5F5F5F5F5F5F5F5F5F5F5F5F5E2F5E2EFE2F5E2F5F5F5F5F5F5F5F5F5F5F5F5F5F5F5F5F5F5F5F5F5F5F5F5F5F5F5F5F5F5F5F5F5F5F5F5F5F5F5F5F5F5F5F5F5F5F5F5F5F5F5F5F5F5F5F5F5F5F5F5F5F5F5F5F5F5F5F5F5F5F5F5F5F5F5F5F5F5F5F5F5F5F5F5F5F5F5
310
F5F5F5F5F5F5F5F5F5F5F5F5F5F5F5F5F5F5F5F5F5F5F5F5F5F5F5F5F5F5F5F5F5F5F5F5F5F5F5F5F5F5F5F5F5F5F5F5F5F5F5F5F5F5F5F5F5F5F5F5F5F5F5F5F5F5F5F5F5F5F5F5F5F5F5F5F5F5F5F5F5F5F5F5F5F5E2F5E2EFE2F5E2F5F5F5F5F5F5F5F5F5F5F5F5F5F5F5F5F5F5F5F5F5F5F5F5F5F5F5F5F5F5F5F5F5F5
310
F5F5F5F5F5F5F5F5F5F5F5F5F5F5F5F5F5F5F5F5F5F5F5F5F5F5F5F5F5F5F5F5F5F5F5F5F5F5F5F5F5F5F5F5F5F5F5F5F5F5F5F5F5F5F5F5F5F5F5F5F5F5F5F5F5F5F5F5F5F5F5F5F5F5F5F5F5F5F5F5F5F5F5F5F5F5F5F5F5F5F5F5F5F5F5F5F5F5F5F5F5F5F5F5F5F5F5F5F5F5F5F5F5F5F5F5F5F5F5F5F5F5F5F5F5F5F5
310
F5F5F5F5F5F5F5F5F5F5F5F5E2F5E2EFE2F5E2E2E2E2E2E2E2E2F5F5F5F5F5F5F5F5F5E2E2E2E2E2E2E2E2E2E2E2E2E2E2E2E2F5F5F5F5F5F5F5F5F5E2E2E2E2E2E2E2E2E2E2E2E2E2E2E2E2F5F5F5F5F5F5F5F5F5E2E2E2E2E2E2E2E2E2E2E2E2E2E2E2E2F5F5F5F5F5F5F5F5F5E2E2E2E2E2E2E2E2E2E2E2E2E2E2E2E2F5
310
F5F5F5F5F5F5F5F5E2E2E2E2E2E2E2E2E2E2E2E2E2E2E2E2F5F5F5F5F5F5F5F5F5E2E2E2E2E2E2E2E2E2E2E2E2E2E2E2E2F5F5F5F5F5F5F5F5F5E2E2E2E2E2E2E2E2F5E2EFE2F5F5F5F5F5F5F5F5F5F5F5F5F5F5F5F5F5F5F5F5F5F5F5F5F5F5F5F5F5F5F5F5F5F5F5F5F5F5F5F5F5F5F5F5F5F5F5F5F5F5F5F5F5F5F5F5F5
310
F5F5F5F5F5F5F5F5F5F5F5F5F5F5F5F5F5F5F5F5F5F5F5F5F5F5F5F5F5F5F5F5F5F5F5F5F5F5F5F5F5F5F5F5F5F5F5F5F5F5F5F5F5F5F5F5F5F5F5F5F5F5F5F5F5F5F5F5F5F5F5F5F5F5F5F5F5F5F5F5F5F5F5F5F5F5F5F5F5F5F5F5F5F5F5F5F5F5F5F5F5F5F5F5F5F5F5F5F5F5F5F5F5F5F5F5F5F5F5F5E2EFE2E2E2E2E2
310
E2E2E2E2E2E2E2E2E2E2E2E2E2E2E2E2E2E2E2E2E2E2E2E2E2E2E2E2E2E2E2E2E2E2E2E2E2E2E2E2E2E2E2E2E2E2E2E2E2E2E2E2E2E2E2E2E2E2E2E2E2E2E2E2E2E2E2E2E2E2E2E2E2E2E2E2E2E2E2E2E2E2E2E2E2E2E2E2E2E2E2E2E2E2E2E2E2E2E2E2E2E2E2E2E2E2E2E2E2E2E2E2E2E2E2E2E2E2E2E2E2E2E2E2E2E2E2
310
E2E2E2E2E2E2E2E2E2E2E2E2E2E2E2E2E2E2E2E2E2E2E2E2E2E2E2E2E2E2E2E2E2E2E2E2E2E2E2E2E2E2E2E2E2E2E2EF
  0
XRECORD
  5
1F52
102
{ACAD_REACTORS
330
1A
102
}
330
1A
100
AcDbXrecord
280
     1
102
MATERIAL
148
0.0
149
0.0
149
0.0
 93
        0
 94
      127
282
     0
 72
     0
 77
     0
171
     0
175
     0
179
     0
273
     0
  0
XRECORD
  5
1C
102
{ACAD_REACTORS
330
1A
102
}
330
1A
100
AcDbXrecord
280
     1
270
     1
271
     1
  0
XRECORD
  5
1B
102
{ACAD_REACTORS
330
1A
102
}
330
1A
100
AcDbXrecord
280
     1
270
     1
271
     1
  0
XRECORD
  5
1F
102
{ACAD_REACTORS
330
1A
102
}
330
1A
100
AcDbXrecord
280
     1
270
     1
271
     1
  0
XRECORD
  5
1E
102
{ACAD_REACTORS
330
1A
102
}
330
1A
100
AcDbXrecord
280
     1
270
     1
271
     1
  0
XRECORD
  5
20
102
{ACAD_REACTORS
330
1A
102
}
330
1A
100
AcDbXrecord
280
     1
270
     1
271
     1
  0
XRECORD
  5
1D
102
{ACAD_REACTORS
330
1A
102
}
330
1A
100
AcDbXrecord
280
     1
270
     1
271
     1
  0
XRECORD
  5
1F51
102
{ACAD_REACTORS
330
12
102
}
330
12
100
AcDbXrecord
280
     1
102
MATERIAL
148
0.0
149
0.0
149
0.0
 93
        0
 94
      127
282
     0
 72
     0
 77
     0
171
     0
175
     0
179
     0
273
     0
  0
XRECORD
  5
14
102
{ACAD_REACTORS
330
12
102
}
330
12
100
AcDbXrecord
280
     1
270
     1
271
     1
  0
XRECORD
  5
13
102
{ACAD_REACTORS
330
12
102
}
330
12
100
AcDbXrecord
280
     1
270
     1
271
     1
  0
XRECORD
  5
17
102
{ACAD_REACTORS
330
12
102
}
330
12
100
AcDbXrecord
280
     1
270
     1
271
     1
  0
XRECORD
  5
16
102
{ACAD_REACTORS
330
12
102
}
330
12
100
AcDbXrecord
280
     1
270
     1
271
     1
  0
XRECORD
  5
18
102
{ACAD_REACTORS
330
12
102
}
330
12
100
AcDbXrecord
280
     1
270
     1
271
     1
  0
XRECORD
  5
15
102
{ACAD_REACTORS
330
12
102
}
330
12
100
AcDbXrecord
280
     1
270
     1
271
     1
  0
XRECORD
  5
1F53
102
{ACAD_REACTORS
330
22
102
}
330
22
100
AcDbXrecord
280
     1
102
MATERIAL
148
0.0
149
0.0
149
0.0
 93
        0
 94
      127
282
     0
 72
     0
 77
     0
171
     0
175
     0
179
     0
273
     0
  0
XRECORD
  5
24
102
{ACAD_REACTORS
330
22
102
}
330
22
100
AcDbXrecord
280
     1
270
     1
271
     1
  0
XRECORD
  5
23
102
{ACAD_REACTORS
330
22
102
}
330
22
100
AcDbXrecord
280
     1
270
     1
271
     1
  0
XRECORD
  5
27
102
{ACAD_REACTORS
330
22
102
}
330
22
100
AcDbXrecord
280
     1
270
     1
271
     1
  0
XRECORD
  5
26
102
{ACAD_REACTORS
330
22
102
}
330
22
100
AcDbXrecord
280
     1
270
     1
271
     1
  0
XRECORD
  5
28
102
{ACAD_REACTORS
330
22
102
}
330
22
100
AcDbXrecord
280
     1
270
     1
271
     1
  0
XRECORD
  5
25
102
{ACAD_REACTORS
330
22
102
}
330
22
100
AcDbXrecord
280
     1
270
     1
271
     1
  0
CELLSTYLEMAP
  5
1FD1
102
{ACAD_REACTORS
330
285
102
}
330
285
100
AcDbCellStyleMap
 90
        3
300
CELLSTYLE
  1
TABLEFORMAT_BEGIN
 90
        5
170
     1
 91
        0
 92
    32768
 62
   257
 93
        1
300
CONTENTFORMAT
  1
CONTENTFORMAT_BEGIN
 90
        0
 91
        0
 92
        4
 93
        0
300

 40
0.0
140
1.0
 94
        5
 62
     0
340
5D
144
0.5
309
CONTENTFORMAT_END
171
     1
301
MARGIN
  1
CELLMARGIN_BEGIN
 40
0.06
 40
0.06
 40
0.06
 40
0.06
 40
0.18
 40
0.18
309
CELLMARGIN_END
 94
        6
 95
        1
302
GRIDFORMAT
  1
GRIDFORMAT_BEGIN
 90
        0
 91
        1
 62
     0
 92
       -2
340
0
 93
        0
 40
0.045
309
GRIDFORMAT_END
 95
        2
302
GRIDFORMAT
  1
GRIDFORMAT_BEGIN
 90
        0
 91
        1
 62
     0
 92
       -2
340
0
 93
        1
 40
0.045
309
GRIDFORMAT_END
 95
        4
302
GRIDFORMAT
  1
GRIDFORMAT_BEGIN
 90
        0
 91
        1
 62
     0
 92
       -2
340
0
 93
        0
 40
0.045
309
GRIDFORMAT_END
 95
        8
302
GRIDFORMAT
  1
GRIDFORMAT_BEGIN
 90
        0
 91
        1
 62
     0
 92
       -2
340
0
 93
        0
 40
0.045
309
GRIDFORMAT_END
 95
       16
302
GRIDFORMAT
  1
GRIDFORMAT_BEGIN
 90
        0
 91
        1
 62
     0
 92
       -2
340
0
 93
        1
 40
0.045
309
GRIDFORMAT_END
 95
       32
302
GRIDFORMAT
  1
GRIDFORMAT_BEGIN
 90
        0
 91
        1
 62
     0
 92
       -2
340
0
 93
        0
 40
0.045
309
GRIDFORMAT_END
309
TABLEFORMAT_END
  1
CELLSTYLE_BEGIN
 90
        1
 91
        1
300
_TITLE
309
CELLSTYLE_END
300
CELLSTYLE
  1
TABLEFORMAT_BEGIN
 90
        5
170
     1
 91
        0
 92
        0
 62
   257
 93
        1
300
CONTENTFORMAT
  1
CONTENTFORMAT_BEGIN
 90
        0
 91
        0
 92
        4
 93
        0
300

 40
0.0
140
1.0
 94
        4
 62
     0
340
5D
144
0.4
309
CONTENTFORMAT_END
171
     1
301
MARGIN
  1
CELLMARGIN_BEGIN
 40
0.06
 40
0.06
 40
0.06
 40
0.06
 40
0.18
 40
0.18
309
CELLMARGIN_END
 94
        6
 95
        1
302
GRIDFORMAT
  1
GRIDFORMAT_BEGIN
 90
        0
 91
        1
 62
     0
 92
       -2
340
0
 93
        0
 40
0.045
309
GRIDFORMAT_END
 95
        2
302
GRIDFORMAT
  1
GRIDFORMAT_BEGIN
 90
        0
 91
        1
 62
     0
 92
       -2
340
0
 93
        1
 40
0.045
309
GRIDFORMAT_END
 95
        4
302
GRIDFORMAT
  1
GRIDFORMAT_BEGIN
 90
        0
 91
        1
 62
     0
 92
       -2
340
0
 93
        0
 40
0.045
309
GRIDFORMAT_END
 95
        8
302
GRIDFORMAT
  1
GRIDFORMAT_BEGIN
 90
        0
 91
        1
 62
     0
 92
       -2
340
0
 93
        0
 40
0.045
309
GRIDFORMAT_END
 95
       16
302
GRIDFORMAT
  1
GRIDFORMAT_BEGIN
 90
        0
 91
        1
 62
     0
 92
       -2
340
0
 93
        1
 40
0.045
309
GRIDFORMAT_END
 95
       32
302
GRIDFORMAT
  1
GRIDFORMAT_BEGIN
 90
        0
 91
        1
 62
     0
 92
       -2
340
0
 93
        0
 40
0.045
309
GRIDFORMAT_END
309
TABLEFORMAT_END
  1
CELLSTYLE_BEGIN
 90
        2
 91
        1
300
_HEADER
309
CELLSTYLE_END
300
CELLSTYLE
  1
TABLEFORMAT_BEGIN
 90
        5
170
     1
 91
        0
 92
        0
 62
   257
 93
        1
300
CONTENTFORMAT
  1
CONTENTFORMAT_BEGIN
 90
        0
 91
        0
 92
        4
 93
        0
300

 40
0.0
140
1.0
 94
        4
 62
     0
340
5D
144
0.4
309
CONTENTFORMAT_END
171
     1
301
MARGIN
  1
CELLMARGIN_BEGIN
 40
0.06
 40
0.06
 40
0.06
 40
0.06
 40
0.18
 40
0.18
309
CELLMARGIN_END
 94
        6
 95
        1
302
GRIDFORMAT
  1
GRIDFORMAT_BEGIN
 90
        0
 91
        1
 62
     0
 92
       -2
340
0
 93
        1
 40
0.045
309
GRIDFORMAT_END
 95
        2
302
GRIDFORMAT
  1
GRIDFORMAT_BEGIN
 90
        0
 91
        1
 62
     0
 92
       -2
340
0
 93
        1
 40
0.045
309
GRIDFORMAT_END
 95
        4
302
GRIDFORMAT
  1
GRIDFORMAT_BEGIN
 90
        0
 91
        1
 62
     0
 92
       -2
340
0
 93
        0
 40
0.045
309
GRIDFORMAT_END
 95
        8
302
GRIDFORMAT
  1
GRIDFORMAT_BEGIN
 90
        0
 91
        1
 62
     0
 92
       -2
340
0
 93
        0
 40
0.045
309
GRIDFORMAT_END
 95
       16
302
GRIDFORMAT
  1
GRIDFORMAT_BEGIN
 90
        0
 91
        1
 62
     0
 92
       -2
340
0
 93
        1
 40
0.045
309
GRIDFORMAT_END
 95
       32
302
GRIDFORMAT
  1
GRIDFORMAT_BEGIN
 90
        0
 91
        1
 62
     0
 92
       -2
340
0
 93
        0
 40
0.045
309
GRIDFORMAT_END
309
TABLEFORMAT_END
  1
CELLSTYLE_BEGIN
 90
        3
 91
        2
300
_DATA
309
CELLSTYLE_END
  0
XRECORD
  5
2026
102
{ACAD_REACTORS
330
285
102
}
330
285
100
AcDbXrecord
280
     1
102
ACAD_ROUNDTRIP_PRE2007_TABLESTYLE
 90
        4
 91
        0
  1

 92
        4
 93
        0
  2

 94
        4
 95
        0
  3

  0
CELLSTYLEMAP
  5
1FD2
102
{ACAD_REACTORS
330
287
102
}
330
287
100
AcDbCellStyleMap
 90
        3
300
CELLSTYLE
  1
TABLEFORMAT_BEGIN
 90
        5
170
     1
 91
        0
 92
    32768
 62
   257
 93
        1
300
CONTENTFORMAT
  1
CONTENTFORMAT_BEGIN
 90
        0
 91
        0
 92
        4
 93
        0
300

 40
0.0
140
1.0
 94
        5
 62
     0
340
5D
144
0.25
309
CONTENTFORMAT_END
171
     1
301
MARGIN
  1
CELLMARGIN_BEGIN
 40
0.06
 40
0.06
 40
0.06
 40
0.06
 40
0.18
 40
0.18
309
CELLMARGIN_END
 94
        6
 95
        1
302
GRIDFORMAT
  1
GRIDFORMAT_BEGIN
 90
        0
 91
        1
 62
     0
 92
       -2
340
0
 93
        0
 40
0.045
309
GRIDFORMAT_END
 95
        2
302
GRIDFORMAT
  1
GRIDFORMAT_BEGIN
 90
        0
 91
        1
 62
     0
 92
       -2
340
0
 93
        0
 40
0.045
309
GRIDFORMAT_END
 95
        4
302
GRIDFORMAT
  1
GRIDFORMAT_BEGIN
 90
        0
 91
        1
 62
     0
 92
       -2
340
0
 93
        0
 40
0.045
309
GRIDFORMAT_END
 95
        8
302
GRIDFORMAT
  1
GRIDFORMAT_BEGIN
 90
        0
 91
        1
 62
     0
 92
       -2
340
0
 93
        0
 40
0.045
309
GRIDFORMAT_END
 95
       16
302
GRIDFORMAT
  1
GRIDFORMAT_BEGIN
 90
        0
 91
        1
 62
     0
 92
       -2
340
0
 93
        0
 40
0.045
309
GRIDFORMAT_END
 95
       32
302
GRIDFORMAT
  1
GRIDFORMAT_BEGIN
 90
        0
 91
        1
 62
     0
 92
       -2
340
0
 93
        0
 40
0.045
309
GRIDFORMAT_END
309
TABLEFORMAT_END
  1
CELLSTYLE_BEGIN
 90
        1
 91
        1
300
_TITLE
309
CELLSTYLE_END
300
CELLSTYLE
  1
TABLEFORMAT_BEGIN
 90
        5
170
     1
 91
        0
 92
        0
 62
    64
 93
        1
300
CONTENTFORMAT
  1
CONTENTFORMAT_BEGIN
 90
        0
 91
        0
 92
        4
 93
        0
300

 40
0.0
140
1.0
 94
        5
 62
     0
340
80
144
3.5
309
CONTENTFORMAT_END
171
     1
301
MARGIN
  1
CELLMARGIN_BEGIN
 40
0.06
 40
0.06
 40
0.06
 40
0.06
 40
0.18
 40
0.18
309
CELLMARGIN_END
 94
        6
 95
        1
302
GRIDFORMAT
  1
GRIDFORMAT_BEGIN
 90
        0
 91
        1
 62
     0
 92
       -2
340
0
 93
        0
 40
0.045
309
GRIDFORMAT_END
 95
        2
302
GRIDFORMAT
  1
GRIDFORMAT_BEGIN
 90
        0
 91
        1
 62
     0
 92
       -2
340
0
 93
        0
 40
0.045
309
GRIDFORMAT_END
 95
        4
302
GRIDFORMAT
  1
GRIDFORMAT_BEGIN
 90
        0
 91
        1
 62
     0
 92
       -2
340
0
 93
        0
 40
0.045
309
GRIDFORMAT_END
 95
        8
302
GRIDFORMAT
  1
GRIDFORMAT_BEGIN
 90
        0
 91
        1
 62
     0
 92
       -2
340
0
 93
        0
 40
0.045
309
GRIDFORMAT_END
 95
       16
302
GRIDFORMAT
  1
GRIDFORMAT_BEGIN
 90
        0
 91
        1
 62
     0
 92
       -2
340
0
 93
        0
 40
0.045
309
GRIDFORMAT_END
 95
       32
302
GRIDFORMAT
  1
GRIDFORMAT_BEGIN
 90
        0
 91
        1
 62
     0
 92
       -2
340
0
 93
        0
 40
0.045
309
GRIDFORMAT_END
309
TABLEFORMAT_END
  1
CELLSTYLE_BEGIN
 90
        2
 91
        1
300
_HEADER
309
CELLSTYLE_END
300
CELLSTYLE
  1
TABLEFORMAT_BEGIN
 90
        5
170
     1
 91
        0
 92
        0
 62
    64
 93
        1
300
CONTENTFORMAT
  1
CONTENTFORMAT_BEGIN
 90
        0
 91
        0
 92
        4
 93
        0
300

 40
0.0
140
1.0
 94
        5
 62
     0
340
80
144
3.5
309
CONTENTFORMAT_END
171
     1
301
MARGIN
  1
CELLMARGIN_BEGIN
 40
0.06
 40
0.06
 40
0.06
 40
0.06
 40
0.18
 40
0.18
309
CELLMARGIN_END
 94
        6
 95
        1
302
GRIDFORMAT
  1
GRIDFORMAT_BEGIN
 90
        0
 91
        1
 62
     0
 92
       -2
340
0
 93
        0
 40
0.045
309
GRIDFORMAT_END
 95
        2
302
GRIDFORMAT
  1
GRIDFORMAT_BEGIN
 90
        0
 91
        1
 62
     0
 92
       -2
340
0
 93
        0
 40
0.045
309
GRIDFORMAT_END
 95
        4
302
GRIDFORMAT
  1
GRIDFORMAT_BEGIN
 90
        0
 91
        1
 62
     0
 92
       -2
340
0
 93
        0
 40
0.045
309
GRIDFORMAT_END
 95
        8
302
GRIDFORMAT
  1
GRIDFORMAT_BEGIN
 90
        0
 91
        1
 62
     0
 92
       -2
340
0
 93
        0
 40
0.045
309
GRIDFORMAT_END
 95
       16
302
GRIDFORMAT
  1
GRIDFORMAT_BEGIN
 90
        0
 91
        1
 62
     0
 92
       -2
340
0
 93
        0
 40
0.045
309
GRIDFORMAT_END
 95
       32
302
GRIDFORMAT
  1
GRIDFORMAT_BEGIN
 90
        0
 91
        1
 62
     0
 92
       -2
340
0
 93
        0
 40
0.045
309
GRIDFORMAT_END
309
TABLEFORMAT_END
  1
CELLSTYLE_BEGIN
 90
        3
 91
        2
300
_DATA
309
CELLSTYLE_END
  0
XRECORD
  5
2027
102
{ACAD_REACTORS
330
287
102
}
330
287
100
AcDbXrecord
280
     1
102
ACAD_ROUNDTRIP_PRE2007_TABLESTYLE
 90
        4
 91
        0
  1

 92
        4
 93
        0
  2

 94
        4
 95
        0
  3

  0
CELLSTYLEMAP
  5
1FCF
102
{ACAD_REACTORS
330
314
102
}
330
314
100
AcDbCellStyleMap
 90
        3
300
CELLSTYLE
  1
TABLEFORMAT_BEGIN
 90
        5
170
     1
 91
        0
 92
    32768
 62
   257
 93
        1
300
CONTENTFORMAT
  1
CONTENTFORMAT_BEGIN
 90
        0
 91
        0
 92
      512
 93
        0
300

 40
0.0
140
1.0
 94
        5
 62
     0
340
5D
144
6.0
309
CONTENTFORMAT_END
171
     1
301
MARGIN
  1
CELLMARGIN_BEGIN
 40
1.5
 40
1.5
 40
1.5
 40
1.5
 40
0.18
 40
0.18
309
CELLMARGIN_END
 94
        6
 95
        1
302
GRIDFORMAT
  1
GRIDFORMAT_BEGIN
 90
        0
 91
        1
 62
     0
 92
       -2
340
0
 93
        0
 40
1.125
309
GRIDFORMAT_END
 95
        2
302
GRIDFORMAT
  1
GRIDFORMAT_BEGIN
 90
        0
 91
        1
 62
     0
 92
       -2
340
0
 93
        0
 40
1.125
309
GRIDFORMAT_END
 95
        4
302
GRIDFORMAT
  1
GRIDFORMAT_BEGIN
 90
        0
 91
        1
 62
     0
 92
       -2
340
0
 93
        0
 40
1.125
309
GRIDFORMAT_END
 95
        8
302
GRIDFORMAT
  1
GRIDFORMAT_BEGIN
 90
        0
 91
        1
 62
     0
 92
       -2
340
0
 93
        0
 40
1.125
309
GRIDFORMAT_END
 95
       16
302
GRIDFORMAT
  1
GRIDFORMAT_BEGIN
 90
        0
 91
        1
 62
     0
 92
       -2
340
0
 93
        0
 40
1.125
309
GRIDFORMAT_END
 95
       32
302
GRIDFORMAT
  1
GRIDFORMAT_BEGIN
 90
        0
 91
        1
 62
     0
 92
       -2
340
0
 93
        0
 40
1.125
309
GRIDFORMAT_END
309
TABLEFORMAT_END
  1
CELLSTYLE_BEGIN
 90
        1
 91
        1
300
_TITLE
309
CELLSTYLE_END
300
CELLSTYLE
  1
TABLEFORMAT_BEGIN
 90
        5
170
     1
 91
        0
 92
        0
 62
   257
 93
        1
300
CONTENTFORMAT
  1
CONTENTFORMAT_BEGIN
 90
        0
 91
        0
 92
      512
 93
        0
300

 40
0.0
140
1.0
 94
        5
 62
     0
340
5D
144
4.5
309
CONTENTFORMAT_END
171
     1
301
MARGIN
  1
CELLMARGIN_BEGIN
 40
1.5
 40
1.5
 40
1.5
 40
1.5
 40
0.18
 40
0.18
309
CELLMARGIN_END
 94
        6
 95
        1
302
GRIDFORMAT
  1
GRIDFORMAT_BEGIN
 90
        0
 91
        1
 62
     0
 92
       -2
340
0
 93
        0
 40
1.125
309
GRIDFORMAT_END
 95
        2
302
GRIDFORMAT
  1
GRIDFORMAT_BEGIN
 90
        0
 91
        1
 62
     0
 92
       -2
340
0
 93
        0
 40
1.125
309
GRIDFORMAT_END
 95
        4
302
GRIDFORMAT
  1
GRIDFORMAT_BEGIN
 90
        0
 91
        1
 62
     0
 92
       -2
340
0
 93
        0
 40
1.125
309
GRIDFORMAT_END
 95
        8
302
GRIDFORMAT
  1
GRIDFORMAT_BEGIN
 90
        0
 91
        1
 62
     0
 92
       -2
340
0
 93
        0
 40
1.125
309
GRIDFORMAT_END
 95
       16
302
GRIDFORMAT
  1
GRIDFORMAT_BEGIN
 90
        0
 91
        1
 62
     0
 92
       -2
340
0
 93
        0
 40
1.125
309
GRIDFORMAT_END
 95
       32
302
GRIDFORMAT
  1
GRIDFORMAT_BEGIN
 90
        0
 91
        1
 62
     0
 92
       -2
340
0
 93
        0
 40
1.125
309
GRIDFORMAT_END
309
TABLEFORMAT_END
  1
CELLSTYLE_BEGIN
 90
        2
 91
        1
300
_HEADER
309
CELLSTYLE_END
300
CELLSTYLE
  1
TABLEFORMAT_BEGIN
 90
        5
170
     1
 91
        0
 92
        0
 62
   257
 93
        1
300
CONTENTFORMAT
  1
CONTENTFORMAT_BEGIN
 90
        0
 91
        0
 92
      512
 93
        0
300

 40
0.0
140
1.0
 94
        2
 62
     0
340
5D
144
4.5
309
CONTENTFORMAT_END
171
     1
301
MARGIN
  1
CELLMARGIN_BEGIN
 40
1.5
 40
1.5
 40
1.5
 40
1.5
 40
0.18
 40
0.18
309
CELLMARGIN_END
 94
        6
 95
        1
302
GRIDFORMAT
  1
GRIDFORMAT_BEGIN
 90
        0
 91
        1
 62
     0
 92
       -2
340
0
 93
        0
 40
1.125
309
GRIDFORMAT_END
 95
        2
302
GRIDFORMAT
  1
GRIDFORMAT_BEGIN
 90
        0
 91
        1
 62
     0
 92
       -2
340
0
 93
        0
 40
1.125
309
GRIDFORMAT_END
 95
        4
302
GRIDFORMAT
  1
GRIDFORMAT_BEGIN
 90
        0
 91
        1
 62
     0
 92
       -2
340
0
 93
        0
 40
1.125
309
GRIDFORMAT_END
 95
        8
302
GRIDFORMAT
  1
GRIDFORMAT_BEGIN
 90
        0
 91
        1
 62
     0
 92
       -2
340
0
 93
        0
 40
1.125
309
GRIDFORMAT_END
 95
       16
302
GRIDFORMAT
  1
GRIDFORMAT_BEGIN
 90
        0
 91
        1
 62
     0
 92
       -2
340
0
 93
        0
 40
1.125
309
GRIDFORMAT_END
 95
       32
302
GRIDFORMAT
  1
GRIDFORMAT_BEGIN
 90
        0
 91
        1
 62
     0
 92
       -2
340
0
 93
        0
 40
1.125
309
GRIDFORMAT_END
309
TABLEFORMAT_END
  1
CELLSTYLE_BEGIN
 90
        3
 91
        2
300
_DATA
309
CELLSTYLE_END
  0
XRECORD
  5
2021
102
{ACAD_REACTORS
330
314
102
}
330
314
100
AcDbXrecord
280
     1
102
ACAD_ROUNDTRIP_PRE2007_TABLESTYLE
 90
      512
 91
        0
  1

 92
      512
 93
        0
  2

 94
      512
 95
        0
  3

  0
ACAD_PROXY_OBJECT
  5
3A5
102
{ACAD_XDICTIONARY
360
3A9
102
}
102
{ACAD_REACTORS
330
3A4
102
}
330
3A4
100
AcDbProxyObject
 90
      499
 91
      737
 95
  1703963
 70
     0
 93
      387
310
4050140502404FFFFFFFFFFFFEF7FA034050143508018401CC019400800190019401B0008001B4018401C0018402B7802C
330
3A4
360
3A8
 94
        0
  0
ACAD_PROXY_OBJECT
  5
3A6
102
{ACAD_REACTORS
330
3A4
102
}
330
3A4
100
AcDbProxyObject
 90
      499
 91
      738
 95
  1703963
 70
     0
 93
      243
310
405014059242D4001BC01C800800190019401980194018C01D001BC02E802C
 94
        0
1001
AcMapDMDisplayStyleRegapp
1070
     2
1071
        1
1000
Por defecto
1000

  0
DICTIONARY
  5
3A9
330
3A5
100
AcDbDictionary
280
     1
281
     1
  3
AcMapDMSurrogateStyleSets
360
3AA
  0
ACAD_PROXY_OBJECT
  5
3A8
330
3A5
100
AcDbProxyObject
 90
      499
 91
      739
 95
  1703963
 70
     0
 93
       12
310
404C
340
3A6
330
3A4
 94
        0
  0
ACAD_PROXY_OBJECT
  5
3AA
102
{ACAD_REACTORS
330
3A9
102
}
330
3A9
100
AcDbProxyObject
 90
      499
 91
      740
 95
  1703963
 70
     0
 93
      345
310
405013FFFFFFFFFFFFBDFE80D0190D42006100730065002000640065006C0020006D00610070006100DA00CC
330
3A8
 94
        0
  0
ENDSEC
  0
EOF
