  0
SECTION
  2
HEADER
  9
$ACADVER
  1
AC1015
  9
$ACADMAINTVER
 70
    13
  9
$DWGCODEPAGE
  3
ANSI_1252
  9
$INSBASE
 10
0.0
 20
0.0
 30
0.0
  9
$EXTMIN
 10
56.76297944736202
 20
65.42457647066502
 30
-0.0000000000000058
  9
$EXTMAX
 10
67.26817968442171
 20
80.28377556687408
 30
0.0000000000000104
  9
$LIMMIN
 10
0.0
 20
0.0
  9
$LIMMAX
 10
12.0
 20
9.0
  9
$ORTHOMODE
 70
     0
  9
$REGENMODE
 70
     1
  9
$FILLMODE
 70
     1
  9
$QTEXTMODE
 70
     0
  9
$MIRRTEXT
 70
     1
  9
$LTSCALE
 40
1.0
  9
$ATTMODE
 70
     1
  9
$TEXTSIZE
 40
0.0
  9
$TRACEWID
 40
0.05
  9
$TEXTSTYLE
  7
STANDARD
  9
$CLAYER
  8
0
  9
$CELTYPE
  6
CONTINUOUS
  9
$CECOLOR
 62
   256
  9
$CELTSCALE
 40
1.0
  9
$DISPSILH
 70
     0
  9
$DIMSCALE
 40
1.0
  9
$DIMASZ
 40
0.18
  9
$DIMEXO
 40
0.0625
  9
$DIMDLI
 40
0.38
  9
$DIMRND
 40
0.0
  9
$DIMDLE
 40
0.0
  9
$DIMEXE
 40
0.18
  9
$DIMTP
 40
0.0
  9
$DIMTM
 40
0.0
  9
$DIMTXT
 40
0.18
  9
$DIMCEN
 40
0.09
  9
$DIMTSZ
 40
0.0
  9
$DIMTOL
 70
     0
  9
$DIMLIM
 70
     0
  9
$DIMTIH
 70
     1
  9
$DIMTOH
 70
     1
  9
$DIMSE1
 70
     0
  9
$DIMSE2
 70
     0
  9
$DIMTAD
 70
     0
  9
$DIMZIN
 70
     0
  9
$DIMBLK
  1

  9
$DIMASO
 70
     1
  9
$DIMSHO
 70
     1
  9
$DIMPOST
  1

  9
$DIMAPOST
  1

  9
$DIMALT
 70
     0
  9
$DIMALTD
 70
     2
  9
$DIMALTF
 40
25.4
  9
$DIMLFAC
 40
1.0
  9
$DIMTOFL
 70
     0
  9
$DIMTVP
 40
0.0
  9
$DIMTIX
 70
     0
  9
$DIMSOXD
 70
     0
  9
$DIMSAH
 70
     0
  9
$DIMBLK1
  1

  9
$DIMBLK2
  1

  9
$DIMSTYLE
  2
STANDARD
  9
$DIMCLRD
 70
     0
  9
$DIMCLRE
 70
     0
  9
$DIMCLRT
 70
     0
  9
$DIMTFAC
 40
1.0
  9
$DIMGAP
 40
0.09
  9
$DIMJUST
 70
     0
  9
$DIMSD1
 70
     0
  9
$DIMSD2
 70
     0
  9
$DIMTOLJ
 70
     1
  9
$DIMTZIN
 70
     0
  9
$DIMALTZ
 70
     0
  9
$DIMALTTZ
 70
     0
  9
$DIMUPT
 70
     0
  9
$DIMDEC
 70
     2
  9
$DIMTDEC
 70
     2
  9
$DIMALTU
 70
     2
  9
$DIMALTTD
 70
     2
  9
$DIMTXSTY
  7
STANDARD
  9
$DIMAUNIT
 70
     0
  9
$DIMADEC
 70
     0
  9
$DIMALTRND
 40
0.0
  9
$DIMAZIN
 70
     0
  9
$DIMDSEP
 70
    46
  9
$DIMATFIT
 70
     3
  9
$DIMFRAC
 70
     0
  9
$DIMLDRBLK
  1

  9
$DIMLUNIT
 70
     2
  9
$DIMLWD
 70
    -2
  9
$DIMLWE
 70
    -2
  9
$DIMTMOVE
 70
     0
  9
$LUNITS
 70
     2
  9
$LUPREC
 70
     4
  9
$SKETCHINC
 40
0.1
  9
$FILLETRAD
 40
0.0
  9
$AUNITS
 70
     0
  9
$AUPREC
 70
     0
  9
$MENU
  1
acad
  9
$ELEVATION
 40
0.0
  9
$PELEVATION
 40
0.0
  9
$THICKNESS
 40
0.0
  9
$LIMCHECK
 70
     0
  9
$CHAMFERA
 40
0.0
  9
$CHAMFERB
 40
0.0
  9
$CHAMFERC
 40
0.0
  9
$CHAMFERD
 40
0.0
  9
$SKPOLY
 70
     0
  9
$TDCREATE
 40
2453159.387303240
  9
$TDUCREATE
 40
2453159.303969907
  9
$TDUPDATE
 40
2453508.673120543
  9
$TDUUPDATE
 40
2453508.589787210
  9
$TDINDWG
 40
0.1921100926
  9
$TDUSRTIMER
 40
0.1921043056
  9
$USRTIMER
 70
     1
  9
$ANGBASE
 50
0.0
  9
$ANGDIR
 70
     0
  9
$PDMODE
 70
     0
  9
$PDSIZE
 40
0.0
  9
$PLINEWID
 40
0.0
  9
$SPLFRAME
 70
     0
  9
$SPLINETYPE
 70
     6
  9
$SPLINESEGS
 70
    10
  9
$HANDSEED
  5
3A7
  9
$SURFTAB1
 70
     6
  9
$SURFTAB2
 70
     6
  9
$SURFTYPE
 70
     6
  9
$SURFU
 70
     6
  9
$SURFV
 70
     6
  9
$UCSBASE
  2

  9
$UCSNAME
  2

  9
$UCSORG
 10
0.0
 20
0.0
 30
0.0
  9
$UCSXDIR
 10
1.0
 20
0.0
 30
0.0
  9
$UCSYDIR
 10
0.0
 20
1.0
 30
0.0
  9
$UCSORTHOREF
  2

  9
$UCSORTHOVIEW
 70
     0
  9
$UCSORGTOP
 10
0.0
 20
0.0
 30
0.0
  9
$UCSORGBOTTOM
 10
0.0
 20
0.0
 30
0.0
  9
$UCSORGLEFT
 10
0.0
 20
0.0
 30
0.0
  9
$UCSORGRIGHT
 10
0.0
 20
0.0
 30
0.0
  9
$UCSORGFRONT
 10
0.0
 20
0.0
 30
0.0
  9
$UCSORGBACK
 10
0.0
 20
0.0
 30
0.0
  9
$PUCSBASE
  2

  9
$PUCSNAME
  2

  9
$PUCSORG
 10
0.0
 20
0.0
 30
0.0
  9
$PUCSXDIR
 10
1.0
 20
0.0
 30
0.0
  9
$PUCSYDIR
 10
0.0
 20
1.0
 30
0.0
  9
$PUCSORTHOREF
  2

  9
$PUCSORTHOVIEW
 70
     0
  9
$PUCSORGTOP
 10
0.0
 20
0.0
 30
0.0
  9
$PUCSORGBOTTOM
 10
0.0
 20
0.0
 30
0.0
  9
$PUCSORGLEFT
 10
0.0
 20
0.0
 30
0.0
  9
$PUCSORGRIGHT
 10
0.0
 20
0.0
 30
0.0
  9
$PUCSORGFRONT
 10
0.0
 20
0.0
 30
0.0
  9
$PUCSORGBACK
 10
0.0
 20
0.0
 30
0.0
  9
$USERI1
 70
     0
  9
$USERI2
 70
     0
  9
$USERI3
 70
     0
  9
$USERI4
 70
     0
  9
$USERI5
 70
     0
  9
$USERR1
 40
0.0
  9
$USERR2
 40
0.0
  9
$USERR3
 40
0.0
  9
$USERR4
 40
0.0
  9
$USERR5
 40
0.0
  9
$WORLDVIEW
 70
     1
  9
$SHADEDGE
 70
     3
  9
$SHADEDIF
 70
    70
  9
$TILEMODE
 70
     1
  9
$MAXACTVP
 70
    16
  9
$PINSBASE
 10
0.0
 20
0.0
 30
0.0
  9
$PLIMCHECK
 70
     0
  9
$PEXTMIN
 10
-1.000000000000000E+20
 20
-1.000000000000000E+20
 30
-1.000000000000000E+20
  9
$PEXTMAX
 10
-1.000000000000000E+20
 20
-1.000000000000000E+20
 30
-1.000000000000000E+20
  9
$PLIMMIN
 10
0.0
 20
0.0
  9
$PLIMMAX
 10
12.0
 20
9.0
  9
$UNITMODE
 70
     0
  9
$VISRETAIN
 70
     0
  9
$PLINEGEN
 70
     1
  9
$PSLTSCALE
 70
     0
  9
$TREEDEPTH
 70
  3020
  9
$CMLSTYLE
  2
STANDARD
  9
$CMLJUST
 70
     0
  9
$CMLSCALE
 40
1.0
  9
$PROXYGRAPHICS
 70
     1
  9
$MEASUREMENT
 70
     0
  9
$CELWEIGHT
370
    -1
  9
$ENDCAPS
280
     0
  9
$JOINSTYLE
280
     0
  9
$LWDISPLAY
290
     0
  9
$INSUNITS
 70
     0
  9
$HYPERLINKBASE
  1

  9
$STYLESHEET
  1

  9
$XEDIT
290
     1
  9
$CEPSNTYPE
380
     0
  9
$PSTYLEMODE
290
     1
  9
$FINGERPRINTGUID
  2
{C38F90E7-431A-4019-AEF5-660638003C7E}
  9
$VERSIONGUID
  2
{38CA1FD3-3619-4167-A0A8-55E033741DB1}
  9
$EXTNAMES
290
     1
  9
$PSVPSCALE
 40
0.0
  9
$OLESTARTUP
290
     0
  0
ENDSEC
  0
SECTION
  2
CLASSES
  0
CLASS
  1
LWPOLYLINE
  2
AcDbPolyline
  3
AutoCAD 2000
 90
    32768
280
     0
281
     1
  0
CLASS
  1
IMAGE
  2
AcDbRasterImage
  3
ISM
 90
    32895
280
     0
281
     1
  0
CLASS
  1
OLE2FRAME
  2
AcDbOle2Frame
  3
AutoCAD 2000
 90
    32768
280
     0
281
     1
  0
CLASS
  1
HATCH
  2
AcDbHatch
  3
AutoCAD 2000
 90
    32768
280
     0
281
     1
  0
CLASS
  1
DICTIONARYVAR
  2
AcDbDictionaryVar
  3
AutoCAD 2000
 90
        0
280
     0
281
     0
  0
CLASS
  1
RASTERVARIABLES
  2
AcDbRasterVariables
  3
ISM
 90
    32768
280
     0
281
     0
  0
CLASS
  1
IMAGEDEF
  2
AcDbRasterImageDef
  3
ISM
 90
    32768
280
     0
281
     0
  0
CLASS
  1
IMAGEDEF_REACTOR
  2
AcDbRasterImageDefReactor
  3
ISM
 90
    32769
280
     0
281
     0
  0
CLASS
  1
IDBUFFER
  2
AcDbIdBuffer
  3
AutoCAD 2000
 90
    32768
280
     0
281
     0
  0
CLASS
  1
SPATIAL_FILTER
  2
AcDbSpatialFilter
  3
AutoCAD 2000
 90
    32768
280
     0
281
     0
  0
CLASS
  1
XRECORD
  2
AcDbXrecord
  3
AutoCAD 2000
 90
    32768
280
     0
281
     0
  0
CLASS
  1
ACDBDICTIONARYWDFLT
  2
AcDbDictionaryWithDefault
  3
AutoCAD 2000
 90
        0
280
     0
281
     0
  0
CLASS
  1
ACDBPLACEHOLDER
  2
AcDbPlaceHolder
  3
AutoCAD 2000
 90
        0
280
     0
281
     0
  0
CLASS
  1
LAYOUT
  2
AcDbLayout
  3
AutoCAD 2000
 90
        0
280
     0
281
     0
  0
CLASS
  1
LONG_TRANSACTION
  2
AcDbLongTransaction
  3
AutoCAD 2000
 90
    32768
280
     0
281
     0
  0
CLASS
  1
LWPOLYLINE
  2
AcDbPolyline
  3
AutoCAD 2000
 90
    32768
280
     0
281
     1
  0
CLASS
  1
HATCH
  2
AcDbHatch
  3
AutoCAD 2000
 90
    32768
280
     0
281
     1
  0
CLASS
  1
XRECORD
  2
AcDbXrecord
  3
AutoCAD 2000
 90
    32768
280
     0
281
     0
  0
CLASS
  1
LONG_TRANSACTION
  2
AcDbLongTransaction
  3
AutoCAD 2000
 90
    32768
280
     0
281
     0
  0
CLASS
  1
LWPOLYLINE
  2
AcDbPolyline
  3
AutoCAD 2000
 90
    32768
280
     0
281
     1
  0
CLASS
  1
HATCH
  2
AcDbHatch
  3
AutoCAD 2000
 90
    32768
280
     0
281
     1
  0
CLASS
  1
XRECORD
  2
AcDbXrecord
  3
AutoCAD 2000
 90
    32768
280
     0
281
     0
  0
ENDSEC
  0
SECTION
  2
TABLES
  0
TABLE
  2
VPORT
  5
7
330
0
100
AcDbSymbolTable
 70
     2
  0
VPORT
  5
3A6
330
7
100
AcDbSymbolTableRecord
100
AcDbViewportTableRecord
  2
*Active
 70
     0
 10
0.0
 20
0.0
 11
1.0
 21
1.0
 12
-4.705579324255352
 22
-0.0009239812304713
 13
0.0
 23
0.0
 14
0.0
 24
0.0
 15
0.0
 25
0.0
 16
0.0
 26
0.0
 36
1.0
 17
66.72115889014722
 27
72.85510000000002
 37
0.0
 40
14.98132949973955
 41
1.647462277091906
 42
50.0
 43
74.25
 44
-74.25
 50
0.0
 51
0.0
 71
    22
 72
   100
 73
     1
 74
     0
 75
     0
 76
     0
 77
     0
 78
     0
281
     0
 65
     1
110
0.0
120
0.0
130
0.0
111
1.0
121
0.0
131
0.0
112
0.0
122
1.0
132
0.0
 79
     0
146
0.0
  0
ENDTAB
  0
TABLE
  2
LTYPE
  5
4
330
0
100
AcDbSymbolTable
 70
     7
  0
LTYPE
  5
11
330
4
100
AcDbSymbolTableRecord
100
AcDbLinetypeTableRecord
  2
BYBLOCK
 70
     0
  3

 72
    65
 73
     0
 40
0.0
  0
LTYPE
  5
12
330
4
100
AcDbSymbolTableRecord
100
AcDbLinetypeTableRecord
  2
BYLAYER
 70
     0
  3

 72
    65
 73
     0
 40
0.0
  0
LTYPE
  5
13
330
4
100
AcDbSymbolTableRecord
100
AcDbLinetypeTableRecord
  2
CONTINUOUS
 70
     0
  3
Solid line
 72
    65
 73
     0
 40
0.0
  0
LTYPE
  5
22
330
4
100
AcDbSymbolTableRecord
100
AcDbLinetypeTableRecord
  2
DOT
 70
     0
  3
. . . . . . . . . . . . . . . . . . . . . . . . . . . . . . . . .
 72
    65
 73
     2
 40
0.25
 49
0.0
 74
     0
 49
-0.25
 74
     0
  0
LTYPE
  5
23
330
4
100
AcDbSymbolTableRecord
100
AcDbLinetypeTableRecord
  2
HIDDEN
 70
     0
  3
__ __ __ __ __ __ __ __ __ __ __ __ __ __ __ __ __ __ __ __ __ 
 72
    65
 73
     2
 40
0.375
 49
0.25
 74
     0
 49
-0.125
 74
     0
  0
LTYPE
  5
24
330
4
100
AcDbSymbolTableRecord
100
AcDbLinetypeTableRecord
  2
DASHED
 70
     0
  3
__ __ __ __ __ __ __ __ __ __ __ __ __ __ __ __ __ __ __ __ __
 72
    65
 73
     2
 40
0.75
 49
0.5
 74
     0
 49
-0.25
 74
     0
  0
LTYPE
  5
25
330
4
100
AcDbSymbolTableRecord
100
AcDbLinetypeTableRecord
  2
DASHDOT
 70
     0
  3
__ . __ . __ . __ . __ . __ . __ . __ . __ . __ . __ . __ . _
 72
    65
 73
     4
 40
1.0
 49
0.5
 74
     0
 49
-0.25
 74
     0
 49
0.0
 74
     0
 49
-0.25
 74
     0
  0
LTYPE
  5
26
330
4
100
AcDbSymbolTableRecord
100
AcDbLinetypeTableRecord
  2
DIVIDE
 70
     0
  3
____ . . ____ . . ____ . . ____ . . ____ . . ____ . . ____ . .
 72
    65
 73
     6
 40
1.25
 49
0.5
 74
     0
 49
-0.25
 74
     0
 49
0.0
 74
     0
 49
-0.25
 74
     0
 49
0.0
 74
     0
 49
-0.25
 74
     0
  0
LTYPE
  5
27
330
4
100
AcDbSymbolTableRecord
100
AcDbLinetypeTableRecord
  2
CENTER
 70
     0
  3
____ _ ____ _ ____ _ ____ _ ____ _ ____ _ ____ _ ____ _ ____ _
 72
    65
 73
     4
 40
2.0
 49
1.25
 74
     0
 49
-0.25
 74
     0
 49
0.25
 74
     0
 49
-0.25
 74
     0
  0
ENDTAB
  0
TABLE
  2
LAYER
  5
2
330
0
100
AcDbSymbolTable
 70
     5
  0
LAYER
  5
14
330
2
100
AcDbSymbolTableRecord
100
AcDbLayerTableRecord
  2
0
 70
     0
 62
     7
  6
CONTINUOUS
370
    -3
390
387
  0
LAYER
  5
1E
330
2
100
AcDbSymbolTableRecord
100
AcDbLayerTableRecord
  2
CONSTRUCTION_CLASS
 70
     0
 62
     7
  6
CONTINUOUS
370
    -3
390
387
  0
LAYER
  5
1F
330
2
100
AcDbSymbolTableRecord
100
AcDbLayerTableRecord
  2
PATTERN_CLASS
 70
     0
 62
     7
  6
CONTINUOUS
370
    -3
390
387
  0
LAYER
  5
B7
330
2
100
AcDbSymbolTableRecord
100
AcDbLayerTableRecord
  2
DEFPOINTS
 70
     0
 62
     7
  6
CONTINUOUS
290
     0
370
    -3
390
387
  0
LAYER
  5
14F
330
2
100
AcDbSymbolTableRecord
100
AcDbLayerTableRecord
  2
CAPA1
 70
     0
 62
     1
  6
CONTINUOUS
370
    -3
390
387
  0
ENDTAB
  0
TABLE
  2
STYLE
  5
3
330
0
100
AcDbSymbolTable
 70
     2
  0
STYLE
  5
17
330
3
100
AcDbSymbolTableRecord
100
AcDbTextStyleTableRecord
  2
STANDARD
 70
     0
 40
0.0
 41
1.0
 50
0.0
 71
     0
 42
0.0
  3
txt
  4

  0
STYLE
  5
28
330
3
100
AcDbSymbolTableRecord
100
AcDbTextStyleTableRecord
  2
ROMANC
 70
     0
 40
0.2
 41
1.0
 50
0.0
 71
     0
 42
0.2
  3
ROMANC
  4

  0
ENDTAB
  0
TABLE
  2
VIEW
  5
5
330
0
100
AcDbSymbolTable
 70
     0
  0
ENDTAB
  0
TABLE
  2
UCS
  5
6
330
0
100
AcDbSymbolTable
 70
     0
  0
ENDTAB
  0
TABLE
  2
APPID
  5
8
330
0
100
AcDbSymbolTable
 70
     1
  0
APPID
  5
16
330
8
100
AcDbSymbolTableRecord
100
AcDbRegAppTableRecord
  2
ACAD
 70
     0
  0
ENDTAB
  0
TABLE
  2
DIMSTYLE
  5
9
330
0
100
AcDbSymbolTable
 70
     1
100
AcDbDimStyleTable
 71
     1
340
18
  0
DIMSTYLE
105
18
102
{ACAD_REACTORS
330
18A
330
199
330
2F9
330
307
330
315
330
38C
102
}
330
9
100
AcDbSymbolTableRecord
100
AcDbDimStyleTableRecord
  2
STANDARD
 70
     0
271
     2
272
     2
340
17
  0
ENDTAB
  0
TABLE
  2
BLOCK_RECORD
  5
1
330
0
100
AcDbSymbolTable
 70
     7
  0
BLOCK_RECORD
  5
A
102
{ACAD_XDICTIONARY
360
96
102
}
330
1
100
AcDbSymbolTableRecord
100
AcDbBlockTableRecord
  2
*MODEL_SPACE
340
388
  0
BLOCK_RECORD
  5
B
102
{ACAD_XDICTIONARY
360
98
102
}
330
1
100
AcDbSymbolTableRecord
100
AcDbBlockTableRecord
  2
*PAPER_SPACE
340
389
  0
BLOCK_RECORD
  5
141
330
1
100
AcDbSymbolTableRecord
100
AcDbBlockTableRecord
  2
A$C6EF73E79
340
0
  0
BLOCK_RECORD
  5
18B
330
1
100
AcDbSymbolTableRecord
100
AcDbBlockTableRecord
  2
*D1
340
0
  0
BLOCK_RECORD
  5
19A
330
1
100
AcDbSymbolTableRecord
100
AcDbBlockTableRecord
  2
*D2
340
0
  0
BLOCK_RECORD
  5
2FA
330
1
100
AcDbSymbolTableRecord
100
AcDbBlockTableRecord
  2
*D3
340
0
  0
BLOCK_RECORD
  5
308
330
1
100
AcDbSymbolTableRecord
100
AcDbBlockTableRecord
  2
*D4
340
0
  0
BLOCK_RECORD
  5
316
330
1
100
AcDbSymbolTableRecord
100
AcDbBlockTableRecord
  2
*D5
340
0
  0
BLOCK_RECORD
  5
38D
330
1
100
AcDbSymbolTableRecord
100
AcDbBlockTableRecord
  2
*D6
340
0
  0
ENDTAB
  0
ENDSEC
  0
SECTION
  2
BLOCKS
  0
BLOCK
  5
D
330
A
100
AcDbEntity
  8
0
100
AcDbBlockBegin
  2
*MODEL_SPACE
 70
     0
 10
0.0
 20
0.0
 30
0.0
  3
*MODEL_SPACE
  1

  0
ENDBLK
  5
E
330
A
100
AcDbEntity
  8
0
100
AcDbBlockEnd
  0
BLOCK
  5
F
330
B
100
AcDbEntity
 67
     1
  8
0
100
AcDbBlockBegin
  2
*PAPER_SPACE
 70
     0
 10
0.0
 20
0.0
 30
0.0
  3
*PAPER_SPACE
  1

  0
ENDBLK
  5
10
330
B
100
AcDbEntity
 67
     1
  8
0
100
AcDbBlockEnd
  0
BLOCK
  5
143
330
141
100
AcDbEntity
  8
0
100
AcDbBlockBegin
  2
A$C6EF73E79
 70
     0
 10
0.0
 20
0.0
 30
0.0
  3
A$C6EF73E79
  1

  0
LINE
  5
142
330
141
100
AcDbEntity
  8
0
  6
Continuous
100
AcDbLine
 10
0.0
 20
0.0
 30
0.0
 11
0.2000000000000028
 21
0.0
 31
0.0
  0
ENDBLK
  5
144
330
141
100
AcDbEntity
  8
0
100
AcDbBlockEnd
  0
BLOCK
  5
197
330
18B
100
AcDbEntity
  8
0
100
AcDbBlockBegin
  2
*D1
 70
     1
 10
0.0
 20
0.0
 30
0.0
  3
*D1
  1

  0
LINE
  5
352
330
18B
100
AcDbEntity
  8
0
  6
Continuous
 62
     0
100
AcDbLine
 10
61.85804474942173
 20
68.04114202085518
 30
0.0
 11
60.80121865901915
 21
68.04114202085518
 31
0.0
  0
LINE
  5
353
330
18B
100
AcDbEntity
  8
0
  6
Continuous
 62
     0
100
AcDbLine
 10
61.85804474942173
 20
68.19114202085518
 30
0.0
 11
60.80121865901915
 21
68.19114202085518
 31
0.0
  0
LINE
  5
354
330
18B
100
AcDbEntity
  8
0
  6
Continuous
 62
     0
100
AcDbLine
 10
60.98121865901915
 20
67.86114202085517
 30
0.0
 11
60.98121865901915
 21
67.68114202085516
 31
0.0
  0
LINE
  5
355
330
18B
100
AcDbEntity
  8
0
  6
Continuous
 62
     0
100
AcDbLine
 10
60.98121865901915
 20
68.37114202085519
 30
0.0
 11
60.98121865901915
 21
68.55114202085518
 31
0.0
  0
LINE
  5
356
330
18B
100
AcDbEntity
  8
0
  6
Continuous
 62
     0
100
AcDbLine
 10
60.98121865901915
 20
68.55114202085518
 30
0.0
 11
61.16121865901915
 21
68.55114202085518
 31
0.0
  0
SOLID
  5
357
330
18B
100
AcDbEntity
  8
0
  6
Continuous
 62
     0
100
AcDbTrace
 10
60.95121865901915
 20
67.86114202085517
 30
0.0
 11
61.01121865901914
 21
67.86114202085517
 31
0.0
 12
60.98121865901915
 22
68.04114202085518
 32
0.0
 13
60.98121865901915
 23
68.04114202085518
 33
0.0
  0
SOLID
  5
358
330
18B
100
AcDbEntity
  8
0
  6
Continuous
 62
     0
100
AcDbTrace
 10
60.95121865901915
 20
68.37114202085519
 30
0.0
 11
61.01121865901914
 21
68.37114202085519
 31
0.0
 12
60.98121865901915
 22
68.19114202085518
 32
0.0
 13
60.98121865901915
 23
68.19114202085518
 33
0.0
  0
MTEXT
  5
359
330
18B
100
AcDbEntity
  8
0
  6
Continuous
 62
     0
100
AcDbMText
 10
61.47621865901914
 20
68.55114202085521
 30
0.0
 40
0.18
 41
0.0
 71
     5
 72
     5
  1
\A1;0.15
 73
     1
 44
1.0
1001
ACAD
1000
MTEXTBEGIN
1070
    73
1070
     1
1070
    44
1040
1.0
1070
    74
1070
     0
1000
MTEXTEND
  0
POINT
  5
35A
330
18B
100
AcDbEntity
  8
DEFPOINTS
  6
Continuous
 62
     0
100
AcDbPoint
 10
61.92054474942174
 20
68.04114202085518
 30
0.0
  0
POINT
  5
35B
330
18B
100
AcDbEntity
  8
DEFPOINTS
  6
Continuous
 62
     0
100
AcDbPoint
 10
61.92054474942174
 20
68.19114202085518
 30
0.0
  0
POINT
  5
35C
330
18B
100
AcDbEntity
  8
DEFPOINTS
  6
Continuous
 62
     0
100
AcDbPoint
 10
60.98121865901915
 20
68.19114202085518
 30
0.0
  0
ENDBLK
  5
198
330
18B
100
AcDbEntity
  8
0
100
AcDbBlockEnd
  0
BLOCK
  5
1A5
330
19A
100
AcDbEntity
  8
0
100
AcDbBlockBegin
  2
*D2
 70
     1
 10
0.0
 20
0.0
 30
0.0
  3
*D2
  1

  0
LINE
  5
348
330
19A
100
AcDbEntity
  8
0
  6
Continuous
 62
     0
100
AcDbLine
 10
62.06111219842135
 20
68.12864202085518
 30
0.0
 11
62.06111219842135
 21
67.65627275679652
 31
0.0
  0
LINE
  5
349
330
19A
100
AcDbEntity
  8
0
  6
Continuous
 62
     0
100
AcDbLine
 10
62.26111219842136
 20
68.12864202085518
 30
0.0
 11
62.26111219842136
 21
67.65627275679652
 31
0.0
  0
LINE
  5
34A
330
19A
100
AcDbEntity
  8
0
  6
Continuous
 62
     0
100
AcDbLine
 10
61.88111219842134
 20
67.83627275679653
 30
0.0
 11
61.70111219842134
 21
67.83627275679653
 31
0.0
  0
LINE
  5
34B
330
19A
100
AcDbEntity
  8
0
  6
Continuous
 62
     0
100
AcDbLine
 10
62.44111219842135
 20
67.83627275679653
 30
0.0
 11
62.62111219842136
 21
67.83627275679653
 31
0.0
  0
SOLID
  5
34C
330
19A
100
AcDbEntity
  8
0
  6
Continuous
 62
     0
100
AcDbTrace
 10
61.88111219842134
 20
67.86627275679653
 30
0.0
 11
61.88111219842134
 21
67.80627275679653
 31
0.0
 12
62.06111219842135
 22
67.83627275679653
 32
0.0
 13
62.06111219842135
 23
67.83627275679653
 33
0.0
  0
SOLID
  5
34D
330
19A
100
AcDbEntity
  8
0
  6
Continuous
 62
     0
100
AcDbTrace
 10
62.44111219842135
 20
67.86627275679653
 30
0.0
 11
62.44111219842135
 21
67.80627275679653
 31
0.0
 12
62.26111219842136
 22
67.83627275679653
 32
0.0
 13
62.26111219842136
 23
67.83627275679653
 33
0.0
  0
MTEXT
  5
34E
330
19A
100
AcDbEntity
  8
0
  6
Continuous
 62
     0
100
AcDbMText
 10
62.95111219842135
 20
67.83627275679653
 30
0.0
 40
0.18
 41
0.0
 71
     5
 72
     5
  1
\A1;0.20
 73
     1
 44
1.0
1001
ACAD
1000
MTEXTBEGIN
1070
    73
1070
     1
1070
    44
1040
1.0
1070
    74
1070
     0
1000
MTEXTEND
  0
POINT
  5
34F
330
19A
100
AcDbEntity
  8
DEFPOINTS
  6
Continuous
 62
     0
100
AcDbPoint
 10
62.06111219842135
 20
68.19114202085518
 30
0.0
  0
POINT
  5
350
330
19A
100
AcDbEntity
  8
DEFPOINTS
  6
Continuous
 62
     0
100
AcDbPoint
 10
62.26111219842136
 20
68.19114202085518
 30
0.0
  0
POINT
  5
351
330
19A
100
AcDbEntity
  8
DEFPOINTS
  6
Continuous
 62
     0
100
AcDbPoint
 10
62.26111219842136
 20
67.83627275679653
 30
0.0
  0
ENDBLK
  5
1A6
330
19A
100
AcDbEntity
  8
0
100
AcDbBlockEnd
  0
BLOCK
  5
305
330
2FA
100
AcDbEntity
  8
0
100
AcDbBlockBegin
  2
*D3
 70
     1
 10
0.0
 20
0.0
 30
0.0
  3
*D3
  1

  0
LINE
  5
33E
330
2FA
100
AcDbEntity
  8
0
  6
Continuous
 62
     0
100
AcDbLine
 10
62.52361219842136
 20
68.19114202085518
 30
0.0
 11
63.27394973956997
 21
68.19114202085518
 31
0.0
  0
LINE
  5
33F
330
2FA
100
AcDbEntity
  8
0
  6
Continuous
 62
     0
100
AcDbLine
 10
62.62361219842645
 20
69.19114202085518
 30
0.0
 11
63.27394973956997
 21
69.19114202085518
 31
0.0
  0
LINE
  5
340
330
2FA
100
AcDbEntity
  8
0
  6
Continuous
 62
     0
100
AcDbLine
 10
63.09394973956997
 20
68.37114202085519
 30
0.0
 11
63.09394973956997
 21
68.51114202085518
 31
0.0
  0
LINE
  5
341
330
2FA
100
AcDbEntity
  8
0
  6
Continuous
 62
     0
100
AcDbLine
 10
63.09394973956997
 20
69.01114202085517
 30
0.0
 11
63.09394973956997
 21
68.87114202085519
 31
0.0
  0
SOLID
  5
342
330
2FA
100
AcDbEntity
  8
0
  6
Continuous
 62
     0
100
AcDbTrace
 10
63.06394973956997
 20
68.37114202085519
 30
0.0
 11
63.12394973956998
 21
68.37114202085519
 31
0.0
 12
63.09394973956997
 22
68.19114202085518
 32
0.0
 13
63.09394973956997
 23
68.19114202085518
 33
0.0
  0
SOLID
  5
343
330
2FA
100
AcDbEntity
  8
0
  6
Continuous
 62
     0
100
AcDbTrace
 10
63.06394973956997
 20
69.01114202085517
 30
0.0
 11
63.12394973956998
 21
69.01114202085517
 31
0.0
 12
63.09394973956997
 22
69.19114202085518
 32
0.0
 13
63.09394973956997
 23
69.19114202085518
 33
0.0
  0
MTEXT
  5
344
330
2FA
100
AcDbEntity
  8
0
  6
Continuous
 62
     0
100
AcDbMText
 10
63.09394973956996
 20
68.69114202085518
 30
0.0
 40
0.18
 41
0.0
 71
     5
 72
     5
  1
\A1;1.00
 73
     1
 44
1.0
1001
ACAD
1000
MTEXTBEGIN
1070
    73
1070
     1
1070
    44
1040
1.0
1070
    74
1070
     0
1000
MTEXTEND
  0
POINT
  5
345
330
2FA
100
AcDbEntity
  8
DEFPOINTS
  6
Continuous
 62
     0
100
AcDbPoint
 10
62.46111219842134
 20
68.19114202085518
 30
0.0
  0
POINT
  5
346
330
2FA
100
AcDbEntity
  8
DEFPOINTS
  6
Continuous
 62
     0
100
AcDbPoint
 10
62.56111219842646
 20
69.19114202085518
 30
0.0
  0
POINT
  5
347
330
2FA
100
AcDbEntity
  8
DEFPOINTS
  6
Continuous
 62
     0
100
AcDbPoint
 10
63.09394973956997
 20
69.19114202085518
 30
0.0
  0
ENDBLK
  5
306
330
2FA
100
AcDbEntity
  8
0
100
AcDbBlockEnd
  0
BLOCK
  5
313
330
308
100
AcDbEntity
  8
0
100
AcDbBlockBegin
  2
*D4
 70
     1
 10
0.0
 20
0.0
 30
0.0
  3
*D4
  1

  0
LINE
  5
334
330
308
100
AcDbEntity
  8
0
  6
Continuous
 62
     0
100
AcDbLine
 10
62.56111219842646
 20
69.25364202085518
 30
0.0
 11
62.56111219842646
 21
70.26295474099168
 31
0.0
  0
LINE
  5
335
330
308
100
AcDbEntity
  8
0
  6
Continuous
 62
     0
100
AcDbLine
 10
61.76111219842645
 20
69.25364202085518
 30
0.0
 11
61.76111219842645
 21
70.26295474099168
 31
0.0
  0
LINE
  5
336
330
308
100
AcDbEntity
  8
0
  6
Continuous
 62
     0
100
AcDbLine
 10
62.74111219842644
 20
70.08295474099167
 30
0.0
 11
62.92111219842645
 21
70.08295474099167
 31
0.0
  0
LINE
  5
337
330
308
100
AcDbEntity
  8
0
  6
Continuous
 62
     0
100
AcDbLine
 10
61.58111219842645
 20
70.08295474099167
 30
0.0
 11
61.40111219842645
 21
70.08295474099167
 31
0.0
  0
SOLID
  5
338
330
308
100
AcDbEntity
  8
0
  6
Continuous
 62
     0
100
AcDbTrace
 10
62.74111219842644
 20
70.11295474099167
 30
0.0
 11
62.74111219842644
 21
70.05295474099167
 31
0.0
 12
62.56111219842646
 22
70.08295474099167
 32
0.0
 13
62.56111219842646
 23
70.08295474099167
 33
0.0
  0
SOLID
  5
339
330
308
100
AcDbEntity
  8
0
  6
Continuous
 62
     0
100
AcDbTrace
 10
61.58111219842645
 20
70.11295474099167
 30
0.0
 11
61.58111219842645
 21
70.05295474099167
 31
0.0
 12
61.76111219842645
 22
70.08295474099167
 32
0.0
 13
61.76111219842645
 23
70.08295474099167
 33
0.0
  0
MTEXT
  5
33A
330
308
100
AcDbEntity
  8
0
  6
Continuous
 62
     0
100
AcDbMText
 10
62.16111219842646
 20
70.08295474099167
 30
0.0
 40
0.18
 41
0.0
 71
     5
 72
     5
  1
\A1;0.80
 73
     1
 44
1.0
1001
ACAD
1000
MTEXTBEGIN
1070
    73
1070
     1
1070
    44
1040
1.0
1070
    74
1070
     0
1000
MTEXTEND
  0
POINT
  5
33B
330
308
100
AcDbEntity
  8
DEFPOINTS
  6
Continuous
 62
     0
100
AcDbPoint
 10
62.56111219842646
 20
69.19114202085518
 30
0.0
  0
POINT
  5
33C
330
308
100
AcDbEntity
  8
DEFPOINTS
  6
Continuous
 62
     0
100
AcDbPoint
 10
61.76111219842645
 20
69.19114202085518
 30
0.0
  0
POINT
  5
33D
330
308
100
AcDbEntity
  8
DEFPOINTS
  6
Continuous
 62
     0
100
AcDbPoint
 10
61.76111219842645
 20
70.08295474099167
 30
0.0
  0
ENDBLK
  5
314
330
308
100
AcDbEntity
  8
0
100
AcDbBlockEnd
  0
BLOCK
  5
321
330
316
100
AcDbEntity
  8
0
100
AcDbBlockBegin
  2
*D5
 70
     1
 10
0.0
 20
0.0
 30
0.0
  3
*D5
  1

  0
LINE
  5
32A
330
316
100
AcDbEntity
  8
0
  6
Continuous
 62
     0
100
AcDbLine
 10
62.09861219842646
 20
69.64114202085517
 30
0.0
 11
60.48027995871199
 21
69.64114202085517
 31
0.0
  0
LINE
  5
32B
330
316
100
AcDbEntity
  8
0
  6
Continuous
 62
     0
100
AcDbLine
 10
62.09861219842135
 20
68.04114202085518
 30
0.0
 11
60.48027995871199
 21
68.04114202085518
 31
0.0
  0
LINE
  5
32C
330
316
100
AcDbEntity
  8
0
  6
Continuous
 62
     0
100
AcDbLine
 10
60.66027995871199
 20
69.46114202085516
 30
0.0
 11
60.66027995871199
 21
69.02114202085518
 31
0.0
  0
LINE
  5
32D
330
316
100
AcDbEntity
  8
0
  6
Continuous
 62
     0
100
AcDbLine
 10
60.66027995871199
 20
68.22114202085518
 30
0.0
 11
60.66027995871199
 21
68.66114202085516
 31
0.0
  0
SOLID
  5
32E
330
316
100
AcDbEntity
  8
0
  6
Continuous
 62
     0
100
AcDbTrace
 10
60.63027995871199
 20
69.46114202085516
 30
0.0
 11
60.69027995871199
 21
69.46114202085516
 31
0.0
 12
60.66027995871199
 22
69.64114202085517
 32
0.0
 13
60.66027995871199
 23
69.64114202085517
 33
0.0
  0
SOLID
  5
32F
330
316
100
AcDbEntity
  8
0
  6
Continuous
 62
     0
100
AcDbTrace
 10
60.63027995871199
 20
68.22114202085518
 30
0.0
 11
60.69027995871199
 21
68.22114202085518
 31
0.0
 12
60.66027995871199
 22
68.04114202085518
 32
0.0
 13
60.66027995871199
 23
68.04114202085518
 33
0.0
  0
MTEXT
  5
330
330
316
100
AcDbEntity
  8
0
  6
Continuous
 62
     0
100
AcDbMText
 10
60.66027995871198
 20
68.84114202085519
 30
0.0
 40
0.18
 41
0.0
 71
     5
 72
     5
  1
\A1;1.60
 73
     1
 44
1.0
1001
ACAD
1000
MTEXTBEGIN
1070
    73
1070
     1
1070
    44
1040
1.0
1070
    74
1070
     0
1000
MTEXTEND
  0
POINT
  5
331
330
316
100
AcDbEntity
  8
DEFPOINTS
  6
Continuous
 62
     0
100
AcDbPoint
 10
62.16111219842646
 20
69.64114202085517
 30
0.0
  0
POINT
  5
332
330
316
100
AcDbEntity
  8
DEFPOINTS
  6
Continuous
 62
     0
100
AcDbPoint
 10
62.16111219842136
 20
68.04114202085518
 30
0.0
  0
POINT
  5
333
330
316
100
AcDbEntity
  8
DEFPOINTS
  6
Continuous
 62
     0
100
AcDbPoint
 10
60.66027995871199
 20
68.04114202085518
 30
0.0
  0
ENDBLK
  5
322
330
316
100
AcDbEntity
  8
0
100
AcDbBlockEnd
  0
BLOCK
  5
398
330
38D
100
AcDbEntity
  8
0
100
AcDbBlockBegin
  2
*D6
 70
     1
 10
0.0
 20
0.0
 30
0.0
  3
*D6
  1

  0
LINE
  5
39A
330
38D
100
AcDbEntity
  8
0
  6
Continuous
 62
     0
370
    -2
100
AcDbLine
 10
61.86111219842135
 20
68.12864202085518
 30
0.0
 11
61.86111219842135
 21
66.97812055664815
 31
0.0
  0
LINE
  5
39B
330
38D
100
AcDbEntity
  8
0
  6
Continuous
 62
     0
370
    -2
100
AcDbLine
 10
62.46111219842134
 20
68.12864202085518
 30
0.0
 11
62.46111219842134
 21
66.97812055664815
 31
0.0
  0
LINE
  5
39C
330
38D
100
AcDbEntity
  8
0
  6
Continuous
 62
     0
370
    -2
100
AcDbLine
 10
62.04111219842134
 20
67.15812055664816
 30
0.0
 11
62.28111219842134
 21
67.15812055664816
 31
0.0
  0
LINE
  5
39D
330
38D
100
AcDbEntity
  8
0
  6
Continuous
 62
     0
370
    -2
100
AcDbLine
 10
62.46111219842134
 20
67.15812055664816
 30
0.0
 11
62.64111219842135
 21
67.15812055664816
 31
0.0
  0
SOLID
  5
39E
330
38D
100
AcDbEntity
  8
0
  6
Continuous
 62
     0
100
AcDbTrace
 10
62.04111219842134
 20
67.18812055664816
 30
0.0
 11
62.04111219842134
 21
67.12812055664816
 31
0.0
 12
61.86111219842135
 22
67.15812055664816
 32
0.0
 13
61.86111219842135
 23
67.15812055664816
 33
0.0
  0
SOLID
  5
39F
330
38D
100
AcDbEntity
  8
0
  6
Continuous
 62
     0
100
AcDbTrace
 10
62.28111219842134
 20
67.18812055664816
 30
0.0
 11
62.28111219842134
 21
67.12812055664816
 31
0.0
 12
62.46111219842134
 22
67.15812055664816
 32
0.0
 13
62.46111219842134
 23
67.15812055664816
 33
0.0
  0
MTEXT
  5
3A0
330
38D
100
AcDbEntity
  8
0
  6
Continuous
 62
     0
100
AcDbMText
 10
62.97111219842134
 20
67.15812055664816
 30
0.0
 40
0.18
 41
0.0
 71
     5
 72
     1
  1
\A1;0.60
 73
     1
 44
1.0
  0
POINT
  5
3A1
330
38D
100
AcDbEntity
  8
DEFPOINTS
  6
Continuous
 62
     0
100
AcDbPoint
 10
61.86111219842135
 20
68.19114202085518
 30
0.0
  0
POINT
  5
3A2
330
38D
100
AcDbEntity
  8
DEFPOINTS
  6
Continuous
 62
     0
100
AcDbPoint
 10
62.46111219842134
 20
68.19114202085518
 30
0.0
  0
POINT
  5
3A3
330
38D
100
AcDbEntity
  8
DEFPOINTS
  6
Continuous
 62
     0
100
AcDbPoint
 10
62.46111219842134
 20
67.15812055664816
 30
0.0
  0
ENDBLK
  5
399
330
38D
100
AcDbEntity
  8
0
100
AcDbBlockEnd
  0
ENDSEC
  0
SECTION
  2
ENTITIES
  0
TEXT
  5
29
330
A
100
AcDbEntity
  8
0
  6
Continuous
 62
     7
100
AcDbText
 10
60.30872654835285
 20
76.19045376820669
 30
0.0
 40
0.3
  1
P = 42 dm
  7
ROMANC
100
AcDbText
  0
TEXT
  5
2A
330
A
100
AcDbEntity
  8
0
  6
Continuous
 62
     7
100
AcDbText
 10
60.31152654835286
 20
76.86395376820669
 30
0.0
 40
0.3
  1
S = 102  dm
  7
ROMANC
100
AcDbText
  0
TEXT
  5
2B
330
A
100
AcDbEntity
  8
0
  6
Continuous
 62
     7
100
AcDbText
 10
60.32222654835284
 20
77.42635376820667
 30
0.0
 40
0.3
  1
ESCALA  1:50
  7
ROMANC
100
AcDbText
  0
TEXT
  5
2C
330
A
100
AcDbEntity
  8
0
  6
Continuous
 62
     7
100
AcDbText
 10
60.32222654835284
 20
77.91205376820667
 30
0.0
 40
0.3
  1
TIPUS   NT102B
  7
ROMANC
100
AcDbText
  0
LINE
  5
2D
330
A
100
AcDbEntity
  8
0
  6
Continuous
 62
     7
100
AcDbLine
 10
56.7651
 20
65.43010000000001
 30
0.0
 11
67.26510000000001
 21
65.43010000000001
 31
0.0
  0
LINE
  5
2E
330
A
100
AcDbEntity
  8
0
  6
Continuous
 62
     7
100
AcDbLine
 10
67.26510000000001
 20
80.2801
 30
0.0
 11
56.7651
 21
80.2801
 31
0.0
  0
LINE
  5
2F
330
A
100
AcDbEntity
  8
0
  6
Continuous
 62
     7
100
AcDbLine
 10
56.7651
 20
80.2801
 30
0.0
 11
56.7651
 21
65.43010000000001
 31
0.0
  0
LINE
  5
30
330
A
100
AcDbEntity
  8
0
  6
Continuous
 62
     7
100
AcDbLine
 10
67.26510000000001
 20
65.43010000000001
 30
0.0
 11
67.26510000000001
 21
80.2801
 31
0.0
  0
TEXT
  5
31
330
A
100
AcDbEntity
  8
0
  6
Continuous
 62
     7
100
AcDbText
 10
63.81942654835285
 20
77.16985376820669
 30
0.0
 40
0.1
  1
2
  7
ROMANC
100
AcDbText
  0
DIMENSION
  5
18A
330
A
100
AcDbEntity
  8
0
  6
Continuous
100
AcDbDimension
  2
*D1
 10
60.98121865901915
 20
68.19114202085518
 30
0.0
 11
61.47621865901914
 21
68.55114202085521
 31
0.0
 70
    32
 71
     5
 42
-1.0
  3
STANDARD
100
AcDbAlignedDimension
 13
61.92054474942174
 23
68.04114202085518
 33
0.0
 14
61.92054474942174
 24
68.19114202085518
 34
0.0
 50
90.0
100
AcDbRotatedDimension
1001
ACAD
1000
DSTYLE
1002
{
1070
    45
1040
0.0
1002
}
  0
DIMENSION
  5
199
330
A
100
AcDbEntity
  8
0
  6
Continuous
100
AcDbDimension
  2
*D2
 10
62.26111219842136
 20
67.83627275679653
 30
0.0
 11
62.95111219842135
 21
67.83627275679653
 31
0.0
 70
    32
 71
     5
 42
-1.0
  3
STANDARD
100
AcDbAlignedDimension
 13
62.06111219842135
 23
68.19114202085518
 33
0.0
 14
62.26111219842136
 24
68.19114202085518
 34
0.0
100
AcDbRotatedDimension
1001
ACAD
1000
DSTYLE
1002
{
1070
    45
1040
0.0
1002
}
  0
LWPOLYLINE
  5
29B
330
A
100
AcDbEntity
  8
0
  6
Continuous
100
AcDbPolyline
 90
        8
 70
   129
 43
0.02
 10
62.26111219842135
 20
68.19114202085518
 10
62.46111219842134
 20
68.19114202085518
 10
62.56111219842646
 20
69.19114202085518
 42
1.124999999999985
 10
61.76111219842645
 20
69.19114202085518
 10
61.86111219842135
 20
68.19114202085518
 10
62.06111219842135
 20
68.19114202085518
 10
62.06111219842135
 20
68.14114202085517
 42
0.9999999999999998
 10
62.26111219842135
 20
68.14114202085517
  0
DIMENSION
  5
2F9
330
A
100
AcDbEntity
  8
0
  6
Continuous
100
AcDbDimension
  2
*D3
 10
63.09394973956997
 20
69.19114202085518
 30
0.0
 11
63.09394973956996
 21
68.69114202085518
 31
0.0
 70
    32
 71
     5
 42
-1.0
  3
STANDARD
100
AcDbAlignedDimension
 13
62.46111219842134
 23
68.19114202085518
 33
0.0
 14
62.56111219842646
 24
69.19114202085518
 34
0.0
 50
90.0
100
AcDbRotatedDimension
  0
DIMENSION
  5
307
330
A
100
AcDbEntity
  8
0
  6
Continuous
100
AcDbDimension
  2
*D4
 10
61.76111219842645
 20
70.08295474099167
 30
0.0
 11
62.16111219842646
 21
70.08295474099167
 31
0.0
 70
    32
 71
     5
 42
-1.0
  3
STANDARD
100
AcDbAlignedDimension
 13
62.56111219842646
 23
69.19114202085518
 33
0.0
 14
61.76111219842645
 24
69.19114202085518
 34
0.0
100
AcDbRotatedDimension
  0
DIMENSION
  5
315
330
A
100
AcDbEntity
  8
0
  6
Continuous
100
AcDbDimension
  2
*D5
 10
60.66027995871199
 20
68.04114202085518
 30
0.0
 11
60.66027995871198
 21
68.84114202085519
 31
0.0
 70
    32
 71
     5
 42
-1.0
  3
STANDARD
100
AcDbAlignedDimension
 13
62.16111219842646
 23
69.64114202085517
 33
0.0
 14
62.16111219842136
 24
68.04114202085518
 34
0.0
 50
90.0
100
AcDbRotatedDimension
  0
DIMENSION
  5
38C
330
A
100
AcDbEntity
  8
0
  6
Continuous
100
AcDbDimension
  2
*D6
 10
62.46111219842134
 20
67.15812055664816
 30
0.0
 11
62.97111219842134
 21
67.15812055664816
 31
0.0
 70
    32
 71
     5
 42
0.6000000000000015
  3
STANDARD
100
AcDbAlignedDimension
 13
61.86111219842135
 23
68.19114202085518
 33
0.0
 14
62.46111219842134
 24
68.19114202085518
 34
0.0
100
AcDbRotatedDimension
  0
ENDSEC
  0
SECTION
  2
OBJECTS
  0
DICTIONARY
  5
19
330
0
100
AcDbDictionary
281
     1
  3
ACAD_GROUP
350
1A
  3
ACAD_LAYOUT
350
6C
  3
ACAD_MLINESTYLE
350
1B
  3
ACAD_PLOTSETTINGS
350
6D
  3
ACAD_PLOTSTYLENAME
350
386
  3
AcDbVariableDictionary
350
3A4
1001
ACAD
1000
TREAT_AS_HARD
1070
     0
  0
DICTIONARY
  5
96
330
A
100
AcDbDictionary
281
     1
  3
ACAD_LAYOUTSELFREF
350
378
1001
ACAD
1000
TREAT_AS_HARD
1070
     1
  0
DICTIONARY
  5
98
330
B
100
AcDbDictionary
281
     1
  3
ACAD_LAYOUTSELFREF
350
379
1001
ACAD
1000
TREAT_AS_HARD
1070
     1
  0
DICTIONARY
  5
1A
102
{ACAD_REACTORS
330
19
102
}
330
19
100
AcDbDictionary
281
     1
  3
GRUP1
350
156
1001
ACAD
1000
TREAT_AS_HARD
1070
     0
  0
DICTIONARY
  5
6C
102
{ACAD_REACTORS
330
19
102
}
330
19
100
AcDbDictionary
281
     1
  3
Model
350
388
  3
Presentación1
350
389
1001
ACAD
1000
TREAT_AS_HARD
1070
     0
  0
DICTIONARY
  5
1B
102
{ACAD_REACTORS
330
19
102
}
330
19
100
AcDbDictionary
281
     1
  3
STANDARD
350
1C
1001
ACAD
1000
TREAT_AS_HARD
1070
     0
  0
DICTIONARY
  5
6D
102
{ACAD_REACTORS
330
19
102
}
330
19
100
AcDbDictionary
281
     1
1001
ACAD
1000
TREAT_AS_HARD
1070
     0
  0
ACDBDICTIONARYWDFLT
  5
386
102
{ACAD_REACTORS
330
19
102
}
330
19
100
AcDbDictionary
281
     1
  3
Normal
350
387
100
AcDbDictionaryWithDefault
340
387
  0
DICTIONARY
  5
3A4
102
{ACAD_REACTORS
330
19
102
}
330
19
100
AcDbDictionary
281
     1
  3
DIMASSOC
350
3A5
  0
XRECORD
  5
378
102
{ACAD_REACTORS
330
96
102
}
330
96
100
AcDbXrecord
280
     1
340
A
  0
XRECORD
  5
379
102
{ACAD_REACTORS
330
98
102
}
330
98
100
AcDbXrecord
280
     1
340
B
  0
GROUP
  5
156
102
{ACAD_REACTORS
330
1A
102
}
330
1A
100
AcDbGroup
300

 70
     0
 71
     1
  0
LAYOUT
  5
388
102
{ACAD_REACTORS
330
6C
102
}
330
6C
100
AcDbPlotSettings
  1

  2
Acrobat PDFWriter
  4

  6

 40
0.0
 41
0.0
 42
0.0
 43
0.0
 44
0.0
 45
0.0
 46
0.0
 47
0.0
 48
0.0
 49
0.0
140
0.0
141
0.0
142
1.0
143
1.0
 70
  1712
 72
     0
 73
     0
 74
     0
  7

 75
     0
147
1.0
148
0.0
149
0.0
100
AcDbLayout
  1
Model
 70
     1
 71
     0
 10
0.0
 20
0.0
 11
12.0
 21
9.0
 12
0.0
 22
0.0
 32
0.0
 14
0.0
 24
0.0
 34
0.0
 15
0.0
 25
0.0
 35
0.0
146
0.0
 13
0.0
 23
0.0
 33
0.0
 16
1.0
 26
0.0
 36
0.0
 17
0.0
 27
1.0
 37
0.0
 76
     0
330
A
  0
LAYOUT
  5
389
102
{ACAD_REACTORS
330
6C
102
}
330
6C
100
AcDbPlotSettings
  1

  2
Acrobat PDFWriter
  4

  6

 40
0.0
 41
0.0
 42
0.0
 43
0.0
 44
0.0
 45
0.0
 46
0.0
 47
0.0
 48
0.0
 49
0.0
140
0.0
141
0.0
142
1.0
143
1.0
 70
   688
 72
     0
 73
     0
 74
     5
  7

 75
    16
147
1.0
148
0.0
149
0.0
100
AcDbLayout
  1
Presentación1
 70
     0
 71
     1
 10
0.0
 20
0.0
 11
12.0
 21
9.0
 12
0.0
 22
0.0
 32
0.0
 14
-1.000000000000000E+20
 24
-1.000000000000000E+20
 34
-1.000000000000000E+20
 15
-1.000000000000000E+20
 25
-1.000000000000000E+20
 35
-1.000000000000000E+20
146
0.0
 13
0.0
 23
0.0
 33
0.0
 16
1.0
 26
0.0
 36
0.0
 17
0.0
 27
1.0
 37
0.0
 76
     0
330
B
  0
MLINESTYLE
  5
1C
102
{ACAD_REACTORS
330
1B
102
}
330
1B
100
AcDbMlineStyle
  2
STANDARD
 70
     0
  3

 62
     0
 51
90.00000000000019
 52
90.00000000000019
 71
     2
 49
0.5
 62
   256
  6
BYLAYER
 49
-0.5
 62
   256
  6
BYLAYER
  0
ACDBPLACEHOLDER
  5
387
102
{ACAD_REACTORS
330
386
102
}
330
386
  0
DICTIONARYVAR
  5
3A5
102
{ACAD_REACTORS
330
3A4
102
}
330
3A4
100
DictionaryVariables
280
     0
  1
1
  0
ENDSEC
  0
EOF
