  0
SECTION
  2
HEADER
  9
$ACADVER
  1
AC1009
  9
$INSBASE
 10
0.0
 20
0.0
 30
0.0
  9
$EXTMIN
 10
320.75387665479178
 20
33.860039127339199
 30
0.0
  9
$EXTMAX
 10
326.0038766547919
 20
41.285039127339182
 30
0.0
  9
$LIMMIN
 10
0.0
 20
0.0
  9
$LIMMAX
 10
410.0
 20
287.0
  9
$ORTHOMODE
 70
     1
  9
$REGENMODE
 70
     1
  9
$FILLMODE
 70
     1
  9
$QTEXTMODE
 70
     0
  9
$MIRRTEXT
 70
     1
  9
$DRAGMODE
 70
     2
  9
$LTSCALE
 40
25.0
  9
$OSMODE
 70
  2183
  9
$ATTMODE
 70
     1
  9
$TEXTSIZE
 40
0.1
  9
$TRACEWID
 40
1.0
  9
$TEXTSTYLE
  7
ROMANC
  9
$CLAYER
  8
GEOMETRIA
  9
$CELTYPE
  6
BYLAYER
  9
$CECOLOR
 62
   256
  9
$DIMSCALE
 40
1.5
  9
$DIMASZ
 40
0.05
  9
$DIMEXO
 40
0.01
  9
$DIMDLI
 40
7.0
  9
$DIMRND
 40
0.0
  9
$DIMDLE
 40
0.0
  9
$DIMEXE
 40
0.01
  9
$DIMTP
 40
0.0
  9
$DIMTM
 40
0.0
  9
$DIMTXT
 40
0.05
  9
$DIMCEN
 40
0.0
  9
$DIMTSZ
 40
0.0
  9
$DIMTOL
 70
     0
  9
$DIMLIM
 70
     0
  9
$DIMTIH
 70
     0
  9
$DIMTOH
 70
     0
  9
$DIMSE1
 70
     0
  9
$DIMSE2
 70
     0
  9
$DIMTAD
 70
     1
  9
$DIMZIN
 70
     0
  9
$DIMBLK
  1
OBLIQUE
  9
$DIMASO
 70
     1
  9
$DIMSHO
 70
     0
  9
$DIMPOST
  1

  9
$DIMAPOST
  1

  9
$DIMALT
 70
     0
  9
$DIMALTD
 70
     2
  9
$DIMALTF
 40
25.399999999999999
  9
$DIMLFAC
 40
1.0
  9
$DIMTOFL
 70
     1
  9
$DIMTVP
 40
0.0
  9
$DIMTIX
 70
     1
  9
$DIMSOXD
 70
     0
  9
$DIMSAH
 70
     0
  9
$DIMBLK1
  1

  9
$DIMBLK2
  1

  9
$DIMSTYLE
  2
MERITXELL
  9
$DIMCLRD
 70
     0
  9
$DIMCLRE
 70
     0
  9
$DIMCLRT
 70
     0
  9
$DIMTFAC
 40
70.0
  9
$DIMGAP
 40
0.025
  9
$LUNITS
 70
     2
  9
$LUPREC
 70
     2
  9
$SKETCHINC
 40
1.0
  9
$FILLETRAD
 40
0.0
  9
$AUNITS
 70
     0
  9
$AUPREC
 70
     0
  9
$MENU
  1
acad
  9
$ELEVATION
 40
0.0
  9
$PELEVATION
 40
0.0
  9
$THICKNESS
 40
0.0
  9
$LIMCHECK
 70
     0
  9
$BLIPMODE
 70
     0
  9
$CHAMFERA
 40
0.0
  9
$CHAMFERB
 40
0.0
  9
$SKPOLY
 70
     0
  9
$TDCREATE
 40
2450927.5036166669
  9
$TDUPDATE
 40
2455296.3653217941
  9
$TDINDWG
 40
0.338347581
  9
$TDUSRTIMER
 40
0.3383399537
  9
$USRTIMER
 70
     1
  9
$ANGBASE
 50
0.0
  9
$ANGDIR
 70
     0
  9
$PDMODE
 70
     0
  9
$PDSIZE
 40
0.0
  9
$PLINEWID
 40
0.02
  9
$COORDS
 70
     1
  9
$SPLFRAME
 70
     0
  9
$SPLINETYPE
 70
     6
  9
$SPLINESEGS
 70
     8
  9
$ATTDIA
 70
     0
  9
$ATTREQ
 70
     1
  9
$HANDLING
 70
     1
  9
$HANDSEED
  5
1C0D
  9
$SURFTAB1
 70
     6
  9
$SURFTAB2
 70
     6
  9
$SURFTYPE
 70
     6
  9
$SURFU
 70
     6
  9
$SURFV
 70
     6
  9
$UCSNAME
  2

  9
$UCSORG
 10
0.0
 20
0.0
 30
0.0
  9
$UCSXDIR
 10
1.0
 20
0.0
 30
0.0
  9
$UCSYDIR
 10
0.0
 20
1.0
 30
0.0
  9
$PUCSNAME
  2

  9
$PUCSORG
 10
0.0
 20
0.0
 30
0.0
  9
$PUCSXDIR
 10
1.0
 20
0.0
 30
0.0
  9
$PUCSYDIR
 10
0.0
 20
1.0
 30
0.0
  9
$USERI1
 70
     0
  9
$USERI2
 70
     0
  9
$USERI3
 70
     0
  9
$USERI4
 70
     0
  9
$USERI5
 70
     0
  9
$USERR1
 40
0.0
  9
$USERR2
 40
0.0
  9
$USERR3
 40
0.0
  9
$USERR4
 40
0.0
  9
$USERR5
 40
0.0
  9
$WORLDVIEW
 70
     1
  9
$SHADEDGE
 70
     3
  9
$SHADEDIF
 70
    70
  9
$TILEMODE
 70
     1
  9
$MAXACTVP
 70
    16
  9
$PLIMCHECK
 70
     0
  9
$PEXTMIN
 10
0.2116081523232864
 20
0.2346387408828896
 30
0.0
  9
$PEXTMAX
 10
15.880144695512589
 20
22.759229921264161
 30
0.0
  9
$PLIMMIN
 10
-0.211260093180138
 20
-0.1911951125826537
  9
$PLIMMAX
 10
16.315405782112059
 20
23.19880559869317
  9
$UNITMODE
 70
     0
  9
$VISRETAIN
 70
     0
  9
$PLINEGEN
 70
     0
  9
$PSLTSCALE
 70
     0
  0
ENDSEC
  0
SECTION
  2
TABLES
  0
TABLE
  2
VPORT
 70
     1
  0
VPORT
  2
*ACTIVE
 70
     0
 10
0.0
 20
0.0
 11
1.0
 21
1.0
 12
322.98335177810912
 22
38.286554891693733
 13
0.0
 23
0.0
 14
1.0
 24
1.0
 15
10.0
 25
10.0
 16
0.0
 26
0.0
 36
1.0
 17
0.0
 27
0.0
 37
0.0
 40
6.964254596470262
 41
1.6121045392022
 42
50.0
 43
0.0
 44
0.0
 50
0.0
 51
0.0
 71
     0
 72
   100
 73
     1
 74
     0
 75
     0
 76
     0
 77
     0
 78
     1
  0
ENDTAB
  0
TABLE
  2
LTYPE
 70
     1
  0
LTYPE
  2
CONTINUOUS
 70
     0
  3
Solid line
 72
    65
 73
     0
 40
0.0
  0
ENDTAB
  0
TABLE
  2
LAYER
 70
     5
  0
LAYER
  2
0
 70
     0
 62
     7
  6
CONTINUOUS
  0
LAYER
  2
GEOMETRIA
 70
     0
 62
     7
  6
CONTINUOUS
  0
LAYER
  2
DEFPOINTS
 70
     0
 62
     7
  6
CONTINUOUS
  0
LAYER
  2
FINESTRA
 70
     0
 62
     7
  6
CONTINUOUS
  0
ENDTAB
  0
TABLE
  2
STYLE
 70
     3
  0
STYLE
  2
STANDARD
 70
     0
 40
0.0
 41
1.0
 50
0.0
 71
     0
 42
0.1
  3
txt
  4

  0
STYLE
  2
ROMANC
 70
     0
 40
0.0
 41
1.0
 50
0.0
 71
     0
 42
0.1
  3
romanc
  4

  0
ENDTAB
  0
TABLE
  2
VIEW
 70
     0
  0
ENDTAB
  0
TABLE
  2
UCS
 70
     0
  0
ENDTAB
  0
TABLE
  2
APPID
 70
     6
  0
APPID
  2
ACAD
 70
     0
  0
APPID
  2
ACADANNOTATIVE
 70
     0
  0
APPID
  2
ACAD_MLEADERVER
 70
     0
  0
APPID
  2
AECCLAND60
 70
     0
  0
APPID
  2
ACAECLAYERSTANDARD
 70
     0
  0
APPID
  2
ACAD_EXEMPT_FROM_CAD_STANDARDS
 70
     0
  0
ENDTAB
  0
TABLE
  2
DIMSTYLE
 70
     3
  0
DIMSTYLE
  2
STANDARD
 70
     0
  3

  4

  5

  6

  7

 40
1.0
 41
0.18
 42
0.0625
 43
0.38
 44
0.18
 45
0.0
 46
0.0
 47
0.0
 48
0.0
140
0.18
141
0.09
142
0.0
143
25.399999999999999
144
1.0
145
0.0
146
1.0
147
0.09
 71
     0
 72
     0
 73
     1
 74
     1
 75
     0
 76
     0
 77
     0
 78
     0
170
     0
171
     2
172
     0
173
     0
174
     0
175
     0
176
     0
177
     0
178
     0
  0
DIMSTYLE
  2
MERITXELL
 70
     0
  3

  4

  5

  6

  7

 40
1.5
 41
0.05
 42
0.01
 43
7.0
 44
0.01
 45
0.0
 46
0.0
 47
0.0
 48
0.0
140
0.05
141
0.1
142
0.0
143
25.399999999999999
144
1.0
145
0.0
146
70.0
147
0.09
 71
     0
 72
     0
 73
     0
 74
     0
 75
     0
 76
     0
 77
     1
 78
     0
170
     0
171
     2
172
     1
173
     0
174
     1
175
     0
176
     0
177
     0
178
     0
  0
ENDTAB
  0
ENDSEC
  0
SECTION
  2
BLOCKS
  0
BLOCK
  8
0
  2
$MODEL_SPACE
 70
     0
 10
0.0
 20
0.0
 30
0.0
  3
$MODEL_SPACE
  1

  0
ENDBLK
  5
1BBB
  8
0
  0
BLOCK
 67
     1
  8
0
  2
$PAPER_SPACE
 70
     0
 10
0.0
 20
0.0
 30
0.0
  3
$PAPER_SPACE
  1

  0
ENDBLK
  5
1BB7
 67
     1
  8
0
  0
BLOCK
  8
0
  2
_OBLIQUE
 70
     0
 10
0.0
 20
0.0
 30
0.0
  3
_OBLIQUE
  1

  0
LINE
  5
11DC
  8
0
 62
     0
 10
-0.5
 20
-0.5
 30
0.0
 11
0.5
 21
0.5
 31
0.0
  0
ENDBLK
  5
11DE
  8
0
  0
BLOCK
  8
0
  2
*D8
 70
     1
 10
0.0
 20
0.0
 30
0.0
  3
*D8
  1

  0
LINE
  5
154F
  8
0
 62
     0
 10
322.89680382747218
 20
37.202463710139547
 30
0.0
 11
322.89680382747218
 21
36.934834101881727
 31
0.0
  0
LINE
  5
1550
  8
0
 62
     0
 10
323.39680382747218
 20
37.187463710139554
 30
0.0
 11
323.39680382747218
 21
36.934834101881727
 31
0.0
  0
LINE
  5
1551
  8
0
 62
     0
 10
322.89680382747218
 20
36.949834101881727
 30
0.0
 11
323.39680382747218
 21
36.949834101881727
 31
0.0
  0
INSERT
  5
1552
  8
0
 62
     0
  2
_OBLIQUE
 10
322.89680382747218
 20
36.949834101881727
 30
0.0
 41
0.075
 42
0.075
 43
0.075
 50
180.0
  0
INSERT
  5
1553
  8
0
 62
     0
  2
_OBLIQUE
 10
323.39680382747218
 20
36.949834101881727
 30
0.0
 41
0.075
 42
0.075
 43
0.075
  0
TEXT
  5
1554
  8
0
 62
     0
 10
323.02180382747213
 20
36.987334101881729
 30
0.0
 40
0.075
  1
0.50
  7
ROMANC
  0
POINT
  5
1555
  8
DEFPOINTS
 62
     0
 10
322.89680382747218
 20
37.217463710139548
 30
0.0
  0
POINT
  5
1556
  8
DEFPOINTS
 62
     0
 10
323.39680382747218
 20
37.202463710139547
 30
0.0
  0
POINT
  5
1557
  8
DEFPOINTS
 62
     0
 10
323.39680382747218
 20
36.949834101881727
 30
0.0
  0
ENDBLK
  5
1536
  8
0
  0
BLOCK
  8
0
  2
*D9
 70
     1
 10
0.0
 20
0.0
 30
0.0
  3
*D9
  1

  0
LINE
  5
1563
  8
0
 62
     0
 10
323.42549829461279
 20
37.236798266542031
 30
0.0
 11
323.66823932305692
 21
37.236798266542031
 31
0.0
  0
LINE
  5
1564
  8
0
 62
     0
 10
323.4268038274721
 20
37.486798266542031
 30
0.0
 11
323.66823932305692
 21
37.486798266542031
 31
0.0
  0
LINE
  5
1565
  8
0
 62
     0
 10
323.65323932305688
 20
37.236798266542031
 30
0.0
 11
323.65323932305688
 21
37.161798266542007
 31
0.0
  0
LINE
  5
1566
  8
0
 62
     0
 10
323.65323932305688
 20
37.486798266542031
 30
0.0
 11
323.65323932305688
 21
37.561798266542027
 31
0.0
  0
LINE
  5
1567
  8
0
 62
     0
 10
323.65323932305688
 20
37.236798266542031
 30
0.0
 11
323.65323932305688
 21
37.486798266542031
 31
0.0
  0
INSERT
  5
1568
  8
0
 62
     0
  2
_OBLIQUE
 10
323.65323932305688
 20
37.236798266542031
 30
0.0
 41
0.075
 42
0.075
 43
0.075
 50
90.0
  0
INSERT
  5
1569
  8
0
 62
     0
  2
_OBLIQUE
 10
323.65323932305688
 20
37.486798266542031
 30
0.0
 41
0.075
 42
0.075
 43
0.075
 50
270.0
  0
TEXT
  5
156A
  8
0
 62
     0
 10
323.61573932305708
 20
37.236798266542067
 30
0.0
 40
0.075
  1
0.25
 50
90.0
  7
ROMANC
  0
POINT
  5
156B
  8
DEFPOINTS
 62
     0
 10
323.41049829461281
 20
37.236798266542031
 30
0.0
  0
POINT
  5
156C
  8
DEFPOINTS
 62
     0
 10
323.41180382747211
 20
37.486798266542031
 30
0.0
  0
POINT
  5
156D
  8
DEFPOINTS
 62
     0
 10
323.65323932305688
 20
37.486798266542031
 30
0.0
  0
ENDBLK
  5
1545
  8
0
  0
ENDSEC
  0
SECTION
  2
ENTITIES
  0
TEXT
  5
2A
  8
0
 10
322.28178164618231
 20
39.88285543647865
 30
0.0
 40
0.15
  1
TIPUS   C6A
  7
ROMANC
  0
TEXT
  5
2D
  8
0
 10
322.28618890435467
 20
38.976344660440937
 30
0.0
 40
0.15
  1
P = 7,1 dm
  7
ROMANC
  0
TEXT
  5
2E
  8
0
 10
322.27534626410431
 20
39.28102110106569
 30
0.0
 40
0.15
  1
S = 6 dm
  7
ROMANC
  0
TEXT
  5
2F
  8
0
 10
322.28178164618231
 20
39.580316101065691
 30
0.0
 40
0.15
  1
ESCALA  1: 2.5
  7
ROMANC
  0
TEXT
  5
30
  8
0
 10
323.55779017791411
 20
39.433979101065681
 30
0.0
 40
0.05
  1
2
  7
ROMANC
  0
POLYLINE
  5
117D
  8
0
 66
     1
 10
0.0
 20
0.0
 30
0.0
 70
     1
  0
VERTEX
  5
1BF8
  8
0
 10
320.75387665479178
 20
33.860039127339199
 30
0.0
  0
VERTEX
  5
1BF9
  8
0
 10
326.0038766547919
 20
33.860039127339199
 30
0.0
  0
VERTEX
  5
1BFA
  8
0
 10
326.0038766547919
 20
41.285039127339182
 30
0.0
  0
VERTEX
  5
1BFB
  8
0
 10
320.75387665479178
 20
41.285039127339182
 30
0.0
  0
SEQEND
  5
1BFC
  8
0
  0
TEXT
  5
1203
  8
0
 10
324.12167026132079
 20
34.27334524047906
 30
0.0
 40
0.15
  1
MERIDIANA
  7
ROMANC
  0
DIMENSION
  5
152A
  8
0
  2
*D8
 10
323.39680382747218
 20
36.949834101881727
 30
0.0
 11
323.14680382747218
 21
37.02483410188173
 31
0.0
 13
322.89680382747218
 23
37.217463710139548
 33
0.0
 14
323.39680382747218
 24
37.202463710139547
 34
0.0
1001
ACAD
1000
DSTYLE
1002
{
1070
   141
1040
0.0
1070
   147
1040
0.025
1002
}
  0
DIMENSION
  5
1537
  8
0
  2
*D9
 10
323.65323932305688
 20
37.486798266542031
 30
0.0
 11
323.57823932305701
 21
37.361798266542081
 31
0.0
 13
323.41049829461281
 23
37.236798266542031
 33
0.0
 14
323.41180382747211
 24
37.486798266542031
 34
0.0
 50
90.0
1001
ACAD
1000
DSTYLE
1002
{
1070
   141
1040
0.0
1070
   147
1040
0.025
1002
}
  0
POLYLINE
  5
1753
  8
GEOMETRIA
 66
     1
 10
0.0
 20
0.0
 30
0.0
 40
0.02
 41
0.02
  0
VERTEX
  5
1BFD
  8
GEOMETRIA
 10
322.89680382747218
 20
37.486798266542031
 30
0.0
  0
VERTEX
  5
1BFE
  8
GEOMETRIA
 10
323.14680382747218
 20
37.236798266542031
 30
0.0
  0
VERTEX
  5
1BFF
  8
GEOMETRIA
 10
323.39680382747218
 20
37.486798266542031
 30
0.0
  0
SEQEND
  5
1C00
  8
GEOMETRIA
  0
VIEWPORT
  5
FCA
 67
     1
  8
0
 10
8.0520728444659611
 20
11.503805243055259
 30
0.0
 40
35.172706323608082
 41
24.746620752529829
 68
     1
 69
     1
1001
ACAD
1000
MVIEW
1002
{
1070
    16
1010
0.0
1020
0.0
1030
0.0
1010
0.0
1020
0.0
1030
1.0
1040
0.0
1040
24.746620752529829
1040
8.0520728444659611
1040
11.503805243055259
1040
50.0
1040
0.0
1040
0.0
1070
     0
1070
   100
1070
     1
1070
     1
1070
     0
1070
     0
1070
     0
1070
     0
1040
0.0
1040
0.0
1040
0.0
1040
10.0
1040
10.0
1040
10.0
1040
10.0
1070
     0
1002
{
1002
}
1002
}
  0
VIEWPORT
  5
FCC
 67
     1
  8
FINESTRA
 10
8.0458764239179423
 20
11.49693433107352
 30
0.0
 40
15.66853654318931
 41
22.524591180381261
 68
     2
 69
     2
1001
ACAD
1000
MVIEW
1002
{
1070
    16
1010
0.0
1020
0.0
1030
0.0
1010
0.0
1020
0.0
1030
1.0
1040
0.0
1040
16.93578284239193
1040
323.97544970150972
1040
37.685829707637652
1040
50.0
1040
0.0
1040
0.0
1070
     0
1070
   100
1070
     1
1070
     0
1070
     0
1070
     0
1070
     0
1070
     1
1040
0.0
1040
0.0
1040
0.0
1040
1.0
1040
1.0
1040
10.0
1040
10.0
1070
     0
1002
{
1002
}
1002
}
  0
ENDSEC
  0
EOF
