  0
SECTION
  2
HEADER
  9
$ACADVER
  1
AC1009
  9
$INSBASE
 10
0.0
 20
0.0
 30
0.0
  9
$EXTMIN
 10
-0.0800756213234433
 20
0.1001045240868308
 30
0.0
  9
$EXTMAX
 10
6.4859603720290631
 20
4.3477451476662283
 30
0.0
  9
$LIMMIN
 10
280.39600000000002
 20
28.896999999999998
  9
$LIMMAX
 10
284.49599999999998
 20
31.867000000000001
  9
$ORTHOMODE
 70
     1
  9
$REGENMODE
 70
     1
  9
$FILLMODE
 70
     1
  9
$QTEXTMODE
 70
     0
  9
$MIRRTEXT
 70
     1
  9
$DRAGMODE
 70
     2
  9
$LTSCALE
 40
1.0
  9
$OSMODE
 70
  2183
  9
$ATTMODE
 70
     1
  9
$TEXTSIZE
 40
0.2
  9
$TRACEWID
 40
0.05
  9
$TEXTSTYLE
  7
STANDARD
  9
$CLAYER
  8
0
  9
$CELTYPE
  6
BYLAYER
  9
$CECOLOR
 62
   256
  9
$DIMSCALE
 40
0.03
  9
$DIMASZ
 40
1.0
  9
$DIMEXO
 40
1.0
  9
$DIMDLI
 40
1.0
  9
$DIMRND
 40
0.0
  9
$DIMDLE
 40
1.0
  9
$DIMEXE
 40
1.0
  9
$DIMTP
 40
0.0
  9
$DIMTM
 40
0.0
  9
$DIMTXT
 40
1.0
  9
$DIMCEN
 40
1.0
  9
$DIMTSZ
 40
0.0
  9
$DIMTOL
 70
     0
  9
$DIMLIM
 70
     0
  9
$DIMTIH
 70
     0
  9
$DIMTOH
 70
     0
  9
$DIMSE1
 70
     0
  9
$DIMSE2
 70
     0
  9
$DIMTAD
 70
     0
  9
$DIMZIN
 70
     0
  9
$DIMBLK
  1
ARCHTICK
  9
$DIMASO
 70
     1
  9
$DIMSHO
 70
     1
  9
$DIMPOST
  1

  9
$DIMAPOST
  1

  9
$DIMALT
 70
     0
  9
$DIMALTD
 70
     2
  9
$DIMALTF
 40
25.399999999999999
  9
$DIMLFAC
 40
1.0
  9
$DIMTOFL
 70
     0
  9
$DIMTVP
 40
0.0
  9
$DIMTIX
 70
     0
  9
$DIMSOXD
 70
     0
  9
$DIMSAH
 70
     0
  9
$DIMBLK1
  1

  9
$DIMBLK2
  1

  9
$DIMSTYLE
  2
ESCALA_1-20__A3_
  9
$DIMCLRD
 70
     0
  9
$DIMCLRE
 70
     0
  9
$DIMCLRT
 70
   256
  9
$DIMTFAC
 40
1.0
  9
$DIMGAP
 40
1.0
  9
$LUNITS
 70
     2
  9
$LUPREC
 70
     4
  9
$SKETCHINC
 40
0.1
  9
$FILLETRAD
 40
0.0
  9
$AUNITS
 70
     0
  9
$AUPREC
 70
     0
  9
$MENU
  1
acad
  9
$ELEVATION
 40
0.0
  9
$PELEVATION
 40
0.0
  9
$THICKNESS
 40
0.0
  9
$LIMCHECK
 70
     0
  9
$BLIPMODE
 70
     0
  9
$CHAMFERA
 40
0.0
  9
$CHAMFERB
 40
0.0
  9
$SKPOLY
 70
     0
  9
$TDCREATE
 40
2448315.373408102
  9
$TDUPDATE
 40
2455296.4555383222
  9
$TDINDWG
 40
0.1780891782
  9
$TDUSRTIMER
 40
0.178088831
  9
$USRTIMER
 70
     1
  9
$ANGBASE
 50
0.0
  9
$ANGDIR
 70
     0
  9
$PDMODE
 70
     0
  9
$PDSIZE
 40
0.0
  9
$PLINEWID
 40
0.02
  9
$COORDS
 70
     1
  9
$SPLFRAME
 70
     0
  9
$SPLINETYPE
 70
     6
  9
$SPLINESEGS
 70
     8
  9
$ATTDIA
 70
     0
  9
$ATTREQ
 70
     1
  9
$HANDLING
 70
     1
  9
$HANDSEED
  5
ADF
  9
$SURFTAB1
 70
     6
  9
$SURFTAB2
 70
     6
  9
$SURFTYPE
 70
     6
  9
$SURFU
 70
     6
  9
$SURFV
 70
     6
  9
$UCSNAME
  2

  9
$UCSORG
 10
0.0
 20
0.0
 30
0.0
  9
$UCSXDIR
 10
1.0
 20
0.0
 30
0.0
  9
$UCSYDIR
 10
0.0
 20
1.0
 30
0.0
  9
$PUCSNAME
  2

  9
$PUCSORG
 10
0.0
 20
0.0
 30
0.0
  9
$PUCSXDIR
 10
1.0
 20
0.0
 30
0.0
  9
$PUCSYDIR
 10
0.0
 20
1.0
 30
0.0
  9
$USERI1
 70
     0
  9
$USERI2
 70
     0
  9
$USERI3
 70
     0
  9
$USERI4
 70
     0
  9
$USERI5
 70
     0
  9
$USERR1
 40
0.0
  9
$USERR2
 40
0.0
  9
$USERR3
 40
0.0
  9
$USERR4
 40
0.0
  9
$USERR5
 40
0.0
  9
$WORLDVIEW
 70
     1
  9
$SHADEDGE
 70
     3
  9
$SHADEDIF
 70
    70
  9
$TILEMODE
 70
     1
  9
$MAXACTVP
 70
    16
  9
$PLIMCHECK
 70
     0
  9
$PEXTMIN
 10
3.906311284102868
 20
-0.1622235011774364
 30
0.0
  9
$PEXTMAX
 10
200.0739721032644
 20
283.0138175335822
 30
0.0
  9
$PLIMMIN
 10
-5.1749999523162842
 20
-8.1749999523162842
  9
$PLIMMAX
 10
204.7348358631134
 20
288.85682988166798
  9
$UNITMODE
 70
     0
  9
$VISRETAIN
 70
     0
  9
$PLINEGEN
 70
     0
  9
$PSLTSCALE
 70
     1
  0
ENDSEC
  0
SECTION
  2
TABLES
  0
TABLE
  2
VPORT
 70
     1
  0
VPORT
  2
*ACTIVE
 70
     0
 10
0.0
 20
0.0
 11
1.0
 21
1.0
 12
1.9151534648215289
 22
2.6247631961462838
 13
0.0
 23
0.0
 14
1.0
 24
1.0
 15
0.0
 25
0.0
 16
0.0
 26
0.0
 36
1.0
 17
0.0
 27
0.0
 37
0.0
 40
8.4663391819467968
 41
1.6121045392022
 42
50.0
 43
0.0
 44
0.0
 50
0.0
 51
0.0
 71
     0
 72
   100
 73
     1
 74
     1
 75
     0
 76
     0
 77
     0
 78
     0
  0
ENDTAB
  0
TABLE
  2
LTYPE
 70
     2
  0
LTYPE
  2
CONTINUOUS
 70
     0
  3
Solid line
 72
    65
 73
     0
 40
0.0
  0
ENDTAB
  0
TABLE
  2
LAYER
 70
     5
  0
LAYER
  2
0
 70
     0
 62
     7
  6
CONTINUOUS
  0
LAYER
  2
GEOMETRIA
 70
     0
 62
     7
  6
CONTINUOUS
  0
LAYER
  2
DEFPOINTS
 70
     0
 62
     7
  6
CONTINUOUS
  0
ENDTAB
  0
TABLE
  2
STYLE
 70
     4
  0
STYLE
  2
STANDARD
 70
     0
 40
0.0
 41
1.0
 50
0.0
 71
     0
 42
0.2
  3
txt
  4

  0
STYLE
  2
ROMANC
 70
     0
 40
0.0
 41
1.0
 50
0.0
 71
     0
 42
0.2
  3
ROMANC
  4

  0
STYLE
  2
ROMANS
 70
     0
 40
0.0
 41
1.0
 50
0.0
 71
     0
 42
2.5
  3
romans.shx
  4

  0
ENDTAB
  0
TABLE
  2
VIEW
 70
     0
  0
ENDTAB
  0
TABLE
  2
UCS
 70
     0
  0
ENDTAB
  0
TABLE
  2
APPID
 70
    10
  0
APPID
  2
ACAD
 70
     0
  0
APPID
  2
ACADANNOTATIVE
 70
     0
  0
APPID
  2
ACAD_MLEADERVER
 70
     0
  0
APPID
  2
ACAD_PSEXT
 70
     0
  0
APPID
  2
RAK
 70
     0
  0
APPID
  2
ACAECLAYERSTANDARD
 70
     0
  0
APPID
  2
ACAD_EXEMPT_FROM_CAD_STANDARDS
 70
     0
  0
APPID
  2
ACLAYERTOOLS
 70
     0
  0
APPID
  2
CONTENTBLOCKICON
 70
     0
  0
APPID
  2
AECCLAND60
 70
     0
  0
ENDTAB
  0
TABLE
  2
DIMSTYLE
 70
     4
  0
DIMSTYLE
  2
STANDARD
 70
     0
  3

  4

  5

  6

  7

 40
1.0
 41
0.18
 42
0.0625
 43
0.38
 44
0.18
 45
0.0
 46
0.0
 47
0.0
 48
0.0
140
0.18
141
0.09
142
0.0
143
25.399999999999999
144
1.0
145
0.0
146
1.0
147
0.09
 71
     0
 72
     0
 73
     1
 74
     1
 75
     0
 76
     0
 77
     0
 78
     0
170
     0
171
     2
172
     0
173
     0
174
     0
175
     0
176
     0
177
     0
178
     0
  0
DIMSTYLE
  2
ESCALA_1-20__A3_
 70
     0
  3

  4

  5

  6

  7

 40
0.03
 41
1.0
 42
1.0
 43
1.0
 44
1.0
 45
0.0
 46
1.0
 47
0.0
 48
0.0
140
1.0
141
1.0
142
0.0
143
25.399999999999999
144
1.0
145
0.0
146
1.0
147
1.0
 71
     0
 72
     0
 73
     0
 74
     0
 75
     0
 76
     0
 77
     0
 78
     0
170
     0
171
     2
172
     0
173
     0
174
     0
175
     0
176
     0
177
     0
178
   256
  0
ENDTAB
  0
ENDSEC
  0
SECTION
  2
BLOCKS
  0
BLOCK
  8
0
  2
$MODEL_SPACE
 70
     0
 10
0.0
 20
0.0
 30
0.0
  3
$MODEL_SPACE
  1

  0
ENDBLK
  5
91A
  8
0
  0
BLOCK
 67
     1
  8
0
  2
$PAPER_SPACE
 70
     0
 10
0.0
 20
0.0
 30
0.0
  3
$PAPER_SPACE
  1

  0
ENDBLK
  5
916
 67
     1
  8
0
  0
BLOCK
  8
0
  2
_ARCHTICK
 70
     0
 10
0.0
 20
0.0
 30
0.0
  3
_ARCHTICK
  1

  0
POLYLINE
  5
5F
  8
0
  6
BYBLOCK
 62
     0
 66
     1
 10
0.0
 20
0.0
 30
0.0
 40
0.15
 41
0.15
  0
VERTEX
  5
AA3
  8
0
  6
BYBLOCK
 62
     0
 10
-0.5
 20
-0.5
 30
0.0
  0
VERTEX
  5
AA4
  8
0
  6
BYBLOCK
 62
     0
 10
0.5
 20
0.5
 30
0.0
  0
SEQEND
  5
AA5
  8
0
  6
BYBLOCK
 62
     0
  0
ENDBLK
  5
60
  8
0
  0
BLOCK
  8
0
  2
*D3
 70
     1
 10
0.0
 20
0.0
 30
0.0
  3
*D3
  1

  0
LINE
  5
7E1
  8
0
 62
     0
 10
0.428742541065062
 20
2.5184999669829731
 30
0.0
 11
0.428742541065062
 21
2.6776324150221722
 31
0.0
  0
LINE
  5
7E2
  8
0
 62
     0
 10
0.7787425410650734
 20
2.5184999669829731
 30
0.0
 11
0.7787425410650734
 21
2.6776324150221722
 31
0.0
  0
LINE
  5
7E3
  8
0
 62
     0
 10
0.398742541065062
 20
2.6476324150221719
 30
0.0
 11
0.5280282553507819
 21
2.6476324150221719
 31
0.0
  0
LINE
  5
7E4
  8
0
 62
     0
 10
0.8087425410650734
 20
2.6476324150221719
 30
0.0
 11
0.6794568267793534
 21
2.6476324150221719
 31
0.0
  0
INSERT
  5
7E5
  8
0
 62
     0
  2
_ARCHTICK
 10
0.428742541065062
 20
2.6476324150221719
 30
0.0
 41
0.03
 42
0.03
 43
0.03
 50
180.0
  0
INSERT
  5
7E6
  8
0
 62
     0
  2
_ARCHTICK
 10
0.7787425410650734
 20
2.6476324150221719
 30
0.0
 41
0.03
 42
0.03
 43
0.03
  0
INSERT
  5
7E7
  8
GEOMETRIA
  2
*U4
 10
0.0
 20
0.0
 30
0.0
  0
POINT
  5
7E8
  8
DEFPOINTS
 62
     0
 10
0.428742541065062
 20
2.488499966982975
 30
0.0
  0
POINT
  5
7E9
  8
DEFPOINTS
 62
     0
 10
0.7787425410650734
 20
2.488499966982975
 30
0.0
  0
POINT
  5
7EA
  8
DEFPOINTS
 62
     0
 10
0.7787425410650734
 20
2.6476324150221719
 30
0.0
  0
ENDBLK
  5
76
  8
0
  0
BLOCK
  8
0
  2
*U4
 70
     1
 10
0.0
 20
0.0
 30
0.0
  3
*U4
  1

  0
TEXT
  5
890
  8
0
 10
0.5537425410650676
 20
2.632632415022174
 30
0.0
 40
0.03
  1
0.35
  7
ROMANS
  0
ENDBLK
  5
892
  8
0
  0
BLOCK
  8
0
  2
*D5
 70
     1
 10
0.0
 20
0.0
 30
0.0
  3
*D5
  1

  0
LINE
  5
7F4
  8
0
 62
     0
 10
2.5787425410650711
 20
2.5184999669829731
 30
0.0
 11
2.5787425410650711
 21
2.6776324150221722
 31
0.0
  0
LINE
  5
7F5
  8
0
 62
     0
 10
2.928742541064969
 20
2.5184999669829731
 30
0.0
 11
2.928742541064969
 21
2.6776324150221722
 31
0.0
  0
LINE
  5
7F6
  8
0
 62
     0
 10
2.5487425410650721
 20
2.6476324150221719
 30
0.0
 11
2.6780282553507351
 21
2.6476324150221719
 31
0.0
  0
LINE
  5
7F7
  8
0
 62
     0
 10
2.9587425410649701
 20
2.6476324150221719
 30
0.0
 11
2.829456826779305
 21
2.6476324150221719
 31
0.0
  0
INSERT
  5
7F8
  8
0
 62
     0
  2
_ARCHTICK
 10
2.5787425410650711
 20
2.6476324150221719
 30
0.0
 41
0.03
 42
0.03
 43
0.03
 50
180.0
  0
INSERT
  5
7F9
  8
0
 62
     0
  2
_ARCHTICK
 10
2.928742541064969
 20
2.6476324150221719
 30
0.0
 41
0.03
 42
0.03
 43
0.03
  0
INSERT
  5
7FA
  8
GEOMETRIA
  2
*U6
 10
0.0
 20
0.0
 30
0.0
  0
POINT
  5
7FB
  8
DEFPOINTS
 62
     0
 10
2.5787425410650711
 20
2.488499966982975
 30
0.0
  0
POINT
  5
7FC
  8
DEFPOINTS
 62
     0
 10
2.928742541064969
 20
2.488499966982975
 30
0.0
  0
POINT
  5
7FD
  8
DEFPOINTS
 62
     0
 10
2.928742541064969
 20
2.6476324150221719
 30
0.0
  0
ENDBLK
  5
B2
  8
0
  0
BLOCK
  8
0
  2
*U6
 70
     1
 10
0.0
 20
0.0
 30
0.0
  3
*U6
  1

  0
TEXT
  5
898
  8
0
 10
2.7037425410650191
 20
2.632632415022174
 30
0.0
 40
0.03
  1
0.35
  7
ROMANS
  0
ENDBLK
  5
89A
  8
0
  0
BLOCK
  8
0
  2
*D7
 70
     1
 10
0.0
 20
0.0
 30
0.0
  3
*D7
  1

  0
LINE
  5
7A5
  8
0
 62
     0
 10
0.7787425410650734
 20
2.5184999669829731
 30
0.0
 11
0.7787425410650734
 21
2.6776324150221722
 31
0.0
  0
LINE
  5
7A6
  8
0
 62
     0
 10
2.578742541065119
 20
2.5184999669829731
 30
0.0
 11
2.578742541065119
 21
2.6776324150221722
 31
0.0
  0
LINE
  5
7A7
  8
0
 62
     0
 10
0.7487425410650733
 20
2.6476324150221719
 30
0.0
 11
1.6051711124936661
 21
2.6476324150221719
 31
0.0
  0
LINE
  5
7A8
  8
0
 62
     0
 10
2.608742541065117
 20
2.6476324150221719
 30
0.0
 11
1.7523139696365231
 21
2.6476324150221719
 31
0.0
  0
INSERT
  5
7A9
  8
0
 62
     0
  2
_ARCHTICK
 10
0.7787425410650734
 20
2.6476324150221719
 30
0.0
 41
0.03
 42
0.03
 43
0.03
 50
180.0
  0
INSERT
  5
7AA
  8
0
 62
     0
  2
_ARCHTICK
 10
2.578742541065119
 20
2.6476324150221719
 30
0.0
 41
0.03
 42
0.03
 43
0.03
  0
INSERT
  5
7AB
  8
GEOMETRIA
  2
*U8
 10
0.0
 20
0.0
 30
0.0
  0
POINT
  5
7AC
  8
DEFPOINTS
 62
     0
 10
0.7787425410650734
 20
2.488499966982975
 30
0.0
  0
POINT
  5
7AD
  8
DEFPOINTS
 62
     0
 10
2.578742541065119
 20
2.488499966982975
 30
0.0
  0
POINT
  5
7AE
  8
DEFPOINTS
 62
     0
 10
2.578742541065119
 20
2.6476324150221719
 30
0.0
  0
ENDBLK
  5
1CE
  8
0
  0
BLOCK
  8
0
  2
*U8
 70
     1
 10
0.0
 20
0.0
 30
0.0
  3
*U8
  1

  0
TEXT
  5
878
  8
0
 10
1.6265996839222381
 20
2.632632415022174
 30
0.0
 40
0.03
  1
1.80
  7
ROMANS
  0
ENDBLK
  5
87A
  8
0
  0
BLOCK
  8
0
  2
*D9
 70
     1
 10
0.0
 20
0.0
 30
0.0
  3
*D9
  1

  0
LINE
  5
79B
  8
0
 62
     0
 10
0.4287425410650735
 20
2.5184999669829731
 30
0.0
 11
0.4287425410650735
 21
2.786462212915767
 31
0.0
  0
LINE
  5
79C
  8
0
 62
     0
 10
2.9287425410651191
 20
2.5184999669829731
 30
0.0
 11
2.9287425410651191
 21
2.786462212915767
 31
0.0
  0
LINE
  5
79D
  8
0
 62
     0
 10
0.3987425410650735
 20
2.7564622129157681
 30
0.0
 11
1.6030282553508111
 21
2.7564622129157681
 31
0.0
  0
LINE
  5
79E
  8
0
 62
     0
 10
2.958742541065118
 20
2.7564622129157681
 30
0.0
 11
1.7544568267793821
 21
2.7564622129157681
 31
0.0
  0
INSERT
  5
79F
  8
0
 62
     0
  2
_ARCHTICK
 10
0.4287425410650735
 20
2.7564622129157681
 30
0.0
 41
0.03
 42
0.03
 43
0.03
 50
180.0
  0
INSERT
  5
7A0
  8
0
 62
     0
  2
_ARCHTICK
 10
2.9287425410651191
 20
2.7564622129157681
 30
0.0
 41
0.03
 42
0.03
 43
0.03
  0
INSERT
  5
7A1
  8
GEOMETRIA
  2
*U10
 10
0.0
 20
0.0
 30
0.0
  0
POINT
  5
7A2
  8
DEFPOINTS
 62
     0
 10
0.4287425410650735
 20
2.488499966982975
 30
0.0
  0
POINT
  5
7A3
  8
DEFPOINTS
 62
     0
 10
2.9287425410651191
 20
2.488499966982975
 30
0.0
  0
POINT
  5
7A4
  8
DEFPOINTS
 62
     0
 10
2.9287425410651191
 20
2.7564622129157681
 30
0.0
  0
ENDBLK
  5
2B1
  8
0
  0
BLOCK
  8
0
  2
*U10
 70
     1
 10
0.0
 20
0.0
 30
0.0
  3
*U10
  1

  0
TEXT
  5
874
  8
0
 10
1.6287425410650951
 20
2.7414622129157671
 30
0.0
 40
0.03
  1
2.50
  7
ROMANS
  0
ENDBLK
  5
876
  8
0
  0
BLOCK
  8
0
  2
*D11
 70
     1
 10
0.0
 20
0.0
 30
0.0
  3
*D11
  1

  0
LINE
  5
7C3
  8
0
 62
     0
 10
0.7588994062320901
 20
2.4659999669829742
 30
0.0
 11
0.6750811726491479
 21
2.3709590235287421
 31
0.0
  0
LINE
  5
7C4
  8
0
 62
     0
 10
1.358899406232112
 20
1.936849704770081
 30
0.0
 11
1.2750811726491691
 21
1.8418087613158489
 31
0.0
  0
LINE
  5
7C5
  8
0
 62
     0
 10
0.6724243074821305
 20
2.4133021583617271
 30
0.0
 11
0.9381385931964258
 21
2.178964185096016
 31
0.0
  0
LINE
  5
7C6
  8
0
 62
     0
 10
1.317424307482153
 20
1.844465626482868
 30
0.0
 11
1.0517100217678581
 21
2.0788035997485759
 31
0.0
  0
INSERT
  5
7C7
  8
0
 62
     0
  2
_ARCHTICK
 10
0.6949243074821313
 20
2.3934590235287421
 30
0.0
 41
0.03
 42
0.03
 43
0.03
 50
138.59037789073159
  0
INSERT
  5
7C8
  8
0
 62
     0
  2
_ARCHTICK
 10
1.294924307482153
 20
1.8643087613158511
 30
0.0
 41
0.03
 42
0.03
 43
0.03
 50
318.5903778907317
  0
INSERT
  5
7C9
  8
GEOMETRIA
  2
*U12
 10
0.0
 20
0.0
 30
0.0
  0
POINT
  5
7CA
  8
DEFPOINTS
 62
     0
 10
0.7787425410650734
 20
2.488499966982975
 30
0.0
  0
POINT
  5
7CB
  8
DEFPOINTS
 62
     0
 10
1.3787425410650951
 20
1.959349704770083
 30
0.0
  0
POINT
  5
7CC
  8
DEFPOINTS
 62
     0
 10
1.294924307482153
 20
1.8643087613158511
 30
0.0
  0
ENDBLK
  5
486
  8
0
  0
BLOCK
  8
0
  2
*U12
 70
     1
 10
0.0
 20
0.0
 30
0.0
  3
*U12
  1

  0
TEXT
  5
884
  8
0
 10
0.9475027400656491
 20
2.1507057838106021
 30
0.0
 40
0.03
  1
0.80
 50
318.5903778907317
  7
ROMANS
  0
ENDBLK
  5
886
  8
0
  0
BLOCK
  8
0
  2
*D13
 70
     1
 10
0.0
 20
0.0
 30
0.0
  3
*D13
  1

  0
LINE
  5
7B9
  8
0
 62
     0
 10
1.3787425410650951
 20
1.9293497047700821
 30
0.0
 11
1.3787425410650951
 21
1.814465626482868
 31
0.0
  0
LINE
  5
7BA
  8
0
 62
     0
 10
1.9787425410650961
 20
1.9293497047700821
 30
0.0
 11
1.9787425410650961
 21
1.814465626482868
 31
0.0
  0
LINE
  5
7BB
  8
0
 62
     0
 10
1.3487425410650951
 20
1.844465626482868
 30
0.0
 11
1.6030282553508091
 21
1.844465626482868
 31
0.0
  0
LINE
  5
7BC
  8
0
 62
     0
 10
2.0087425410650961
 20
1.844465626482868
 30
0.0
 11
1.7544568267793801
 21
1.844465626482868
 31
0.0
  0
INSERT
  5
7BD
  8
0
 62
     0
  2
_ARCHTICK
 10
1.3787425410650951
 20
1.844465626482868
 30
0.0
 41
0.03
 42
0.03
 43
0.03
 50
180.0
  0
INSERT
  5
7BE
  8
0
 62
     0
  2
_ARCHTICK
 10
1.9787425410650961
 20
1.844465626482868
 30
0.0
 41
0.03
 42
0.03
 43
0.03
  0
INSERT
  5
7BF
  8
GEOMETRIA
  2
*U14
 10
0.0
 20
0.0
 30
0.0
  0
POINT
  5
7C0
  8
DEFPOINTS
 62
     0
 10
1.3787425410650951
 20
1.959349704770083
 30
0.0
  0
POINT
  5
7C1
  8
DEFPOINTS
 62
     0
 10
1.9787425410650961
 20
1.959349704770083
 30
0.0
  0
POINT
  5
7C2
  8
DEFPOINTS
 62
     0
 10
1.9787425410650961
 20
1.844465626482868
 30
0.0
  0
ENDBLK
  5
494
  8
0
  0
BLOCK
  8
0
  2
*U14
 70
     1
 10
0.0
 20
0.0
 30
0.0
  3
*U14
  1

  0
TEXT
  5
880
  8
0
 10
1.6287425410650951
 20
1.829465626482869
 30
0.0
 40
0.03
  1
0.60
  7
ROMANS
  0
ENDBLK
  5
882
  8
0
  0
BLOCK
  8
0
  2
*D15
 70
     1
 10
0.0
 20
0.0
 30
0.0
  3
*D15
  1

  0
LINE
  5
7AF
  8
0
 62
     0
 10
1.998585675898078
 20
1.936849704770081
 30
0.0
 11
2.0687021822884839
 21
1.8573450596087799
 31
0.0
  0
LINE
  5
7B0
  8
0
 62
     0
 10
2.598585675898101
 20
2.4659999669829742
 30
0.0
 11
2.668702182288508
 21
2.386495321821672
 31
0.0
  0
LINE
  5
7B1
  8
0
 62
     0
 10
2.0263590474555002
 20
1.8600019247757991
 30
0.0
 11
2.292073333169796
 21
2.0943398980415071
 31
0.0
  0
LINE
  5
7B2
  8
0
 62
     0
 10
2.6713590474555242
 20
2.428838456654657
 30
0.0
 11
2.405644761741228
 21
2.1945004833889481
 31
0.0
  0
INSERT
  5
7B3
  8
0
 62
     0
  2
_ARCHTICK
 10
2.0488590474555002
 20
1.879845059608781
 30
0.0
 41
0.03
 42
0.03
 43
0.03
 50
221.40962210926841
  0
INSERT
  5
7B4
  8
0
 62
     0
  2
_ARCHTICK
 10
2.6488590474555238
 20
2.4089953218216742
 30
0.0
 41
0.03
 42
0.03
 43
0.03
 50
41.409622109268362
  0
INSERT
  5
7B5
  8
GEOMETRIA
  2
*U16
 10
0.0
 20
0.0
 30
0.0
  0
POINT
  5
7B6
  8
DEFPOINTS
 62
     0
 10
1.9787425410650961
 20
1.9593497047700821
 30
0.0
  0
POINT
  5
7B7
  8
DEFPOINTS
 62
     0
 10
2.578742541065119
 20
2.488499966982975
 30
0.0
  0
POINT
  5
7B8
  8
DEFPOINTS
 62
     0
 10
2.6488590474555238
 20
2.4089953218216742
 30
0.0
  0
ENDBLK
  5
4A2
  8
0
  0
BLOCK
  8
0
  2
*U16
 70
     1
 10
0.0
 20
0.0
 30
0.0
  3
*U16
  1

  0
TEXT
  5
87C
  8
0
 10
2.321280614872002
 20
2.100098299326921
 30
0.0
 40
0.03
  1
0.80
 50
41.409622109268362
  7
ROMANS
  0
ENDBLK
  5
87E
  8
0
  0
BLOCK
  8
0
  2
*D17
 70
     1
 10
0.0
 20
0.0
 30
0.0
  3
*D17
  1

  0
LINE
  5
7D7
  8
0
 62
     0
 10
0.808742541065073
 20
2.488499966982975
 30
0.0
 11
0.9615617464327204
 21
2.4884999669829742
 31
0.0
  0
ARC
  5
7D8
  8
0
 62
     0
 10
0.7787425410650732
 20
2.488499966982975
 30
0.0
 40
0.1528192053676472
 50
318.5903778907317
 51
0.0
  0
INSERT
  5
7D9
  8
0
 62
     0
  2
_ARCHTICK
 10
0.893356945090813
 20
2.3874195637436531
 30
0.0
 41
0.03
 42
0.03
 43
0.03
 50
228.5903778907317
  0
INSERT
  5
7DA
  8
0
 62
     0
  2
_ARCHTICK
 10
0.9315617464327203
 20
2.488499966982975
 30
0.0
 41
0.03
 42
0.03
 43
0.03
 50
89.999999999999915
  0
INSERT
  5
7DB
  8
GEOMETRIA
  2
*U18
 10
0.0
 20
0.0
 30
0.0
  0
POINT
  5
7DC
  8
DEFPOINTS
 62
     0
 10
0.9141635402794156
 20
2.417684273093919
 30
0.0
  0
POINT
  5
7DD
  8
DEFPOINTS
 62
     0
 10
0.7787425410650732
 20
2.488499966982975
 30
0.0
  0
POINT
  5
7DE
  8
DEFPOINTS
 62
     0
 10
0.4287425410650736
 20
2.488499966982975
 30
0.0
  0
POINT
  5
7DF
  8
DEFPOINTS
 62
     0
 10
0.7787425410650732
 20
2.488499966982975
 30
0.0
  0
POINT
  5
7E0
  8
DEFPOINTS
 62
     0
 10
1.3787425410650951
 20
1.959349704770083
 30
0.0
  0
ENDBLK
  5
4CE
  8
0
  0
BLOCK
  8
0
  2
*U18
 70
     1
 10
0.0
 20
0.0
 30
0.0
  3
*U18
  1

  0
TEXT
  5
88C
  8
0
 10
1.046999436222666
 20
2.312275243238171
 30
0.0
 40
0.03
  1
41.41°
 50
69.295188945365808
  7
ROMANS
  0
ENDBLK
  5
88E
  8
0
  0
BLOCK
  8
0
  2
*D19
 70
     1
 10
0.0
 20
0.0
 30
0.0
  3
*D19
  1

  0
ARC
  5
7EB
  8
0
 62
     0
 10
1.3787425410650951
 20
1.959349704770083
 30
0.0
 40
0.089961649800972
 50
0.0
 51
138.59037789073159
  0
INSERT
  5
7EC
  8
0
 62
     0
  2
_ARCHTICK
 10
1.4687041908660661
 20
1.959349704770083
 30
0.0
 41
0.03
 42
0.03
 43
0.03
 50
269.99999999999989
  0
INSERT
  5
7ED
  8
0
 62
     0
  2
_ARCHTICK
 10
1.3112713037143631
 20
2.0188537429966931
 30
0.0
 41
0.03
 42
0.03
 43
0.03
 50
228.5903778907317
  0
INSERT
  5
7EE
  8
GEOMETRIA
  2
*U20
 10
0.0
 20
0.0
 30
0.0
  0
POINT
  5
7EF
  8
DEFPOINTS
 62
     0
 10
1.441012517555895
 20
2.024276959931131
 30
0.0
  0
POINT
  5
7F0
  8
DEFPOINTS
 62
     0
 10
1.3787425410650951
 20
1.959349704770083
 30
0.0
  0
POINT
  5
7F1
  8
DEFPOINTS
 62
     0
 10
0.7787425410650732
 20
2.488499966982975
 30
0.0
  0
POINT
  5
7F2
  8
DEFPOINTS
 62
     0
 10
1.3787425410650951
 20
1.959349704770083
 30
0.0
  0
POINT
  5
7F3
  8
DEFPOINTS
 62
     0
 10
1.9787425410650961
 20
1.959349704770083
 30
0.0
  0
ENDBLK
  5
4DB
  8
0
  0
BLOCK
  8
0
  2
*U20
 70
     1
 10
0.0
 20
0.0
 30
0.0
  3
*U20
  1

  0
TEXT
  5
894
  8
0
 10
1.3509154651326769
 20
2.130183097920439
 30
0.0
 40
0.03
  1
138.59°
 50
339.29518894536568
  7
ROMANS
  0
ENDBLK
  5
896
  8
0
  0
BLOCK
  8
0
  2
*D21
 70
     1
 10
0.0
 20
0.0
 30
0.0
  3
*D21
  1

  0
LINE
  5
7CD
  8
0
 62
     0
 10
0.6337425410650736
 20
2.488499966982975
 30
0.0
 11
0.6716040250110056
 21
2.488499966982975
 31
0.0
  0
LINE
  5
7CE
  8
0
 62
     0
 10
1.3487425410650951
 20
1.959349704770083
 30
0.0
 11
0.6116040250110056
 21
1.959349704770083
 31
0.0
  0
LINE
  5
7CF
  8
0
 62
     0
 10
0.6416040250110056
 20
2.5184999669829731
 30
0.0
 11
0.6416040250110056
 21
2.299639121590813
 31
0.0
  0
LINE
  5
7D0
  8
0
 62
     0
 10
0.6416040250110056
 20
1.9293497047700821
 30
0.0
 11
0.6416040250110056
 21
2.148210550162243
 31
0.0
  0
INSERT
  5
7D1
  8
0
 62
     0
  2
_ARCHTICK
 10
0.6416040250110056
 20
2.488499966982975
 30
0.0
 41
0.03
 42
0.03
 43
0.03
 50
90.0
  0
INSERT
  5
7D2
  8
0
 62
     0
  2
_ARCHTICK
 10
0.6416040250110056
 20
1.959349704770083
 30
0.0
 41
0.03
 42
0.03
 43
0.03
 50
270.0
  0
INSERT
  5
7D3
  8
GEOMETRIA
  2
*U22
 10
0.0
 20
0.0
 30
0.0
  0
POINT
  5
7D4
  8
DEFPOINTS
 62
     0
 10
0.6037425410650734
 20
2.488499966982975
 30
0.0
  0
POINT
  5
7D5
  8
DEFPOINTS
 62
     0
 10
1.3787425410650951
 20
1.959349704770083
 30
0.0
  0
POINT
  5
7D6
  8
DEFPOINTS
 62
     0
 10
0.6416040250110056
 20
1.959349704770083
 30
0.0
  0
ENDBLK
  5
50B
  8
0
  0
BLOCK
  8
0
  2
*U22
 70
     1
 10
0.0
 20
0.0
 30
0.0
  3
*U22
  1

  0
TEXT
  5
888
  8
0
 10
0.6566040250110051
 20
2.1739248358765271
 30
0.0
 40
0.03
  1
0.55
 50
90.0
  7
ROMANS
  0
ENDBLK
  5
88A
  8
0
  0
BLOCK
  8
0
  2
*U43
 70
     1
 10
0.0
 20
0.0
 30
0.0
  3
*U43
  1

  0
TEXT
  5
836
  8
0
 10
1.2635178708403021
 20
3.721894111978
 30
0.0
 40
0.06749325
  1
S = 63.5 dm
  7
ROMANC
  0
TEXT
  5
837
  8
0
 10
2.0123715494117311
 20
3.721894111978
 30
0.0
 40
0.06749325
  1
²
  7
ROMANC
  0
ENDBLK
  5
839
  8
0
  0
BLOCK
  8
0
  2
*D45
 70
     1
 10
0.0
 20
0.0
 30
0.0
  3
*D45
  1

  0
LINE
  5
AAD
  8
0
 62
     0
 10
0.8412425410650731
 20
2.4884999669829742
 30
0.0
 11
1.1115617464327201
 21
2.4884999669829742
 31
0.0
  0
ARC
  5
AAE
  8
0
 62
     0
 10
0.7787425410650732
 20
2.488499966982975
 30
0.0
 40
0.1528192053676477
 50
174.2655760132042
 51
246.42797695196791
  0
ARC
  5
AAF
  8
0
 62
     0
 10
0.7787425410650732
 20
2.488499966982975
 30
0.0
 40
0.1528192053676477
 50
72.162400938763639
 51
144.32480187752731
  0
ARC
  5
AB0
  8
0
 62
     0
 10
0.7787425410650732
 20
2.488499966982975
 30
0.0
 40
0.1528192053676477
 50
318.59037789073159
 51
360.0
  0
SOLID
  5
AB1
  8
0
 62
     0
 10
0.7111320266728483
 20
2.3777201252255802
 30
0.0
 11
0.7241277861067083
 21
2.3191444456585679
 31
0.0
 12
0.8933569450908132
 22
2.3874195637436539
 32
0.0
 13
0.8933569450908132
 23
2.3874195637436539
 33
0.0
  0
SOLID
  5
AB2
  8
0
 62
     0
 10
0.8497996229913116
 20
2.6516408728599239
 30
0.0
 11
0.801308633163188
 21
2.616305000074767
 31
0.0
 12
0.9315617464327211
 22
2.488499966982975
 32
0.0
 13
0.9315617464327211
 23
2.488499966982975
 33
0.0
  0
TEXT
  8
0
  40
0.18
  5
ADD
  62
0
  72
0
  71
0
 10
1.36748
 20
1.81131
 30
0.000000
  1
41?
  0
POINT
  5
AB4
  8
DEFPOINTS
 62
     0
 10
0.9141635402794157
 20
2.417684273093919
 30
0.0
  0
POINT
  5
AB5
  8
DEFPOINTS
 62
     0
 10
0.7787425410650732
 20
2.488499966982975
 30
0.0
  0
POINT
  5
AB6
  8
DEFPOINTS
 62
     0
 10
0.4287425410650736
 20
2.488499966982975
 30
0.0
  0
POINT
  5
AB7
  8
DEFPOINTS
 62
     0
 10
0.7787425410650732
 20
2.488499966982975
 30
0.0
  0
POINT
  5
AB8
  8
DEFPOINTS
 62
     0
 10
1.3787425410650951
 20
1.959349704770083
 30
0.0
  0
ENDBLK
  5
AAC
  8
0
  0
BLOCK
  8
0
  2
*D46
 70
     1
 10
0.0
 20
0.0
 30
0.0
  3
*D46
  1

  0
ARC
  5
ABC
  8
0
 62
     0
 10
1.3787425410650951
 20
1.959349704770083
 30
0.0
 40
0.0899616498009719
 50
359.99999999999989
 51
179.99999999999989
  0
ARC
  5
ABD
  8
0
 62
     0
 10
1.3787425410650951
 20
1.959349704770083
 30
0.0
 40
0.0899616498009719
 50
318.5903778907317
 51
138.59037789073159
  0
ARC
  5
ABE
  8
0
 62
     0
 10
1.3787425410650951
 20
1.959349704770083
 30
0.0
 40
0.0899616498009719
 50
360.0
 51
138.59037789073159
  0
SOLID
  5
ABF
  8
0
 62
     0
 10
1.288704190866067
 20
1.989349704770083
 30
0.0
 11
1.288704190866067
 21
1.9293497047700841
 31
0.0
 12
1.468704190866067
 22
1.959349704770083
 32
0.0
 13
1.468704190866067
 23
1.959349704770083
 33
0.0
  0
SOLID
  5
AC0
  8
0
 62
     0
 10
1.4264281688813849
 20
1.8772949339987921
 30
0.0
 11
1.4661144385473519
 21
1.922294933998794
 31
0.0
 12
1.3112713037143631
 22
2.018853742996694
 32
0.0
 13
1.3112713037143631
 23
2.018853742996694
 33
0.0
  0
TEXT
  8
0
  40
0.18
  5
ADE
  62
0
  72
0
  71
0
 10
1.21872
 20
2.16983
 30
0.000000
  1
139?
  0
POINT
  5
AC2
  8
DEFPOINTS
 62
     0
 10
1.4410125175558941
 20
2.0242769599311332
 30
0.0
  0
POINT
  5
AC3
  8
DEFPOINTS
 62
     0
 10
1.3787425410650951
 20
1.959349704770083
 30
0.0
  0
POINT
  5
AC4
  8
DEFPOINTS
 62
     0
 10
0.7787425410650732
 20
2.488499966982975
 30
0.0
  0
POINT
  5
AC5
  8
DEFPOINTS
 62
     0
 10
1.3787425410650951
 20
1.959349704770083
 30
0.0
  0
POINT
  5
AC6
  8
DEFPOINTS
 62
     0
 10
1.9787425410650961
 20
1.959349704770083
 30
0.0
  0
ENDBLK
  5
ABB
  8
0
  0
ENDSEC
  0
SECTION
  2
ENTITIES
  0
POLYLINE
  5
30
  8
0
  6
CONTINUOUS
 62
     7
 66
     1
 10
0.0
 20
0.0
 30
0.0
 70
     1
  0
VERTEX
  5
A9E
  8
0
  6
CONTINUOUS
 62
     7
 10
0.2074850821303293
 20
4.3477451476662283
 30
0.0
  0
VERTEX
  5
A9F
  8
0
  6
CONTINUOUS
 62
     7
 10
3.1499999999998631
 20
4.3477451476662283
 30
0.0
  0
VERTEX
  5
AA0
  8
0
  6
CONTINUOUS
 62
     7
 10
3.1499999999998631
 20
0.1001045240868308
 30
0.0
  0
VERTEX
  5
AA1
  8
0
  6
CONTINUOUS
 62
     7
 10
0.2074850821303293
 20
0.1001045240868308
 30
0.0
  0
SEQEND
  5
AA2
  8
0
  6
CONTINUOUS
 62
     7
  0
TEXT
  5
36
  8
0
  6
CONTINUOUS
 10
1.2731597636974441
 20
3.8746862869165599
 30
0.0
 40
0.0675
  1
ESCALA  1:15
  7
ROMANC
 11
1.2731597636974441
 21
3.9421862869165598
 31
0.0
 73
     3
  0
TEXT
  5
38
  8
0
  6
CONTINUOUS
 10
1.2731597636974441
 20
3.9838112869165481
 30
0.0
 40
0.0675
  1
TIPUS C63
  7
ROMANC
 11
1.2731597636974441
 21
4.0513112869165484
 31
0.0
 73
     3
  0
TEXT
  5
3A
  8
0
  6
CONTINUOUS
 10
1.2731597636974441
 20
3.5720612869165511
 30
0.0
 40
0.0675
  1
P = 40.0 dm
  7
ROMANC
 11
1.2731597636974441
 21
3.639561286916551
 31
0.0
 73
     3
  0
DIMENSION
  5
69
  8
0
 62
     7
  2
*D3
 10
0.7787425410650734
 20
2.6476324150221719
 30
0.0
 11
0.6037425410650678
 21
2.6476324150221719
 31
0.0
 13
0.428742541065062
 23
2.488499966982975
 33
0.0
 14
0.7787425410650734
 24
2.488499966982975
 34
0.0
  0
DIMENSION
  5
A5
  8
0
 62
     7
  2
*D5
 10
2.928742541064969
 20
2.6476324150221719
 30
0.0
 11
2.7537425410650198
 21
2.6476324150221719
 31
0.0
 70
     1
 13
2.5787425410650711
 23
2.488499966982975
 33
0.0
 14
2.928742541064969
 24
2.488499966982975
 34
0.0
  0
INSERT
  5
17F
  8
0
  2
*U43
 10
0.0
 20
0.0
 30
0.0
  0
DIMENSION
  5
1C1
  8
0
 62
     7
  2
*D7
 10
2.578742541065119
 20
2.6476324150221719
 30
0.0
 11
1.678742541065096
 21
2.6476324150221719
 31
0.0
 13
0.7787425410650734
 23
2.488499966982975
 33
0.0
 14
2.578742541065119
 24
2.488499966982975
 34
0.0
  0
DIMENSION
  5
2A4
  8
0
  2
*D9
 10
2.9287425410651191
 20
2.7564622129157681
 30
0.0
 11
1.678742541065096
 21
2.7564622129157681
 31
0.0
 13
0.4287425410650735
 23
2.488499966982975
 33
0.0
 14
2.9287425410651191
 24
2.488499966982975
 34
0.0
  0
DIMENSION
  5
479
  8
0
 62
     7
  2
*D11
 10
1.294924307482153
 20
1.8643087613158511
 30
0.0
 11
0.9949243074821424
 21
2.128883892422297
 31
0.0
 70
     1
 13
0.7787425410650734
 23
2.488499966982975
 33
0.0
 14
1.3787425410650951
 24
1.959349704770083
 34
0.0
  0
DIMENSION
  5
487
  8
0
 62
     7
  2
*D13
 10
1.9787425410650961
 20
1.844465626482868
 30
0.0
 11
1.678742541065096
 21
1.844465626482868
 31
0.0
 70
     1
 13
1.3787425410650951
 23
1.959349704770083
 33
0.0
 14
1.9787425410650961
 24
1.959349704770083
 34
0.0
  0
DIMENSION
  5
495
  8
0
 62
     7
  2
*D15
 10
2.6488590474555238
 20
2.4089953218216742
 30
0.0
 11
2.348859047455512
 21
2.1444201907152269
 31
0.0
 70
     1
 13
1.9787425410650961
 23
1.959349704770083
 33
0.0
 14
2.578742541065119
 24
2.488499966982975
 34
0.0
  0
DIMENSION
  5
4C1
  8
0
 62
     7
  2
*D45
 10
1.3787425410650951
 20
1.959349704770083
 30
0.0
 11
1.7274777770567391
 21
2.129911753486124
 31
0.0
 70
     2
 13
0.4287425410650735
 23
2.488499966982975
 33
0.0
 14
0.7787425410650734
 24
2.488499966982975
 34
0.0
 15
0.7787425410650734
 25
2.488499966982975
 35
0.0
 16
0.9141635402794157
 26
2.417684273093919
 36
0.0
1001
ACAD
1000
DSTYLE
1002
{
1070
   271
1070
     0
1002
}
  0
DIMENSION
  5
4CF
  8
0
 62
     7
  2
*D46
 10
1.9787425410650961
 20
1.959349704770083
 30
0.0
 11
1.578717802181322
 21
2.4884345140488611
 31
0.0
 70
     2
 13
0.7787425410650734
 23
2.488499966982975
 33
0.0
 14
1.3787425410650951
 24
1.959349704770083
 34
0.0
 15
1.3787425410650951
 25
1.959349704770083
 35
0.0
 16
1.4410125175558941
 26
2.0242769599311332
 36
0.0
1001
ACAD
1000
DSTYLE
1002
{
1070
   271
1070
     0
1002
}
  0
DIMENSION
  5
4FE
  8
0
 62
     7
  2
*D21
 10
0.6416040250110056
 20
1.959349704770083
 30
0.0
 11
0.6416040250110051
 21
2.2239248358765278
 31
0.0
  1
0.55
 13
0.6037425410650734
 23
2.488499966982975
 33
0.0
 14
1.3787425410650951
 24
1.959349704770083
 34
0.0
 50
90.0
  0
POLYLINE
  5
80E
  8
GEOMETRIA
 66
     1
 10
0.0
 20
0.0
 30
0.0
 40
0.02
 41
0.02
  0
VERTEX
  5
AC7
  8
GEOMETRIA
 10
0.423517627264026
 20
2.488499966982975
 30
0.0
  0
VERTEX
  5
AC8
  8
GEOMETRIA
 10
0.7735176272640261
 20
2.488499966982975
 30
0.0
  0
VERTEX
  5
AC9
  8
GEOMETRIA
 10
1.373517627264047
 20
1.959349704770083
 30
0.0
  0
VERTEX
  5
ACA
  8
GEOMETRIA
 10
1.973517627264048
 20
1.959349704770083
 30
0.0
  0
VERTEX
  5
ACB
  8
GEOMETRIA
 10
2.5735176272640721
 20
2.488499966982975
 30
0.0
  0
VERTEX
  5
ACC
  8
GEOMETRIA
 10
2.9235176272640708
 20
2.488499966982975
 30
0.0
  0
SEQEND
  5
ACD
  8
GEOMETRIA
  0
VIEWPORT
  5
10C
 67
     1
  8
0
 10
99.779917955398503
 20
146.13959079110271
 30
0.0
 40
549.53604755060792
 41
326.0640022398494
 68
     1
 69
     1
1001
ACAD
1000
MVIEW
1002
{
1070
    16
1010
0.0
1020
0.0
1030
0.0
1010
0.0
1020
0.0
1030
1.0
1040
0.0
1040
326.0640022398494
1040
99.779917955398503
1040
146.13959079110271
1040
50.0
1040
0.0
1040
0.0
1070
     0
1070
   100
1070
     1
1070
     1
1070
     0
1070
     0
1070
     0
1070
     0
1040
0.0
1040
0.0
1040
0.0
1040
10.0
1040
10.0
1040
10.0
1040
10.0
1070
     0
1002
{
1002
}
1002
}
  0
VIEWPORT
  5
119
 67
     1
  8
0
 10
101.9901416936836
 20
141.4257970162023
 30
0.0
 40
196.16766081916151
 41
283.17604103475952
 68
     2
 69
     2
1001
ACAD
1000
MVIEW
1002
{
1070
    16
1010
0.0
1020
0.0
1030
0.0
1010
0.0
1020
0.0
1030
1.0
1040
0.0
1040
4.2476406235793958
1040
1.678742541065096
1040
2.22392483587653
1040
50.0
1040
0.0
1040
0.0
1070
     0
1070
   100
1070
     1
1070
     1
1070
     0
1070
     0
1070
     0
1070
     0
1040
0.0
1040
0.0
1040
0.0
1040
1.0
1040
1.0
1040
0.0
1040
0.0
1070
     0
1002
{
1002
}
1002
}
  0
ENDSEC
  0
EOF
