  0
SECTION
  2
HEADER
  9
$ACADVER
  1
AC1009
  9
$INSBASE
 10
0.0
 20
0.0
 30
0.0
  9
$EXTMIN
 10
320.73791636705607
 20
33.843018285747341
 30
-0.0000000349181948
  9
$EXTMAX
 10
326.02432336661082
 20
41.287781143896041
 30
0.0000000814935747
  9
$LIMMIN
 10
0.0
 20
0.0
  9
$LIMMAX
 10
410.0
 20
287.0
  9
$ORTHOMODE
 70
     1
  9
$REGENMODE
 70
     1
  9
$FILLMODE
 70
     1
  9
$QTEXTMODE
 70
     0
  9
$MIRRTEXT
 70
     1
  9
$DRAGMODE
 70
     2
  9
$LTSCALE
 40
25.0
  9
$OSMODE
 70
    33
  9
$ATTMODE
 70
     1
  9
$TEXTSIZE
 40
0.1
  9
$TRACEWID
 40
1.0
  9
$TEXTSTYLE
  7
ROMANC
  9
$CLAYER
  8
0
  9
$CELTYPE
  6
BYLAYER
  9
$CECOLOR
 62
   256
  9
$DIMSCALE
 40
1.5
  9
$DIMASZ
 40
0.05
  9
$DIMEXO
 40
0.01
  9
$DIMDLI
 40
7.0
  9
$DIMRND
 40
0.0
  9
$DIMDLE
 40
0.0
  9
$DIMEXE
 40
0.01
  9
$DIMTP
 40
0.0
  9
$DIMTM
 40
0.0
  9
$DIMTXT
 40
0.05
  9
$DIMCEN
 40
0.0
  9
$DIMTSZ
 40
0.0
  9
$DIMTOL
 70
     0
  9
$DIMLIM
 70
     0
  9
$DIMTIH
 70
     0
  9
$DIMTOH
 70
     0
  9
$DIMSE1
 70
     0
  9
$DIMSE2
 70
     0
  9
$DIMTAD
 70
     1
  9
$DIMZIN
 70
     0
  9
$DIMBLK
  1
OBLIQUE
  9
$DIMASO
 70
     1
  9
$DIMSHO
 70
     0
  9
$DIMPOST
  1

  9
$DIMAPOST
  1

  9
$DIMALT
 70
     0
  9
$DIMALTD
 70
     2
  9
$DIMALTF
 40
25.399999999999999
  9
$DIMLFAC
 40
1.0
  9
$DIMTOFL
 70
     1
  9
$DIMTVP
 40
0.0
  9
$DIMTIX
 70
     1
  9
$DIMSOXD
 70
     0
  9
$DIMSAH
 70
     0
  9
$DIMBLK1
  1

  9
$DIMBLK2
  1

  9
$DIMSTYLE
  2
MERITXELL
  9
$DIMCLRD
 70
     0
  9
$DIMCLRE
 70
     0
  9
$DIMCLRT
 70
     0
  9
$DIMTFAC
 40
70.0
  9
$DIMGAP
 40
0.025
  9
$LUNITS
 70
     2
  9
$LUPREC
 70
     2
  9
$SKETCHINC
 40
1.0
  9
$FILLETRAD
 40
0.0
  9
$AUNITS
 70
     0
  9
$AUPREC
 70
     0
  9
$MENU
  1
acad
  9
$ELEVATION
 40
0.0
  9
$PELEVATION
 40
0.0
  9
$THICKNESS
 40
0.0
  9
$LIMCHECK
 70
     0
  9
$BLIPMODE
 70
     0
  9
$CHAMFERA
 40
0.0
  9
$CHAMFERB
 40
0.0
  9
$SKPOLY
 70
     0
  9
$TDCREATE
 40
2450927.5036166669
  9
$TDUPDATE
 40
2452599.7500027078
  9
$TDINDWG
 40
0.3162616088
  9
$TDUSRTIMER
 40
0.3162554282
  9
$USRTIMER
 70
     1
  9
$ANGBASE
 50
0.0
  9
$ANGDIR
 70
     0
  9
$PDMODE
 70
     0
  9
$PDSIZE
 40
0.0
  9
$PLINEWID
 40
0.0
  9
$COORDS
 70
     1
  9
$SPLFRAME
 70
     0
  9
$SPLINETYPE
 70
     6
  9
$SPLINESEGS
 70
     8
  9
$ATTDIA
 70
     0
  9
$ATTREQ
 70
     1
  9
$HANDLING
 70
 10241
  9
$HANDSEED
  5
14CA
  9
$SURFTAB1
 70
     6
  9
$SURFTAB2
 70
     6
  9
$SURFTYPE
 70
     6
  9
$SURFU
 70
     6
  9
$SURFV
 70
     6
  9
$UCSNAME
  2

  9
$UCSORG
 10
0.0
 20
0.0
 30
0.0
  9
$UCSXDIR
 10
1.0
 20
0.0
 30
0.0
  9
$UCSYDIR
 10
0.0
 20
1.0
 30
0.0
  9
$PUCSNAME
  2

  9
$PUCSORG
 10
0.0
 20
0.0
 30
0.0
  9
$PUCSXDIR
 10
1.0
 20
0.0
 30
0.0
  9
$PUCSYDIR
 10
0.0
 20
1.0
 30
0.0
  9
$USERI1
 70
     0
  9
$USERI2
 70
     0
  9
$USERI3
 70
     0
  9
$USERI4
 70
     0
  9
$USERI5
 70
     0
  9
$USERR1
 40
0.0
  9
$USERR2
 40
0.0
  9
$USERR3
 40
0.0
  9
$USERR4
 40
0.0
  9
$USERR5
 40
0.0
  9
$WORLDVIEW
 70
     1
  9
$SHADEDGE
 70
     3
  9
$SHADEDIF
 70
    70
  9
$TILEMODE
 70
     1
  9
$MAXACTVP
 70
    16
  9
$PLIMCHECK
 70
     0
  9
$PEXTMIN
 10
0.2116081523232864
 20
0.2346387408828896
 30
0.0
  9
$PEXTMAX
 10
15.880144695512589
 20
22.759229921264161
 30
0.0
  9
$PLIMMIN
 10
-0.211260093180138
 20
-0.1911951125826537
  9
$PLIMMAX
 10
16.315405782112059
 20
23.19880559869317
  9
$UNITMODE
 70
     0
  9
$VISRETAIN
 70
     0
  9
$PLINEGEN
 70
     0
  9
$PSLTSCALE
 70
     0
  0
ENDSEC
  0
SECTION
  2
TABLES
  0
TABLE
  2
VPORT
 70
     2
  0
VPORT
  2
*ACTIVE
 70
     0
 10
0.0
 20
0.0
 11
1.0
 21
1.0
 12
323.38111985887201
 22
37.565399706090481
 13
0.0
 23
0.0
 14
1.0
 24
1.0
 15
10.0
 25
10.0
 16
0.0
 26
0.0
 36
1.0
 17
0.0
 27
0.0
 37
0.0
 40
8.4787360212570633
 41
1.5406824146981619
 42
50.0
 43
0.0
 44
0.0
 50
0.0
 51
0.0
 71
     0
 72
   100
 73
     1
 74
     0
 75
     0
 76
     0
 77
     0
 78
     1
  0
ENDTAB
  0
TABLE
  2
LTYPE
 70
     1
  0
LTYPE
  2
CONTINUOUS
 70
     0
  3
Solid line
 72
    65
 73
     0
 40
0.0
  0
ENDTAB
  0
TABLE
  2
LAYER
 70
     4
  0
LAYER
  2
0
 70
     0
 62
     7
  6
CONTINUOUS
  0
LAYER
  2
DEFPOINTS
 70
     0
 62
     7
  6
CONTINUOUS
  0
LAYER
  2
FINESTRA
 70
     0
 62
     7
  6
CONTINUOUS
  0
LAYER
  2
NO_PRINT
 70
     0
 62
     7
  6
CONTINUOUS
  0
ENDTAB
  0
TABLE
  2
STYLE
 70
     2
  0
STYLE
  2
STANDARD
 70
     0
 40
0.0
 41
1.0
 50
0.0
 71
     0
 42
0.1
  3
txt
  4

  0
STYLE
  2
ROMANC
 70
     0
 40
0.0
 41
1.0
 50
0.0
 71
     0
 42
0.1
  3
romanc
  4

  0
ENDTAB
  0
TABLE
  2
VIEW
 70
     0
  0
ENDTAB
  0
TABLE
  2
UCS
 70
     0
  0
ENDTAB
  0
TABLE
  2
APPID
 70
     1
  0
APPID
  2
ACAD
 70
     0
  0
ENDTAB
  0
TABLE
  2
DIMSTYLE
 70
     1
  0
DIMSTYLE
  2
MERITXELL
 70
     0
  3

  4

  5
OBLIQUE
  6

  7

 40
1.5
 41
0.05
 42
0.01
 43
7.0
 44
0.01
 45
0.0
 46
0.0
 47
0.0
 48
0.0
140
0.05
141
0.1
142
0.0
143
25.399999999999999
144
1.0
145
0.0
146
70.0
147
0.09
 71
     0
 72
     0
 73
     0
 74
     0
 75
     0
 76
     0
 77
     1
 78
     0
170
     0
171
     2
172
     1
173
     0
174
     1
175
     0
176
     0
177
     0
178
     0
  0
ENDTAB
  0
ENDSEC
  0
SECTION
  2
BLOCKS
  0
BLOCK
  8
0
  2
$MODEL_SPACE
 70
     0
 10
0.0
 20
0.0
 30
0.0
  3
$MODEL_SPACE
  1

  0
ENDBLK
  5
24
  8
0
  0
BLOCK
 67
     1
  8
0
  2
$PAPER_SPACE
 70
     0
 10
0.0
 20
0.0
 30
0.0
  3
$PAPER_SPACE
  1

  0
ENDBLK
  5
22
 67
     1
  8
0
  0
BLOCK
  8
0
  2
TICK
 70
     0
 10
0.0
 20
0.0
 30
0.0
  3
TICK
  1

  0
LINE
  5
387
  8
0
  6
BYBLOCK
 62
     6
 10
-1.0
 20
-1.0
 30
0.0
 11
1.0
 21
1.0
 31
0.0
  0
LINE
  5
388
  8
0
  6
BYBLOCK
 62
    71
 10
0.0
 20
0.0
 30
0.0
 11
-1.0
 21
0.0
 31
0.0
  0
ENDBLK
  5
38A
  8
0
  0
BLOCK
  8
0
  2
_OBLIQUE
 70
     0
 10
0.0
 20
0.0
 30
0.0
  3
_OBLIQUE
  1

  0
LINE
  5
11DC
  8
0
 62
     0
 10
-0.5
 20
-0.5
 30
0.0
 11
0.5
 21
0.5
 31
0.0
  0
ENDBLK
  5
11DE
  8
0
  0
BLOCK
  8
0
  2
*D2
 70
     1
 10
0.0
 20
0.0
 30
0.0
  3
*D2
  1

  0
LINE
  5
1322
  8
0
 62
     0
 10
323.68220216569352
 20
37.069621210763259
 30
0.0
 11
323.81716389426731
 21
37.069621210763259
 31
0.0
  0
LINE
  5
1323
  8
0
 62
     0
 10
323.68220216569352
 20
37.089621210763262
 30
0.0
 11
323.81716389426731
 21
37.089621210763262
 31
0.0
  0
LINE
  5
1324
  8
0
 62
     0
 10
323.80216389426732
 20
37.069621210763259
 30
0.0
 11
323.80216389426732
 21
36.994621210763242
 31
0.0
  0
LINE
  5
1325
  8
0
 62
     0
 10
323.80216389426732
 20
37.089621210763262
 30
0.0
 11
323.80216389426732
 21
37.164621210763251
 31
0.0
  0
LINE
  5
1326
  8
0
 62
     0
 10
323.80216389426732
 20
37.069621210763259
 30
0.0
 11
323.80216389426732
 21
37.089621210763262
 31
0.0
  0
INSERT
  5
1327
  8
0
 62
     0
  2
_OBLIQUE
 10
323.80216389426732
 20
37.069621210763259
 30
0.0
 41
0.075
 42
0.075
 43
0.075
 50
90.0
  0
INSERT
  5
1328
  8
0
 62
     0
  2
_OBLIQUE
 10
323.80216389426732
 20
37.089621210763262
 30
0.0
 41
0.075
 42
0.075
 43
0.075
 50
270.0
  0
TEXT
  5
1329
  8
0
 62
     0
 10
323.76466389426741
 20
36.954621210763307
 30
0.0
 40
0.075
  1
0.02
 50
90.0
  7
ROMANC
  0
POINT
  5
132A
  8
DEFPOINTS
 62
     0
 10
323.66720216569348
 20
37.069621210763259
 30
0.0
  0
POINT
  5
132B
  8
DEFPOINTS
 62
     0
 10
323.66720216569348
 20
37.089621210763262
 30
0.0
  0
POINT
  5
132C
  8
DEFPOINTS
 62
     0
 10
323.80216389426732
 20
37.089621210763262
 30
0.0
  0
ENDBLK
  5
132E
  8
0
  0
BLOCK
  8
0
  2
*D3
 70
     1
 10
0.0
 20
0.0
 30
0.0
  3
*D3
  1

  0
LINE
  5
1331
  8
0
 62
     0
 10
323.16720216569348
 20
37.074621210763262
 30
0.0
 11
323.16720216569348
 21
36.845260029363139
 31
0.0
  0
LINE
  5
1332
  8
0
 62
     0
 10
323.66720216569348
 20
37.074621210763262
 30
0.0
 11
323.66720216569348
 21
36.845260029363139
 31
0.0
  0
LINE
  5
1333
  8
0
 62
     0
 10
323.16720216569348
 20
36.86026002936314
 30
0.0
 11
323.66720216569348
 21
36.86026002936314
 31
0.0
  0
INSERT
  5
1334
  8
0
 62
     0
  2
_OBLIQUE
 10
323.16720216569348
 20
36.86026002936314
 30
0.0
 41
0.075
 42
0.075
 43
0.075
 50
180.0
  0
INSERT
  5
1335
  8
0
 62
     0
  2
_OBLIQUE
 10
323.66720216569348
 20
36.86026002936314
 30
0.0
 41
0.075
 42
0.075
 43
0.075
  0
TEXT
  5
1336
  8
0
 62
     0
 10
323.29220216569348
 20
36.897760029363141
 30
0.0
 40
0.075
  1
0.50
  7
ROMANC
  0
POINT
  5
1337
  8
DEFPOINTS
 62
     0
 10
323.16720216569348
 20
37.089621210763262
 30
0.0
  0
POINT
  5
1338
  8
DEFPOINTS
 62
     0
 10
323.66720216569348
 20
37.089621210763262
 30
0.0
  0
POINT
  5
1339
  8
DEFPOINTS
 62
     0
 10
323.66720216569348
 20
36.86026002936314
 30
0.0
  0
ENDBLK
  5
133B
  8
0
  0
BLOCK
  8
0
  2
*D4
 70
     1
 10
0.0
 20
0.0
 30
0.0
  3
*D4
  1

  0
LINE
  5
1430
  8
0
 62
     0
 10
322.22682468063721
 20
38.45056502498398
 30
0.0
 11
321.87402885990889
 21
38.274167114619878
 31
0.0
  0
LINE
  5
1431
  8
0
 62
     0
 10
322.72682468063721
 20
37.450565024983959
 30
0.0
 11
322.374028859909
 21
37.274167114619857
 31
0.0
  0
LINE
  5
1432
  8
0
 62
     0
 10
321.88744526777401
 20
38.280875318552383
 30
0.0
 11
322.38744526777401
 21
37.280875318552361
 31
0.0
  0
INSERT
  5
1433
  8
0
 62
     0
  2
_OBLIQUE
 10
321.88744526777401
 20
38.280875318552383
 30
0.0
 41
0.075
 42
0.075
 43
0.075
 50
116.5650511770779
  0
INSERT
  5
1434
  8
0
 62
     0
  2
_OBLIQUE
 10
322.38744526777401
 20
37.280875318552361
 30
0.0
 41
0.075
 42
0.075
 43
0.075
 50
296.56505117707792
  0
TEXT
  5
1435
  8
0
 62
     0
 10
322.11987616223638
 20
37.89986607878366
 30
0.0
 40
0.075
  1
1.12
 50
296.56505117707792
  7
ROMANC
  0
POINT
  5
1436
  8
DEFPOINTS
 62
     0
 10
322.24024108850222
 20
38.457273228916492
 30
0.0
  0
POINT
  5
1437
  8
DEFPOINTS
 62
     0
 10
322.74024108850222
 20
37.457273228916463
 30
0.0
  0
POINT
  5
1438
  8
DEFPOINTS
 62
     0
 10
322.38744526777401
 20
37.280875318552361
 30
0.0
  0
ENDBLK
  5
143A
  8
0
  0
BLOCK
  8
0
  2
*D5
 70
     1
 10
0.0
 20
0.0
 30
0.0
  3
*D5
  1

  0
LINE
  5
143D
  8
0
 62
     0
 10
322.75084769021993
 20
37.446666627198653
 30
0.0
 11
322.9827711378602
 21
37.21474317955829
 31
0.0
  0
LINE
  5
143E
  8
0
 62
     0
 10
323.25084769021993
 20
37.946666627198681
 30
0.0
 11
323.4827711378602
 21
37.714743179558297
 31
0.0
  0
LINE
  5
143F
  8
0
 62
     0
 10
322.97216453614237
 20
37.225349781276087
 30
0.0
 11
323.47216453614249
 21
37.725349781276087
 31
0.0
  0
INSERT
  5
1440
  8
0
 62
     0
  2
_OBLIQUE
 10
322.97216453614237
 20
37.225349781276087
 30
0.0
 41
0.075
 42
0.075
 43
0.075
 50
225.0
  0
INSERT
  5
1441
  8
0
 62
     0
  2
_OBLIQUE
 10
323.47216453614249
 20
37.725349781276087
 30
0.0
 41
0.075
 42
0.075
 43
0.075
 50
45.0
  0
TEXT
  5
1442
  8
0
 62
     0
 10
323.11357313760311
 20
37.41979139132566
 30
0.0
 40
0.075
  1
0.71
 50
45.0
  7
ROMANC
  0
POINT
  5
1443
  8
DEFPOINTS
 62
     0
 10
322.7402410885021
 20
37.457273228916449
 30
0.0
  0
POINT
  5
1444
  8
DEFPOINTS
 62
     0
 10
323.2402410885021
 20
37.957273228916449
 30
0.0
  0
POINT
  5
1445
  8
DEFPOINTS
 62
     0
 10
323.47216453614249
 20
37.725349781276087
 30
0.0
  0
ENDBLK
  5
1447
  8
0
  0
BLOCK
  8
0
  2
*D6
 70
     1
 10
0.0
 20
0.0
 30
0.0
  3
*D6
  1

  0
LINE
  5
144E
  8
0
 62
     0
 10
322.38258833480552
 20
38.398295161570331
 30
0.0
 11
322.13673326581949
 21
38.398295161570331
 31
0.0
  0
LINE
  5
144F
  8
0
 62
     0
 10
322.88258833480552
 20
37.398295161570331
 30
0.0
 11
322.13673326581949
 21
37.398295161570331
 31
0.0
  0
LINE
  5
1450
  8
0
 62
     0
 10
322.15173326581947
 20
38.398295161570331
 30
0.0
 11
322.15173326581947
 21
37.398295161570331
 31
0.0
  0
INSERT
  5
1451
  8
0
 62
     0
  2
_OBLIQUE
 10
322.15173326581947
 20
38.398295161570331
 30
0.0
 41
0.075
 42
0.075
 43
0.075
 50
90.0
  0
INSERT
  5
1452
  8
0
 62
     0
  2
_OBLIQUE
 10
322.15173326581947
 20
37.398295161570331
 30
0.0
 41
0.075
 42
0.075
 43
0.075
 50
270.0
  0
TEXT
  5
1453
  8
0
 62
     0
 10
322.11423326581951
 20
37.778652304427517
 30
0.0
 40
0.075
  1
1.00
 50
90.0
  7
ROMANC
  0
POINT
  5
1454
  8
DEFPOINTS
 62
     0
 10
322.39758833480539
 20
38.398295161570331
 30
0.0
  0
POINT
  5
1455
  8
DEFPOINTS
 62
     0
 10
322.8975883348055
 20
37.398295161570331
 30
0.0
  0
POINT
  5
1456
  8
DEFPOINTS
 62
     0
 10
322.15173326581947
 20
37.398295161570331
 30
0.0
  0
ENDBLK
  5
1458
  8
0
  0
BLOCK
  8
0
  2
*D7
 70
     1
 10
0.0
 20
0.0
 30
0.0
  3
*D7
  1

  0
LINE
  5
14A2
  8
0
 62
     0
 10
322.69568584519772
 20
37.76198374514972
 30
0.0
 11
322.6084127151961
 21
37.76198374514972
 31
0.0
  0
LINE
  5
14A3
  8
0
 62
     0
 10
322.7106858451977
 20
36.76198374514972
 30
0.0
 11
322.6084127151961
 21
36.76198374514972
 31
0.0
  0
LINE
  5
14A4
  8
0
 62
     0
 10
322.62341271519603
 20
37.76198374514972
 30
0.0
 11
322.62341271519603
 21
36.76198374514972
 31
0.0
  0
INSERT
  5
14A5
  8
0
 62
     0
  2
_OBLIQUE
 10
322.62341271519603
 20
37.76198374514972
 30
0.0
 41
0.075
 42
0.075
 43
0.075
 50
90.0
  0
INSERT
  5
14A6
  8
0
 62
     0
  2
_OBLIQUE
 10
322.62341271519603
 20
36.76198374514972
 30
0.0
 41
0.075
 42
0.075
 43
0.075
 50
270.0
  0
TEXT
  5
14A7
  8
0
 62
     0
 10
322.58591271519612
 20
37.142340888006913
 30
0.0
 40
0.075
  1
1.00
 50
90.0
  7
ROMANC
  0
POINT
  5
14A8
  8
DEFPOINTS
 62
     0
 10
322.7106858451977
 20
37.76198374514972
 30
0.0
  0
POINT
  5
14A9
  8
DEFPOINTS
 62
     0
 10
322.72568584519769
 20
36.76198374514972
 30
0.0
  0
POINT
  5
14AA
  8
DEFPOINTS
 62
     0
 10
322.62341271519603
 20
36.76198374514972
 30
0.0
  0
ENDBLK
  5
1465
  8
0
  0
BLOCK
  8
0
  2
*D8
 70
     1
 10
0.0
 20
0.0
 30
0.0
  3
*D8
  1

  0
LINE
  5
14AB
  8
0
 62
     0
 10
323.64097296834473
 20
36.76198374514972
 30
0.0
 11
323.79884866340922
 21
36.76198374514972
 31
0.0
  0
LINE
  5
14AC
  8
0
 62
     0
 10
323.76625733600252
 20
37.26198374514972
 30
0.0
 11
323.79884866340922
 21
37.26198374514972
 31
0.0
  0
LINE
  5
14AD
  8
0
 62
     0
 10
323.78384866340917
 20
36.76198374514972
 30
0.0
 11
323.78384866340917
 21
37.26198374514972
 31
0.0
  0
INSERT
  5
14AE
  8
0
 62
     0
  2
_OBLIQUE
 10
323.78384866340917
 20
36.76198374514972
 30
0.0
 41
0.075
 42
0.075
 43
0.075
 50
270.0
  0
INSERT
  5
14AF
  8
0
 62
     0
  2
_OBLIQUE
 10
323.78384866340917
 20
37.26198374514972
 30
0.0
 41
0.075
 42
0.075
 43
0.075
 50
90.0
  0
TEXT
  5
14B0
  8
0
 62
     0
 10
323.74634866340921
 20
36.88698374514977
 30
0.0
 40
0.075
  1
0.50
 50
90.0
  7
ROMANC
  0
POINT
  5
14B1
  8
DEFPOINTS
 62
     0
 10
323.62597296834468
 20
36.76198374514972
 30
0.0
  0
POINT
  5
14B2
  8
DEFPOINTS
 62
     0
 10
323.75125733600248
 20
37.26198374514972
 30
0.0
  0
POINT
  5
14B3
  8
DEFPOINTS
 62
     0
 10
323.78384866340917
 20
37.26198374514972
 30
0.0
  0
ENDBLK
  5
1472
  8
0
  0
ENDSEC
  0
SECTION
  2
ENTITIES
  0
TEXT
  5
2A
  8
0
 10
322.28178164618231
 20
40.182889342008991
 30
0.0
 40
0.15
  1
TIPUS   C38
  7
ROMANC
  0
TEXT
  5
2D
  8
0
 10
322.28618890435467
 20
39.276378565971278
 30
0.0
 40
0.15
  1
P = 18,3 dm
  7
ROMANC
  0
TEXT
  5
2E
  8
0
 10
322.27534626410431
 20
39.581055006596038
 30
0.0
 40
0.15
  1
S = 38 dm
  7
ROMANC
  0
TEXT
  5
2F
  8
0
 10
322.28178164618231
 20
39.880350006596032
 30
0.0
 40
0.15
  1
ESCALA  1: 2.5
  7
ROMANC
  0
TEXT
  5
30
  8
0
 10
323.55779017791411
 20
39.734013006596022
 30
0.0
 40
0.05
  1
2
  7
ROMANC
  0
POLYLINE
  5
117D
  8
NO_PRINT
 66
     1
 10
0.0
 20
0.0
 30
0.0
 70
     1
  0
VERTEX
  5
14B9
  8
NO_PRINT
 10
320.75387665479178
 20
33.860039127339199
 30
0.0
  0
VERTEX
  5
14BA
  8
NO_PRINT
 10
326.0038766547919
 20
33.860039127339199
 30
0.0
  0
VERTEX
  5
14BB
  8
NO_PRINT
 10
326.0038766547919
 20
41.285039127339182
 30
0.0
  0
VERTEX
  5
14BC
  8
NO_PRINT
 10
320.75387665479178
 20
41.285039127339182
 30
0.0
  0
SEQEND
  5
14BD
  8
NO_PRINT
  0
TEXT
  5
1203
  8
0
 10
322.99130719007042
 20
34.27334524047906
 30
0.0
 40
0.15
  1
N -152  MONTCADA
  7
ROMANC
  0
POLYLINE
  5
144B
  8
0
 66
     1
 10
0.0
 20
0.0
 30
0.0
  0
VERTEX
  5
14BE
  8
0
 10
322.75125733600248
 20
37.76198374514972
 30
0.0
  0
VERTEX
  5
14BF
  8
0
 10
323.25125733600248
 20
36.76198374514972
 30
0.0
  0
VERTEX
  5
14C0
  8
0
 10
323.75125733600248
 20
37.26198374514972
 30
0.0
  0
SEQEND
  5
14C1
  8
0
  0
DIMENSION
  5
1459
  8
0
  2
*D7
 10
322.62341271519603
 20
36.76198374514972
 30
0.0
 11
322.54841271519609
 21
37.26198374514977
 31
0.0
 70
     0
 13
322.7106858451977
 23
37.76198374514972
 33
0.0
 14
322.72568584519769
 24
36.76198374514972
 34
0.0
 50
90.0
1001
ACAD
1000
DSTYLE
1002
{
1070
   141
1040
0.0
1070
   147
1040
0.025
1002
}
  0
DIMENSION
  5
1466
  8
0
  2
*D8
 10
323.78384866340917
 20
37.26198374514972
 30
0.0
 11
323.70884866340919
 21
37.01198374514977
 31
0.0
 70
     0
 13
323.62597296834468
 23
36.76198374514972
 33
0.0
 14
323.75125733600248
 24
37.26198374514972
 34
0.0
 50
90.0
1001
ACAD
1000
DSTYLE
1002
{
1070
   141
1040
0.0
1070
   147
1040
0.025
1002
}
  0
POLYLINE
  5
14B4
  8
0
 66
     1
 10
0.0
 20
0.0
 30
0.0
  0
VERTEX
  5
14C2
  8
0
 10
322.75572947195752
 20
37.76421981312722
 30
0.0
  0
VERTEX
  5
14C3
  8
0
 10
323.25262709336101
 20
36.770424570320138
 30
0.0
  0
VERTEX
  5
14C4
  8
0
 10
323.74772180209652
 20
37.265519279055653
 30
0.0
  0
SEQEND
  5
14C5
  8
0
  0
POLYLINE
  5
14B5
  8
0
 66
     1
 10
0.0
 20
0.0
 30
0.0
  0
VERTEX
  5
14C6
  8
0
 10
322.7467852000475
 20
37.759747677172221
 30
0.0
  0
VERTEX
  5
14C7
  8
0
 10
323.24988757864401
 20
36.753542919979303
 30
0.0
  0
VERTEX
  5
14C8
  8
0
 10
323.75479286990839
 20
37.258448211243788
 30
0.0
  0
SEQEND
  5
14C9
  8
0
  0
VIEWPORT
  5
FCA
 67
     1
  8
0
 10
8.0520728444659628
 20
11.503805243055259
 30
0.0
 40
35.172706323608082
 41
24.746620752529822
 68
     1
 69
     1
1001
ACAD
1000
MVIEW
1002
{
1070
    16
1010
0.0
1020
0.0
1030
0.0
1010
0.0
1020
0.0
1030
1.0
1040
0.0
1040
24.746620752529822
1040
8.0520728444659628
1040
11.503805243055259
1040
50.0
1040
0.0
1040
0.0
1070
     0
1070
   100
1070
     1
1070
     1
1070
     0
1070
     0
1070
     0
1070
     0
1040
0.0
1040
0.0
1040
0.0
1040
10.0
1040
10.0
1040
10.0
1040
10.0
1070
     0
1002
{
1002
}
1002
}
  0
VIEWPORT
  5
FCC
 67
     1
  8
FINESTRA
 10
8.0458764239179423
 20
11.49693433107352
 30
0.0
 40
15.66853654318931
 41
22.524591180381261
 68
     2
 69
     2
1001
ACAD
1000
MVIEW
1002
{
1070
    16
1010
0.0
1020
0.0
1030
0.0
1010
0.0
1020
0.0
1030
1.0
1040
0.0
1040
16.93578284239193
1040
323.97544970150972
1040
37.685829707637652
1040
50.0
1040
0.0
1040
0.0
1070
     0
1070
   100
1070
     1
1070
     0
1070
     0
1070
     0
1070
     0
1070
     1
1040
0.0
1040
0.0
1040
0.0
1040
1.0
1040
1.0
1040
10.0
1040
10.0
1070
     0
1002
{
1002
}
1002
}
  0
ENDSEC
  0
EOF
