  0
SECTION
  2
HEADER
  9
$ACADVER
  1
AC1014
  9
$ACADMAINTVER
 70
     9
  9
$DWGCODEPAGE
  3
ANSI_1252
  9
$INSBASE
 10
0.0
 20
0.0
 30
0.0
  9
$EXTMIN
 10
321.0194410255871
 20
35.72610544614269
 30
-0.0000000000000058
  9
$EXTMAX
 10
326.3058480251415
 20
43.17086830429127
 30
0.0000000000000104
  9
$LIMMIN
 10
0.0
 20
0.0
  9
$LIMMAX
 10
410.0
 20
287.0
  9
$ORTHOMODE
 70
     0
  9
$REGENMODE
 70
     1
  9
$FILLMODE
 70
     1
  9
$QTEXTMODE
 70
     0
  9
$MIRRTEXT
 70
     1
  9
$DRAGMODE
 70
     2
  9
$LTSCALE
 40
25.0
  9
$OSMODE
 70
     1
  9
$ATTMODE
 70
     1
  9
$TEXTSIZE
 40
0.1
  9
$TRACEWID
 40
1.0
  9
$TEXTSTYLE
  7
ROMANC
  9
$CLAYER
  8
0
  9
$CELTYPE
  6
BYLAYER
  9
$CECOLOR
 62
   256
  9
$CELTSCALE
 40
1.0
  9
$DELOBJ
 70
     1
  9
$DISPSILH
 70
     0
  9
$DIMSCALE
 40
1.5
  9
$DIMASZ
 40
0.05
  9
$DIMEXO
 40
0.01
  9
$DIMDLI
 40
7.0
  9
$DIMRND
 40
0.0
  9
$DIMDLE
 40
0.0
  9
$DIMEXE
 40
0.01
  9
$DIMTP
 40
0.0
  9
$DIMTM
 40
0.0
  9
$DIMTXT
 40
0.05
  9
$DIMCEN
 40
0.0
  9
$DIMTSZ
 40
0.0
  9
$DIMTOL
 70
     0
  9
$DIMLIM
 70
     0
  9
$DIMTIH
 70
     0
  9
$DIMTOH
 70
     0
  9
$DIMSE1
 70
     0
  9
$DIMSE2
 70
     0
  9
$DIMTAD
 70
     1
  9
$DIMZIN
 70
     0
  9
$DIMBLK
  1
OBLIQUE
  9
$DIMASO
 70
     1
  9
$DIMSHO
 70
     0
  9
$DIMPOST
  1

  9
$DIMAPOST
  1

  9
$DIMALT
 70
     0
  9
$DIMALTD
 70
     2
  9
$DIMALTF
 40
25.4
  9
$DIMLFAC
 40
1.0
  9
$DIMTOFL
 70
     1
  9
$DIMTVP
 40
0.0
  9
$DIMTIX
 70
     1
  9
$DIMSOXD
 70
     0
  9
$DIMSAH
 70
     0
  9
$DIMBLK1
  1

  9
$DIMBLK2
  1

  9
$DIMSTYLE
  2
MERITXELL
  9
$DIMCLRD
 70
     0
  9
$DIMCLRE
 70
     0
  9
$DIMCLRT
 70
     0
  9
$DIMTFAC
 40
70.0
  9
$DIMGAP
 40
0.025
  9
$DIMJUST
 70
     0
  9
$DIMSD1
 70
     0
  9
$DIMSD2
 70
     0
  9
$DIMTOLJ
 70
     1
  9
$DIMTZIN
 70
     0
  9
$DIMALTZ
 70
     0
  9
$DIMALTTZ
 70
     0
  9
$DIMFIT
 70
     3
  9
$DIMUPT
 70
     0
  9
$DIMUNIT
 70
     2
  9
$DIMDEC
 70
     2
  9
$DIMTDEC
 70
     2
  9
$DIMALTU
 70
     2
  9
$DIMALTTD
 70
     2
  9
$DIMTXSTY
  7
ROMANC
  9
$DIMAUNIT
 70
     0
  9
$LUNITS
 70
     2
  9
$LUPREC
 70
     2
  9
$SKETCHINC
 40
1.0
  9
$FILLETRAD
 40
0.0
  9
$AUNITS
 70
     0
  9
$AUPREC
 70
     0
  9
$MENU
  1
acad
  9
$ELEVATION
 40
0.0
  9
$PELEVATION
 40
0.0
  9
$THICKNESS
 40
0.0
  9
$LIMCHECK
 70
     0
  9
$BLIPMODE
 70
     0
  9
$CHAMFERA
 40
0.0
  9
$CHAMFERB
 40
0.0
  9
$CHAMFERC
 40
0.0
  9
$CHAMFERD
 40
0.0
  9
$SKPOLY
 70
     0
  9
$TDCREATE
 40
2450927.503616667
  9
$TDUPDATE
 40
2452494.590900914
  9
$TDINDWG
 40
0.2660900463
  9
$TDUSRTIMER
 40
0.2660853125
  9
$USRTIMER
 70
     1
  9
$ANGBASE
 50
0.0
  9
$ANGDIR
 70
     0
  9
$PDMODE
 70
     0
  9
$PDSIZE
 40
0.0
  9
$PLINEWID
 40
0.0
  9
$COORDS
 70
     1
  9
$SPLFRAME
 70
     0
  9
$SPLINETYPE
 70
     6
  9
$SPLINESEGS
 70
     8
  9
$ATTDIA
 70
     0
  9
$ATTREQ
 70
     1
  9
$HANDLING
 70
 10241
  9
$HANDSEED
  5
13E2
  9
$SURFTAB1
 70
     6
  9
$SURFTAB2
 70
     6
  9
$SURFTYPE
 70
     6
  9
$SURFU
 70
     6
  9
$SURFV
 70
     6
  9
$UCSNAME
  2

  9
$UCSORG
 10
0.0
 20
0.0
 30
0.0
  9
$UCSXDIR
 10
1.0
 20
0.0
 30
0.0
  9
$UCSYDIR
 10
0.0
 20
1.0
 30
0.0
  9
$PUCSNAME
  2

  9
$PUCSORG
 10
0.0
 20
0.0
 30
0.0
  9
$PUCSXDIR
 10
1.0
 20
0.0
 30
0.0
  9
$PUCSYDIR
 10
0.0
 20
1.0
 30
0.0
  9
$USERI1
 70
     0
  9
$USERI2
 70
     0
  9
$USERI3
 70
     0
  9
$USERI4
 70
     0
  9
$USERI5
 70
     0
  9
$USERR1
 40
0.0
  9
$USERR2
 40
0.0
  9
$USERR3
 40
0.0
  9
$USERR4
 40
0.0
  9
$USERR5
 40
0.0
  9
$WORLDVIEW
 70
     1
  9
$SHADEDGE
 70
     3
  9
$SHADEDIF
 70
    70
  9
$TILEMODE
 70
     1
  9
$MAXACTVP
 70
    16
  9
$PINSBASE
 10
0.0
 20
0.0
 30
0.0
  9
$PLIMCHECK
 70
     0
  9
$PEXTMIN
 10
0.2112398939039579
 20
0.2346383041533784
 30
-0.0015258207003583
  9
$PEXTMAX
 10
7.732634235667847
 20
11.26153171017695
 30
0.0000000349246037
  9
$PLIMMIN
 10
-0.2417233276367187
 20
-0.2688165664672852
  9
$PLIMMAX
 10
8.160596618652341
 20
11.60822322845459
  9
$UNITMODE
 70
     0
  9
$VISRETAIN
 70
     0
  9
$PLINEGEN
 70
     0
  9
$PSLTSCALE
 70
     0
  9
$TREEDEPTH
 70
  3020
  9
$PICKSTYLE
 70
     1
  9
$CMLSTYLE
  2
STANDARD
  9
$CMLJUST
 70
     0
  9
$CMLSCALE
 40
1.0
  9
$PROXYGRAPHICS
 70
     1
  9
$MEASUREMENT
 70
     0
  0
ENDSEC
  0
SECTION
  2
CLASSES
  0
CLASS
  1
DICTIONARYVAR
  2
AcDbDictionaryVar
  3
AutoCAD 2000
 90
        0
280
     0
281
     0
  0
CLASS
  1
LWPOLYLINE
  2
AcDbPolyline
  3
AutoCAD 2000
 90
        0
280
     0
281
     1
  0
CLASS
  1
ACDBDICTIONARYWDFLT
  2
AcDbDictionaryWithDefault
  3
AutoCAD 2000
 90
        0
280
     0
281
     0
  0
CLASS
  1
ACDBPLACEHOLDER
  2
AcDbPlaceHolder
  3
AutoCAD 2000
 90
        0
280
     0
281
     0
  0
CLASS
  1
LAYOUT
  2
AcDbLayout
  3
AutoCAD 2000
 90
        0
280
     0
281
     0
  0
CLASS
  1
LONG_TRANSACTION
  2
AcDbLongTransaction
  3
AutoCAD 2000
 90
        0
280
     0
281
     0
  0
CLASS
  1
LWPOLYLINE
  2
AcDbPolyline
  3
AutoCAD 2000
 90
        0
280
     0
281
     1
  0
CLASS
  1
HATCH
  2
AcDbHatch
  3
AutoCAD 2000
 90
        0
280
     0
281
     1
  0
CLASS
  1
XRECORD
  2
AcDbXrecord
  3
AutoCAD 2000
 90
        0
280
     0
281
     0
  0
CLASS
  1
LONG_TRANSACTION
  2
AcDbLongTransaction
  3
AutoCAD 2000
 90
        0
280
     0
281
     0
  0
CLASS
  1
LWPOLYLINE
  2
AcDbPolyline
  3
AutoCAD 2000
 90
        0
280
     0
281
     1
  0
CLASS
  1
HATCH
  2
AcDbHatch
  3
AutoCAD 2000
 90
        0
280
     0
281
     1
  0
CLASS
  1
XRECORD
  2
AcDbXrecord
  3
AutoCAD 2000
 90
        0
280
     0
281
     0
  0
CLASS
  1
LONG_TRANSACTION
  2
AcDbLongTransaction
  3
AutoCAD 2000
 90
        0
280
     0
281
     0
  0
CLASS
  1
LWPOLYLINE
  2
AcDbPolyline
  3
AutoCAD 2000
 90
        0
280
     0
281
     1
  0
CLASS
  1
HATCH
  2
AcDbHatch
  3
AutoCAD 2000
 90
        0
280
     0
281
     1
  0
CLASS
  1
XRECORD
  2
AcDbXrecord
  3
AutoCAD 2000
 90
        0
280
     0
281
     0
  0
CLASS
  1
LONG_TRANSACTION
  2
AcDbLongTransaction
  3
AutoCAD 2000
 90
        0
280
     0
281
     0
  0
CLASS
  1
LWPOLYLINE
  2
AcDbPolyline
  3
AutoCAD 2000
 90
        0
280
     0
281
     1
  0
CLASS
  1
HATCH
  2
AcDbHatch
  3
AutoCAD 2000
 90
        0
280
     0
281
     1
  0
CLASS
  1
XRECORD
  2
AcDbXrecord
  3
AutoCAD 2000
 90
        0
280
     0
281
     0
  0
CLASS
  1
LONG_TRANSACTION
  2
AcDbLongTransaction
  3
AutoCAD 2000
 90
        0
280
     0
281
     0
  0
CLASS
  1
LWPOLYLINE
  2
AcDbPolyline
  3
AutoCAD 2000
 90
        0
280
     0
281
     1
  0
CLASS
  1
HATCH
  2
AcDbHatch
  3
AutoCAD 2000
 90
        0
280
     0
281
     1
  0
CLASS
  1
XRECORD
  2
AcDbXrecord
  3
AutoCAD 2000
 90
        0
280
     0
281
     0
  0
ENDSEC
  0
SECTION
  2
TABLES
  0
TABLE
  2
VPORT
  5
8
330
0
100
AcDbSymbolTable
 70
     2
  0
VPORT
  5
13BE
330
8
100
AcDbSymbolTableRecord
100
AcDbViewportTableRecord
  2
*ACTIVE
 70
     0
 10
0.0
 20
0.0
 11
1.0
 21
1.0
 12
323.6626445253643
 22
39.44848687521697
 13
0.0
 23
0.0
 14
1.0
 24
1.0
 15
10.0
 25
10.0
 16
0.0
 26
0.0
 36
1.0
 17
0.0
 27
0.0
 37
0.0
 40
7.500045750659579
 41
1.421313506815365
 42
50.0
 43
0.0
 44
0.0
 50
0.0
 51
0.0
 71
     0
 72
   100
 73
     1
 74
     0
 75
     0
 76
     0
 77
     0
 78
     1
  0
ENDTAB
  0
TABLE
  2
LTYPE
  5
5
330
0
100
AcDbSymbolTable
 70
     1
  0
LTYPE
  5
11
330
5
100
AcDbSymbolTableRecord
100
AcDbLinetypeTableRecord
  2
BYBLOCK
 70
     0
  3

 72
    65
 73
     0
 40
0.0
  0
LTYPE
  5
12
330
5
100
AcDbSymbolTableRecord
100
AcDbLinetypeTableRecord
  2
BYLAYER
 70
     0
  3

 72
    65
 73
     0
 40
0.0
  0
LTYPE
  5
13
330
5
100
AcDbSymbolTableRecord
100
AcDbLinetypeTableRecord
  2
CONTINUOUS
 70
     0
  3
Solid line
 72
    65
 73
     0
 40
0.0
  0
ENDTAB
  0
TABLE
  2
LAYER
  5
2
330
0
100
AcDbSymbolTable
 70
     6
  0
LAYER
  5
E
330
2
100
AcDbSymbolTableRecord
100
AcDbLayerTableRecord
  2
0
 70
     0
 62
     7
  6
CONTINUOUS
  0
LAYER
  5
70C
330
2
100
AcDbSymbolTableRecord
100
AcDbLayerTableRecord
  2
DEFPOINTS
 70
     0
 62
     7
  6
CONTINUOUS
  0
LAYER
  5
908
330
2
100
AcDbSymbolTableRecord
100
AcDbLayerTableRecord
  2
COTES
 70
     0
 62
     4
  6
CONTINUOUS
  0
LAYER
  5
909
330
2
100
AcDbSymbolTableRecord
100
AcDbLayerTableRecord
  2
SECCIO
 70
     0
 62
    30
  6
CONTINUOUS
  0
LAYER
  5
FD0
330
2
100
AcDbSymbolTableRecord
100
AcDbLayerTableRecord
  2
FINESTRA
 70
     0
 62
     7
  6
CONTINUOUS
  0
LAYER
  5
1204
330
2
100
AcDbSymbolTableRecord
100
AcDbLayerTableRecord
  2
NO_PRINT
 70
     0
 62
     7
  6
CONTINUOUS
  0
ENDTAB
  0
TABLE
  2
STYLE
  5
3
330
0
100
AcDbSymbolTable
 70
     2
  0
STYLE
  5
F
330
3
100
AcDbSymbolTableRecord
100
AcDbTextStyleTableRecord
  2
STANDARD
 70
     0
 40
0.0
 41
1.0
 50
0.0
 71
     0
 42
0.1
  3
txt
  4

  0
STYLE
  5
1C
330
3
100
AcDbSymbolTableRecord
100
AcDbTextStyleTableRecord
  2
ROMANC
 70
     0
 40
0.0
 41
1.0
 50
0.0
 71
     0
 42
0.1
  3
romanc
  4

  0
ENDTAB
  0
TABLE
  2
VIEW
  5
6
330
0
100
AcDbSymbolTable
 70
     0
  0
ENDTAB
  0
TABLE
  2
UCS
  5
7
330
0
100
AcDbSymbolTable
 70
     0
  0
ENDTAB
  0
TABLE
  2
APPID
  5
9
330
0
100
AcDbSymbolTable
 70
     1
  0
APPID
  5
10
330
9
100
AcDbSymbolTableRecord
100
AcDbRegAppTableRecord
  2
ACAD
 70
     0
  0
ENDTAB
  0
TABLE
  2
DIMSTYLE
  5
A
330
0
100
AcDbSymbolTable
 70
     2
  0
DIMSTYLE
105
1F
102
{ACAD_REACTORS
330
12A0
330
12AD
102
}
330
A
100
AcDbSymbolTableRecord
100
AcDbDimStyleTableRecord
  2
MERITXELL
 70
     0
  3

  4

  5
OBLIQUE
  6

  7

 40
1.5
 41
0.05
 42
0.01
 43
7.0
 44
0.01
 45
0.0
 46
0.0
 47
0.0
 48
0.0
140
0.05
141
0.1
142
0.0
143
25.4
144
1.0
145
0.0
146
70.0
147
0.09
 71
     0
 72
     0
 73
     0
 74
     0
 75
     0
 76
     0
 77
     1
 78
     0
170
     0
171
     2
172
     1
173
     0
174
     1
175
     0
176
     0
177
     0
178
     0
270
     2
271
     2
272
     2
273
     2
274
     2
340
1C
275
     0
280
     0
281
     0
282
     0
283
     1
284
     0
285
     0
286
     0
287
     3
288
     0
  0
DIMSTYLE
105
90A
102
{ACAD_REACTORS
330
91D
330
91C
330
91B
330
91A
330
910
330
90F
330
90E
330
90D
330
90C
330
919
330
918
330
92B
330
92A
330
929
330
928
330
927
330
926
330
925
330
924
330
923
330
922
330
921
102
}
330
A
100
AcDbSymbolTableRecord
100
AcDbDimStyleTableRecord
  2
STANDARD
 70
     0
  3

  4

  5
TICK
  6

  7

 40
1.0
 41
0.05
 42
0.08
 43
0.08
 44
0.08
 45
0.0
 46
1.25
 47
0.0
 48
0.0
140
0.08
141
-0.08
142
0.0
143
0.039
144
1.0
145
1.0
146
1.0
147
0.08
 71
     0
 72
     0
 73
     0
 74
     0
 75
     0
 76
     0
 77
     0
 78
     0
170
     0
171
     2
172
     0
173
     0
174
     0
175
     0
176
    71
177
    71
178
     7
270
     2
271
     2
272
     2
273
     2
274
     2
340
F
275
     0
280
     0
281
     0
282
     0
283
     1
284
     0
285
     0
286
     0
287
     3
288
     0
  0
ENDTAB
  0
TABLE
  2
BLOCK_RECORD
  5
1
330
0
100
AcDbSymbolTable
 70
    38
  0
BLOCK_RECORD
  5
17
102
{ACAD_XDICTIONARY
360
11AB
102
}
330
1
100
AcDbSymbolTableRecord
100
AcDbBlockTableRecord
  2
*MODEL_SPACE
  0
BLOCK_RECORD
  5
14
102
{ACAD_XDICTIONARY
360
11A9
102
}
330
1
100
AcDbSymbolTableRecord
100
AcDbBlockTableRecord
  2
*PAPER_SPACE
  0
BLOCK_RECORD
  5
386
330
1
100
AcDbSymbolTableRecord
100
AcDbBlockTableRecord
  2
TICK
  0
BLOCK_RECORD
  5
7FF
330
1
100
AcDbSymbolTableRecord
100
AcDbBlockTableRecord
  2
*D1
  0
BLOCK_RECORD
  5
80B
330
1
100
AcDbSymbolTableRecord
100
AcDbBlockTableRecord
  2
*D2
  0
BLOCK_RECORD
  5
817
330
1
100
AcDbSymbolTableRecord
100
AcDbBlockTableRecord
  2
*D3
  0
BLOCK_RECORD
  5
820
330
1
100
AcDbSymbolTableRecord
100
AcDbBlockTableRecord
  2
*D4
  0
BLOCK_RECORD
  5
82D
330
1
100
AcDbSymbolTableRecord
100
AcDbBlockTableRecord
  2
*D5
  0
BLOCK_RECORD
  5
83A
330
1
100
AcDbSymbolTableRecord
100
AcDbBlockTableRecord
  2
*D6
  0
BLOCK_RECORD
  5
846
330
1
100
AcDbSymbolTableRecord
100
AcDbBlockTableRecord
  2
*D7
  0
BLOCK_RECORD
  5
852
330
1
100
AcDbSymbolTableRecord
100
AcDbBlockTableRecord
  2
*D8
  0
BLOCK_RECORD
  5
85E
330
1
100
AcDbSymbolTableRecord
100
AcDbBlockTableRecord
  2
*D9
  0
BLOCK_RECORD
  5
86B
330
1
100
AcDbSymbolTableRecord
100
AcDbBlockTableRecord
  2
*D10
  0
BLOCK_RECORD
  5
877
330
1
100
AcDbSymbolTableRecord
100
AcDbBlockTableRecord
  2
*D11
  0
BLOCK_RECORD
  5
884
330
1
100
AcDbSymbolTableRecord
100
AcDbBlockTableRecord
  2
*D12
  0
BLOCK_RECORD
  5
890
330
1
100
AcDbSymbolTableRecord
100
AcDbBlockTableRecord
  2
*D13
  0
BLOCK_RECORD
  5
89C
330
1
100
AcDbSymbolTableRecord
100
AcDbBlockTableRecord
  2
*D14
  0
BLOCK_RECORD
  5
8A8
330
1
100
AcDbSymbolTableRecord
100
AcDbBlockTableRecord
  2
*D15
  0
BLOCK_RECORD
  5
8B5
330
1
100
AcDbSymbolTableRecord
100
AcDbBlockTableRecord
  2
*D16
  0
BLOCK_RECORD
  5
8C1
330
1
100
AcDbSymbolTableRecord
100
AcDbBlockTableRecord
  2
*D17
  0
BLOCK_RECORD
  5
8CE
330
1
100
AcDbSymbolTableRecord
100
AcDbBlockTableRecord
  2
*D18
  0
BLOCK_RECORD
  5
8DA
330
1
100
AcDbSymbolTableRecord
100
AcDbBlockTableRecord
  2
*D19
  0
BLOCK_RECORD
  5
8E6
330
1
100
AcDbSymbolTableRecord
100
AcDbBlockTableRecord
  2
*D20
  0
BLOCK_RECORD
  5
8F2
330
1
100
AcDbSymbolTableRecord
100
AcDbBlockTableRecord
  2
*D21
  0
BLOCK_RECORD
  5
8FF
330
1
100
AcDbSymbolTableRecord
100
AcDbBlockTableRecord
  2
*D22
  0
BLOCK_RECORD
  5
90B
330
1
100
AcDbSymbolTableRecord
100
AcDbBlockTableRecord
  2
VILADOMAT
  0
BLOCK_RECORD
  5
1003
330
1
100
AcDbSymbolTableRecord
100
AcDbBlockTableRecord
  2
*D24
  0
BLOCK_RECORD
  5
1010
330
1
100
AcDbSymbolTableRecord
100
AcDbBlockTableRecord
  2
*D25
  0
BLOCK_RECORD
  5
102F
330
1
100
AcDbSymbolTableRecord
100
AcDbBlockTableRecord
  2
*D26
  0
BLOCK_RECORD
  5
103C
330
1
100
AcDbSymbolTableRecord
100
AcDbBlockTableRecord
  2
*D27
  0
BLOCK_RECORD
  5
1060
330
1
100
AcDbSymbolTableRecord
100
AcDbBlockTableRecord
  2
*D28
  0
BLOCK_RECORD
  5
1076
330
1
100
AcDbSymbolTableRecord
100
AcDbBlockTableRecord
  2
*D29
  0
BLOCK_RECORD
  5
1095
330
1
100
AcDbSymbolTableRecord
100
AcDbBlockTableRecord
  2
*D30
  0
BLOCK_RECORD
  5
11C2
330
1
100
AcDbSymbolTableRecord
100
AcDbBlockTableRecord
  2
*D31
  0
BLOCK_RECORD
  5
11CF
330
1
100
AcDbSymbolTableRecord
100
AcDbBlockTableRecord
  2
*D32
  0
BLOCK_RECORD
  5
11DB
330
1
100
AcDbSymbolTableRecord
100
AcDbBlockTableRecord
  2
_OBLIQUE
  0
BLOCK_RECORD
  5
122C
330
1
100
AcDbSymbolTableRecord
100
AcDbBlockTableRecord
  2
*D34
  0
BLOCK_RECORD
  5
123B
330
1
100
AcDbSymbolTableRecord
100
AcDbBlockTableRecord
  2
*D35
  0
BLOCK_RECORD
  5
12A1
330
1
100
AcDbSymbolTableRecord
100
AcDbBlockTableRecord
  2
*D36
  0
BLOCK_RECORD
  5
12AE
330
1
100
AcDbSymbolTableRecord
100
AcDbBlockTableRecord
  2
*D37
  0
ENDTAB
  0
ENDSEC
  0
SECTION
  2
BLOCKS
  0
BLOCK
  5
23
330
17
100
AcDbEntity
  8
0
100
AcDbBlockBegin
  2
*MODEL_SPACE
 70
     0
 10
0.0
 20
0.0
 30
0.0
  3
*MODEL_SPACE
  1

  0
ENDBLK
  5
24
330
17
100
AcDbEntity
  8
0
100
AcDbBlockEnd
  0
BLOCK
  5
21
330
14
100
AcDbEntity
 67
     1
  8
0
100
AcDbBlockBegin
  2
*PAPER_SPACE
 70
     0
 10
0.0
 20
0.0
 30
0.0
  3
*PAPER_SPACE
  1

  0
ENDBLK
  5
22
330
14
100
AcDbEntity
 67
     1
  8
0
100
AcDbBlockEnd
  0
BLOCK
  5
389
330
386
100
AcDbEntity
  8
0
100
AcDbBlockBegin
  2
TICK
 70
     0
 10
0.0
 20
0.0
 30
0.0
  3
TICK
  1

  0
LINE
  5
387
330
386
100
AcDbEntity
  8
0
  6
BYBLOCK
 62
     6
100
AcDbLine
 10
-1.0
 20
-1.0
 30
0.0
 11
1.0
 21
1.0
 31
0.0
  0
LINE
  5
388
330
386
100
AcDbEntity
  8
0
  6
BYBLOCK
 62
    71
100
AcDbLine
 10
0.0
 20
0.0
 30
0.0
 11
-1.0
 21
0.0
 31
0.0
  0
ENDBLK
  5
38A
330
386
100
AcDbEntity
  8
0
100
AcDbBlockEnd
  0
BLOCK
  5
809
330
7FF
100
AcDbEntity
  8
0
100
AcDbBlockBegin
  2
*D1
 70
     1
 10
0.0
 20
0.0
 30
0.0
  3
*D1
  1

  0
LINE
  5
800
330
7FF
100
AcDbEntity
  8
0
  6
BYBLOCK
 62
    71
100
AcDbLine
 10
142.0564547008901
 20
122.7782171102962
 30
0.0
 11
142.0564547008901
 21
123.0022307698278
 31
0.0
  0
LINE
  5
801
330
7FF
100
AcDbEntity
  8
0
  6
BYBLOCK
 62
    71
100
AcDbLine
 10
143.0564547008899
 20
122.7782171102962
 30
0.0
 11
143.0564547008899
 21
123.0022307698278
 31
0.0
  0
LINE
  5
802
330
7FF
100
AcDbEntity
  8
0
  6
BYBLOCK
 62
    71
100
AcDbLine
 10
142.1064547008901
 20
122.9222307698278
 30
0.0
 11
143.0064547008899
 21
122.9222307698278
 31
0.0
  0
INSERT
  5
803
330
7FF
100
AcDbEntity
  8
0
  6
BYBLOCK
 62
    71
100
AcDbBlockReference
  2
TICK
 10
142.0564547008901
 20
122.9222307698278
 30
0.0
 41
0.05
 42
0.05
 43
0.05
 50
180.0
  0
INSERT
  5
804
330
7FF
100
AcDbEntity
  8
0
  6
BYBLOCK
 62
    71
100
AcDbBlockReference
  2
TICK
 10
143.0564547008899
 20
122.9222307698278
 30
0.0
 41
0.05
 42
0.05
 43
0.05
  0
TEXT
  5
805
330
7FF
100
AcDbEntity
  8
0
  6
BYBLOCK
 62
     7
100
AcDbText
 10
142.4631213675567
 20
122.9622307698277
 30
0.0
 40
0.08
  1
1.00
 72
     1
 11
142.5564547008901
 21
123.0022307698278
 31
0.0
100
AcDbText
 73
     2
  0
POINT
  5
806
330
7FF
100
AcDbEntity
  8
DEFPOINTS
  6
BYBLOCK
 62
     0
100
AcDbPoint
 10
142.0564547008901
 20
122.6982171102962
 30
0.0
  0
POINT
  5
807
330
7FF
100
AcDbEntity
  8
DEFPOINTS
  6
BYBLOCK
 62
     0
100
AcDbPoint
 10
143.0564547008899
 20
122.6982171102962
 30
0.0
  0
POINT
  5
808
330
7FF
100
AcDbEntity
  8
DEFPOINTS
  6
BYBLOCK
 62
     0
100
AcDbPoint
 10
143.0564547008899
 20
122.9222307698278
 30
0.0
  0
ENDBLK
  5
80A
330
7FF
100
AcDbEntity
  8
0
100
AcDbBlockEnd
  0
BLOCK
  5
815
330
80B
100
AcDbEntity
  8
0
100
AcDbBlockBegin
  2
*D2
 70
     1
 10
0.0
 20
0.0
 30
0.0
  3
*D2
  1

  0
LINE
  5
80C
330
80B
100
AcDbEntity
  8
0
  6
BYBLOCK
 62
    71
100
AcDbLine
 10
143.0564547008899
 20
122.7782171102962
 30
0.0
 11
143.0564547008899
 21
123.0022307698278
 31
0.0
  0
LINE
  5
80D
330
80B
100
AcDbEntity
  8
0
  6
BYBLOCK
 62
    71
100
AcDbLine
 10
144.0564547008901
 20
122.4782171102962
 30
0.0
 11
144.0564547008901
 21
123.0022307698278
 31
0.0
  0
LINE
  5
80E
330
80B
100
AcDbEntity
  8
0
  6
BYBLOCK
 62
    71
100
AcDbLine
 10
143.1064547008901
 20
122.9222307698278
 30
0.0
 11
144.0064547008899
 21
122.9222307698278
 31
0.0
  0
INSERT
  5
80F
330
80B
100
AcDbEntity
  8
0
  6
BYBLOCK
 62
    71
100
AcDbBlockReference
  2
TICK
 10
143.0564547008899
 20
122.9222307698278
 30
0.0
 41
0.05
 42
0.05
 43
0.05
 50
180.0
  0
INSERT
  5
810
330
80B
100
AcDbEntity
  8
0
  6
BYBLOCK
 62
    71
100
AcDbBlockReference
  2
TICK
 10
144.0564547008901
 20
122.9222307698278
 30
0.0
 41
0.05
 42
0.05
 43
0.05
  0
TEXT
  5
811
330
80B
100
AcDbEntity
  8
0
  6
BYBLOCK
 62
     7
100
AcDbText
 10
143.4631213675567
 20
122.9622307698277
 30
0.0
 40
0.08
  1
1.00
 72
     1
 11
143.5564547008901
 21
123.0022307698278
 31
0.0
100
AcDbText
 73
     2
  0
POINT
  5
812
330
80B
100
AcDbEntity
  8
DEFPOINTS
  6
BYBLOCK
 62
     0
100
AcDbPoint
 10
143.0564547008899
 20
122.6982171102962
 30
0.0
  0
POINT
  5
813
330
80B
100
AcDbEntity
  8
DEFPOINTS
  6
BYBLOCK
 62
     0
100
AcDbPoint
 10
144.0564547008901
 20
122.3982171102962
 30
0.0
  0
POINT
  5
814
330
80B
100
AcDbEntity
  8
DEFPOINTS
  6
BYBLOCK
 62
     0
100
AcDbPoint
 10
144.0564547008901
 20
122.9222307698278
 30
0.0
  0
ENDBLK
  5
816
330
80B
100
AcDbEntity
  8
0
100
AcDbBlockEnd
  0
BLOCK
  5
81E
330
817
100
AcDbEntity
  8
0
100
AcDbBlockBegin
  2
*D3
 70
     1
 10
0.0
 20
0.0
 30
0.0
  3
*D3
  1

  0
LINE
  5
818
330
817
100
AcDbEntity
  8
0
  6
BYBLOCK
 62
    71
100
AcDbLine
 10
143.0564547008899
 20
124.9482171102962
 30
0.0
 11
143.0564547008899
 21
124.5130954532914
 31
0.0
  0
LINE
  5
819
330
817
100
AcDbEntity
  8
0
  6
BYBLOCK
 62
    71
100
AcDbLine
 10
143.0564547008899
 20
124.5130954532914
 30
0.0
 11
143.0564547008899
 21
124.1130954532912
 31
0.0
  0
INSERT
  5
81A
330
817
100
AcDbEntity
  8
0
  6
BYBLOCK
 62
    71
100
AcDbBlockReference
  2
TICK
 10
143.0564547008899
 20
124.9982171102962
 30
0.0
 41
0.05
 42
0.05
 43
0.05
 50
90.0
  0
TEXT
  5
81B
330
817
100
AcDbEntity
  8
0
  6
BYBLOCK
 62
     7
100
AcDbText
 10
143.0164547008901
 20
124.139762119958
 30
0.0
 40
0.08
  1
R1.00
 50
90.0
 72
     1
 11
142.9764547008901
 21
124.2730954532914
 31
0.0
100
AcDbText
 73
     2
  0
POINT
  5
81C
330
817
100
AcDbEntity
  8
DEFPOINTS
  6
BYBLOCK
 62
     0
100
AcDbPoint
 10
143.0564547008899
 20
124.9982171102962
 30
0.0
  0
POINT
  5
81D
330
817
100
AcDbEntity
  8
DEFPOINTS
  6
BYBLOCK
 62
     0
100
AcDbPoint
 10
143.0564547008899
 20
123.9982171102962
 30
0.0
  0
ENDBLK
  5
81F
330
817
100
AcDbEntity
  8
0
100
AcDbBlockEnd
  0
BLOCK
  5
82B
330
820
100
AcDbEntity
  8
0
100
AcDbBlockBegin
  2
*D4
 70
     1
 10
0.0
 20
0.0
 30
0.0
  3
*D4
  1

  0
LINE
  5
821
330
820
100
AcDbEntity
  8
0
  6
BYBLOCK
 62
    71
100
AcDbLine
 10
141.8064547008901
 20
122.0182171102963
 30
0.0
 11
141.8064547008901
 21
121.6547504873182
 31
0.0
  0
LINE
  5
822
330
820
100
AcDbEntity
  8
0
  6
BYBLOCK
 62
    71
100
AcDbLine
 10
142.0564547008901
 20
122.0164219618107
 30
0.0
 11
142.0564547008901
 21
121.6547504873182
 31
0.0
  0
LINE
  5
823
330
820
100
AcDbEntity
  8
0
  6
BYBLOCK
 62
    71
100
AcDbLine
 10
141.7564547008899
 20
121.7347504873182
 30
0.0
 11
141.7064547008901
 21
121.7347504873182
 31
0.0
  0
LINE
  5
824
330
820
100
AcDbEntity
  8
0
  6
BYBLOCK
 62
    71
100
AcDbLine
 10
142.1064547008901
 20
121.7347504873182
 30
0.0
 11
142.1564547008899
 21
121.7347504873182
 31
0.0
  0
INSERT
  5
825
330
820
100
AcDbEntity
  8
0
  6
BYBLOCK
 62
    71
100
AcDbBlockReference
  2
TICK
 10
141.8064547008901
 20
121.7347504873182
 30
0.0
 41
0.05
 42
0.05
 43
0.05
  0
INSERT
  5
826
330
820
100
AcDbEntity
  8
0
  6
BYBLOCK
 62
    71
100
AcDbBlockReference
  2
TICK
 10
142.0564547008901
 20
121.7347504873182
 30
0.0
 41
0.05
 42
0.05
 43
0.05
 50
180.0
  0
TEXT
  5
827
330
820
100
AcDbEntity
  8
0
  6
BYBLOCK
 62
     7
100
AcDbText
 10
141.8129072631657
 20
121.5150813509253
 30
0.0
 40
0.08
  1
0.25
 72
     1
 11
141.9262405964991
 21
121.5550813509254
 31
0.0
100
AcDbText
 73
     2
  0
POINT
  5
828
330
820
100
AcDbEntity
  8
DEFPOINTS
  6
BYBLOCK
 62
     0
100
AcDbPoint
 10
141.8064547008901
 20
122.0982171102962
 30
0.0
  0
POINT
  5
829
330
820
100
AcDbEntity
  8
DEFPOINTS
  6
BYBLOCK
 62
     0
100
AcDbPoint
 10
142.0564547008901
 20
122.0964219618103
 30
0.0
  0
POINT
  5
82A
330
820
100
AcDbEntity
  8
DEFPOINTS
  6
BYBLOCK
 62
     0
100
AcDbPoint
 10
142.0564547008901
 20
121.7347504873182
 30
0.0
  0
ENDBLK
  5
82C
330
820
100
AcDbEntity
  8
0
100
AcDbBlockEnd
  0
BLOCK
  5
838
330
82D
100
AcDbEntity
  8
0
100
AcDbBlockBegin
  2
*D5
 70
     1
 10
0.0
 20
0.0
 30
0.0
  3
*D5
  1

  0
LINE
  5
82E
330
82D
100
AcDbEntity
  8
0
  6
BYBLOCK
 62
    71
100
AcDbLine
 10
144.0564547008901
 20
122.0189400884807
 30
0.0
 11
144.0564547008901
 21
121.655684509619
 31
0.0
  0
LINE
  5
82F
330
82D
100
AcDbEntity
  8
0
  6
BYBLOCK
 62
    71
100
AcDbLine
 10
144.3064547008899
 20
122.0182171102963
 30
0.0
 11
144.3064547008899
 21
121.655684509619
 31
0.0
  0
LINE
  5
830
330
82D
100
AcDbEntity
  8
0
  6
BYBLOCK
 62
    71
100
AcDbLine
 10
144.0064547008899
 20
121.735684509619
 30
0.0
 11
143.9564547008901
 21
121.735684509619
 31
0.0
  0
LINE
  5
831
330
82D
100
AcDbEntity
  8
0
  6
BYBLOCK
 62
    71
100
AcDbLine
 10
144.3564547008901
 20
121.735684509619
 30
0.0
 11
144.4064547008901
 21
121.735684509619
 31
0.0
  0
INSERT
  5
832
330
82D
100
AcDbEntity
  8
0
  6
BYBLOCK
 62
    71
100
AcDbBlockReference
  2
TICK
 10
144.0564547008901
 20
121.735684509619
 30
0.0
 41
0.05
 42
0.05
 43
0.05
  0
INSERT
  5
833
330
82D
100
AcDbEntity
  8
0
  6
BYBLOCK
 62
    71
100
AcDbBlockReference
  2
TICK
 10
144.3064547008899
 20
121.735684509619
 30
0.0
 41
0.05
 42
0.05
 43
0.05
 50
180.0
  0
TEXT
  5
834
330
82D
100
AcDbEntity
  8
0
  6
BYBLOCK
 62
     7
100
AcDbText
 10
144.084034134521
 20
121.5150813509253
 30
0.0
 40
0.08
  1
0.25
 72
     1
 11
144.1973674678544
 21
121.5550813509254
 31
0.0
100
AcDbText
 73
     2
  0
POINT
  5
835
330
82D
100
AcDbEntity
  8
DEFPOINTS
  6
BYBLOCK
 62
     0
100
AcDbPoint
 10
144.0564547008901
 20
122.0989400884808
 30
0.0
  0
POINT
  5
836
330
82D
100
AcDbEntity
  8
DEFPOINTS
  6
BYBLOCK
 62
     0
100
AcDbPoint
 10
144.3064547008899
 20
122.0982171102962
 30
0.0
  0
POINT
  5
837
330
82D
100
AcDbEntity
  8
DEFPOINTS
  6
BYBLOCK
 62
     0
100
AcDbPoint
 10
144.3064547008899
 20
121.735684509619
 30
0.0
  0
ENDBLK
  5
839
330
82D
100
AcDbEntity
  8
0
100
AcDbBlockEnd
  0
BLOCK
  5
844
330
83A
100
AcDbEntity
  8
0
100
AcDbBlockBegin
  2
*D6
 70
     1
 10
0.0
 20
0.0
 30
0.0
  3
*D6
  1

  0
LINE
  5
83B
330
83A
100
AcDbEntity
  8
0
  6
BYBLOCK
 62
    71
100
AcDbLine
 10
144.3864547008901
 20
122.0982171102962
 30
0.0
 11
144.9731539305435
 21
122.0982171102962
 31
0.0
  0
LINE
  5
83C
330
83A
100
AcDbEntity
  8
0
  6
BYBLOCK
 62
    71
100
AcDbLine
 10
144.3850215320364
 20
122.3982171102962
 30
0.0
 11
144.9731539305435
 21
122.3982171102962
 31
0.0
  0
LINE
  5
83D
330
83A
100
AcDbEntity
  8
0
  6
BYBLOCK
 62
    71
100
AcDbLine
 10
144.8931539305434
 20
122.1482171102962
 30
0.0
 11
144.8931539305434
 21
122.3482171102959
 31
0.0
  0
INSERT
  5
83E
330
83A
100
AcDbEntity
  8
0
  6
BYBLOCK
 62
    71
100
AcDbBlockReference
  2
TICK
 10
144.8931539305434
 20
122.0982171102962
 30
0.0
 41
0.05
 42
0.05
 43
0.05
 50
270.0
  0
INSERT
  5
83F
330
83A
100
AcDbEntity
  8
0
  6
BYBLOCK
 62
    71
100
AcDbBlockReference
  2
TICK
 10
144.8931539305434
 20
122.3982171102962
 30
0.0
 41
0.05
 42
0.05
 43
0.05
 50
90.0
  0
TEXT
  5
840
330
83A
100
AcDbEntity
  8
0
  6
BYBLOCK
 62
     7
100
AcDbText
 10
145.0832795267952
 20
122.1504496643212
 30
0.0
 40
0.08
  1
0.30
 50
90.0
 72
     1
 11
145.0432795267952
 21
122.2571163309879
 31
0.0
100
AcDbText
 73
     2
  0
POINT
  5
841
330
83A
100
AcDbEntity
  8
DEFPOINTS
  6
BYBLOCK
 62
     0
100
AcDbPoint
 10
144.3064547008899
 20
122.0982171102962
 30
0.0
  0
POINT
  5
842
330
83A
100
AcDbEntity
  8
DEFPOINTS
  6
BYBLOCK
 62
     0
100
AcDbPoint
 10
144.3050215320361
 20
122.3982171102962
 30
0.0
  0
POINT
  5
843
330
83A
100
AcDbEntity
  8
DEFPOINTS
  6
BYBLOCK
 62
     0
100
AcDbPoint
 10
144.8931539305434
 20
122.3982171102962
 30
0.0
  0
ENDBLK
  5
845
330
83A
100
AcDbEntity
  8
0
100
AcDbBlockEnd
  0
BLOCK
  5
850
330
846
100
AcDbEntity
  8
0
100
AcDbBlockBegin
  2
*D7
 70
     1
 10
0.0
 20
0.0
 30
0.0
  3
*D7
  1

  0
LINE
  5
847
330
846
100
AcDbEntity
  8
0
  6
BYBLOCK
 62
    71
100
AcDbLine
 10
144.3850215320364
 20
122.3982171102962
 30
0.0
 11
144.9731539305435
 21
122.3982171102962
 31
0.0
  0
LINE
  5
848
330
846
100
AcDbEntity
  8
0
  6
BYBLOCK
 62
    71
100
AcDbLine
 10
144.3871490056233
 20
124.0019798712444
 30
0.0
 11
144.9731539305435
 21
124.0019798712444
 31
0.0
  0
LINE
  5
849
330
846
100
AcDbEntity
  8
0
  6
BYBLOCK
 62
    71
100
AcDbLine
 10
144.8931539305434
 20
122.4482171102962
 30
0.0
 11
144.8931539305434
 21
123.9519798712444
 31
0.0
  0
INSERT
  5
84A
330
846
100
AcDbEntity
  8
0
  6
BYBLOCK
 62
    71
100
AcDbBlockReference
  2
TICK
 10
144.8931539305434
 20
122.3982171102962
 30
0.0
 41
0.05
 42
0.05
 43
0.05
 50
270.0
  0
INSERT
  5
84B
330
846
100
AcDbEntity
  8
0
  6
BYBLOCK
 62
    71
100
AcDbBlockReference
  2
TICK
 10
144.8931539305434
 20
124.0019798712444
 30
0.0
 41
0.05
 42
0.05
 43
0.05
 50
90.0
  0
TEXT
  5
84C
330
846
100
AcDbEntity
  8
0
  6
BYBLOCK
 62
     7
100
AcDbText
 10
144.8531539305434
 20
123.1000984907702
 30
0.0
 40
0.08
  1
1.60
 50
90.0
 72
     1
 11
144.8131539305435
 21
123.2000984907702
 31
0.0
100
AcDbText
 73
     2
  0
POINT
  5
84D
330
846
100
AcDbEntity
  8
DEFPOINTS
  6
BYBLOCK
 62
     0
100
AcDbPoint
 10
144.3050215320361
 20
122.3982171102962
 30
0.0
  0
POINT
  5
84E
330
846
100
AcDbEntity
  8
DEFPOINTS
  6
BYBLOCK
 62
     0
100
AcDbPoint
 10
144.3071490056235
 20
124.0019798712444
 30
0.0
  0
POINT
  5
84F
330
846
100
AcDbEntity
  8
DEFPOINTS
  6
BYBLOCK
 62
     0
100
AcDbPoint
 10
144.8931539305434
 20
124.0019798712444
 30
0.0
  0
ENDBLK
  5
851
330
846
100
AcDbEntity
  8
0
100
AcDbBlockEnd
  0
BLOCK
  5
85C
330
852
100
AcDbEntity
  8
0
100
AcDbBlockBegin
  2
*D8
 70
     1
 10
0.0
 20
0.0
 30
0.0
  3
*D8
  1

  0
LINE
  5
853
330
852
100
AcDbEntity
  8
0
  6
BYBLOCK
 62
    71
100
AcDbLine
 10
144.3850215320364
 20
124.0019798712444
 30
0.0
 11
144.9731539305435
 21
124.0019798712444
 31
0.0
  0
LINE
  5
854
330
852
100
AcDbEntity
  8
0
  6
BYBLOCK
 62
    71
100
AcDbLine
 10
143.9715221527213
 20
124.9982171102962
 30
0.0
 11
144.9731539305435
 21
124.9982171102962
 31
0.0
  0
LINE
  5
855
330
852
100
AcDbEntity
  8
0
  6
BYBLOCK
 62
    71
100
AcDbLine
 10
144.8931539305434
 20
124.0519798712444
 30
0.0
 11
144.8931539305434
 21
124.9482171102962
 31
0.0
  0
INSERT
  5
856
330
852
100
AcDbEntity
  8
0
  6
BYBLOCK
 62
    71
100
AcDbBlockReference
  2
TICK
 10
144.8931539305434
 20
124.0019798712444
 30
0.0
 41
0.05
 42
0.05
 43
0.05
 50
270.0
  0
INSERT
  5
857
330
852
100
AcDbEntity
  8
0
  6
BYBLOCK
 62
    71
100
AcDbBlockReference
  2
TICK
 10
144.8931539305434
 20
124.9982171102962
 30
0.0
 41
0.05
 42
0.05
 43
0.05
 50
90.0
  0
TEXT
  5
858
330
852
100
AcDbEntity
  8
0
  6
BYBLOCK
 62
     7
100
AcDbText
 10
144.8531539305434
 20
124.4067651574369
 30
0.0
 40
0.08
  1
1.00
 50
90.0
 72
     1
 11
144.8131539305435
 21
124.5000984907703
 31
0.0
100
AcDbText
 73
     2
  0
POINT
  5
859
330
852
100
AcDbEntity
  8
DEFPOINTS
  6
BYBLOCK
 62
     0
100
AcDbPoint
 10
144.3050215320361
 20
124.0019798712444
 30
0.0
  0
POINT
  5
85A
330
852
100
AcDbEntity
  8
DEFPOINTS
  6
BYBLOCK
 62
     0
100
AcDbPoint
 10
143.8915221527215
 20
124.9982171102962
 30
0.0
  0
POINT
  5
85B
330
852
100
AcDbEntity
  8
DEFPOINTS
  6
BYBLOCK
 62
     0
100
AcDbPoint
 10
144.8931539305434
 20
124.9982171102962
 30
0.0
  0
ENDBLK
  5
85D
330
852
100
AcDbEntity
  8
0
100
AcDbBlockEnd
  0
BLOCK
  5
869
330
85E
100
AcDbEntity
  8
0
100
AcDbBlockBegin
  2
*D9
 70
     1
 10
0.0
 20
0.0
 30
0.0
  3
*D9
  1

  0
LINE
  5
85F
330
85E
100
AcDbEntity
  8
0
  6
BYBLOCK
 62
    71
100
AcDbLine
 10
143.884654709072
 20
124.9982171102962
 30
0.0
 11
144.9731539305435
 21
124.9982171102962
 31
0.0
  0
LINE
  5
860
330
85E
100
AcDbEntity
  8
0
  6
BYBLOCK
 62
    71
100
AcDbLine
 10
143.3922528000003
 20
125.2482171102962
 30
0.0
 11
144.9731539305435
 21
125.2482171102962
 31
0.0
  0
LINE
  5
861
330
85E
100
AcDbEntity
  8
0
  6
BYBLOCK
 62
    71
100
AcDbLine
 10
144.8931539305434
 20
124.9482171102962
 30
0.0
 11
144.8931539305434
 21
124.8982171102962
 31
0.0
  0
LINE
  5
862
330
85E
100
AcDbEntity
  8
0
  6
BYBLOCK
 62
    71
100
AcDbLine
 10
144.8931539305434
 20
125.2982171102962
 30
0.0
 11
144.8931539305434
 21
125.3482171102962
 31
0.0
  0
INSERT
  5
863
330
85E
100
AcDbEntity
  8
0
  6
BYBLOCK
 62
    71
100
AcDbBlockReference
  2
TICK
 10
144.8931539305434
 20
124.9982171102962
 30
0.0
 41
0.05
 42
0.05
 43
0.05
 50
90.0
  0
INSERT
  5
864
330
85E
100
AcDbEntity
  8
0
  6
BYBLOCK
 62
    71
100
AcDbBlockReference
  2
TICK
 10
144.8931539305434
 20
125.2482171102962
 30
0.0
 41
0.05
 42
0.05
 43
0.05
 50
270.0
  0
TEXT
  5
865
330
85E
100
AcDbEntity
  8
0
  6
BYBLOCK
 62
     7
100
AcDbText
 10
145.0764592639248
 20
125.0268973837714
 30
0.0
 40
0.08
  1
0.25
 50
90.0
 72
     1
 11
145.0364592639249
 21
125.1402307171048
 31
0.0
100
AcDbText
 73
     2
  0
POINT
  5
866
330
85E
100
AcDbEntity
  8
DEFPOINTS
  6
BYBLOCK
 62
     0
100
AcDbPoint
 10
143.804654709072
 20
124.9982171102962
 30
0.0
  0
POINT
  5
867
330
85E
100
AcDbEntity
  8
DEFPOINTS
  6
BYBLOCK
 62
     0
100
AcDbPoint
 10
143.3122528000004
 20
125.2482171102962
 30
0.0
  0
POINT
  5
868
330
85E
100
AcDbEntity
  8
DEFPOINTS
  6
BYBLOCK
 62
     0
100
AcDbPoint
 10
144.8931539305434
 20
125.2482171102962
 30
0.0
  0
ENDBLK
  5
86A
330
85E
100
AcDbEntity
  8
0
100
AcDbBlockEnd
  0
BLOCK
  5
875
330
86B
100
AcDbEntity
  8
0
100
AcDbBlockBegin
  2
*D10
 70
     1
 10
0.0
 20
0.0
 30
0.0
  3
*D10
  1

  0
LINE
  5
86C
330
86B
100
AcDbEntity
  8
0
  6
BYBLOCK
 62
    71
100
AcDbLine
 10
143.1364547008901
 20
122.3982171102962
 30
0.0
 11
143.3565591996224
 21
122.3982171102962
 31
0.0
  0
LINE
  5
86D
330
86B
100
AcDbEntity
  8
0
  6
BYBLOCK
 62
    71
100
AcDbLine
 10
143.1364547008901
 20
122.6982171102962
 30
0.0
 11
143.3565591996224
 21
122.6982171102962
 31
0.0
  0
LINE
  5
86E
330
86B
100
AcDbEntity
  8
0
  6
BYBLOCK
 62
    71
100
AcDbLine
 10
143.2765591996224
 20
122.4482171102962
 30
0.0
 11
143.2765591996224
 21
122.6482171102962
 31
0.0
  0
INSERT
  5
86F
330
86B
100
AcDbEntity
  8
0
  6
BYBLOCK
 62
    71
100
AcDbBlockReference
  2
TICK
 10
143.2765591996224
 20
122.3982171102962
 30
0.0
 41
0.05
 42
0.05
 43
0.05
 50
270.0
  0
INSERT
  5
870
330
86B
100
AcDbEntity
  8
0
  6
BYBLOCK
 62
    71
100
AcDbBlockReference
  2
TICK
 10
143.2765591996224
 20
122.6982171102962
 30
0.0
 41
0.05
 42
0.05
 43
0.05
 50
90.0
  0
TEXT
  5
871
330
86B
100
AcDbEntity
  8
0
  6
BYBLOCK
 62
     7
100
AcDbText
 10
143.2186731828831
 20
122.4468488754007
 30
0.0
 40
0.08
  1
0.30
 50
90.0
 72
     1
 11
143.1786731828831
 21
122.5535155420674
 31
0.0
100
AcDbText
 73
     2
  0
POINT
  5
872
330
86B
100
AcDbEntity
  8
DEFPOINTS
  6
BYBLOCK
 62
     0
100
AcDbPoint
 10
143.0564547008899
 20
122.3982171102962
 30
0.0
  0
POINT
  5
873
330
86B
100
AcDbEntity
  8
DEFPOINTS
  6
BYBLOCK
 62
     0
100
AcDbPoint
 10
143.0564547008899
 20
122.6982171102962
 30
0.0
  0
POINT
  5
874
330
86B
100
AcDbEntity
  8
DEFPOINTS
  6
BYBLOCK
 62
     0
100
AcDbPoint
 10
143.2765591996224
 20
122.6982171102962
 30
0.0
  0
ENDBLK
  5
876
330
86B
100
AcDbEntity
  8
0
100
AcDbBlockEnd
  0
BLOCK
  5
882
330
877
100
AcDbEntity
  8
0
100
AcDbBlockBegin
  2
*D11
 70
     1
 10
0.0
 20
0.0
 30
0.0
  3
*D11
  1

  0
LINE
  5
878
330
877
100
AcDbEntity
  8
0
  6
BYBLOCK
 62
    71
100
AcDbLine
 10
142.0564547008901
 20
122.0164219618107
 30
0.0
 11
142.0564547008901
 21
121.655684509619
 31
0.0
  0
LINE
  5
879
330
877
100
AcDbEntity
  8
0
  6
BYBLOCK
 62
    71
100
AcDbLine
 10
144.0564547008901
 20
122.0189400884807
 30
0.0
 11
144.0564547008901
 21
121.655684509619
 31
0.0
  0
LINE
  5
87A
330
877
100
AcDbEntity
  8
0
  6
BYBLOCK
 62
    71
100
AcDbLine
 10
142.1064547008901
 20
121.735684509619
 30
0.0
 11
142.8837700001543
 21
121.735684509619
 31
0.0
  0
LINE
  5
87B
330
877
100
AcDbEntity
  8
0
  6
BYBLOCK
 62
    71
100
AcDbLine
 10
144.0064547008899
 20
121.735684509619
 30
0.0
 11
143.2875795239638
 21
121.735684509619
 31
0.0
  0
INSERT
  5
87C
330
877
100
AcDbEntity
  8
0
  6
BYBLOCK
 62
    71
100
AcDbBlockReference
  2
TICK
 10
142.0564547008901
 20
121.735684509619
 30
0.0
 41
0.05
 42
0.05
 43
0.05
 50
180.0
  0
INSERT
  5
87D
330
877
100
AcDbEntity
  8
0
  6
BYBLOCK
 62
    71
100
AcDbBlockReference
  2
TICK
 10
144.0564547008901
 20
121.735684509619
 30
0.0
 41
0.05
 42
0.05
 43
0.05
  0
TEXT
  5
87E
330
877
100
AcDbEntity
  8
0
  6
BYBLOCK
 62
     7
100
AcDbText
 10
142.9790080953922
 20
121.6922940680802
 30
0.0
 40
0.08
  1
2.00
 72
     1
 11
143.0856747620589
 21
121.7322940680803
 31
0.0
100
AcDbText
 73
     2
  0
POINT
  5
87F
330
877
100
AcDbEntity
  8
DEFPOINTS
  6
BYBLOCK
 62
     0
100
AcDbPoint
 10
142.0564547008901
 20
122.0964219618103
 30
0.0
  0
POINT
  5
880
330
877
100
AcDbEntity
  8
DEFPOINTS
  6
BYBLOCK
 62
     0
100
AcDbPoint
 10
144.0564547008901
 20
122.0989400884808
 30
0.0
  0
POINT
  5
881
330
877
100
AcDbEntity
  8
DEFPOINTS
  6
BYBLOCK
 62
     0
100
AcDbPoint
 10
144.0564547008901
 20
121.735684509619
 30
0.0
  0
ENDBLK
  5
883
330
877
100
AcDbEntity
  8
0
100
AcDbBlockEnd
  0
BLOCK
  5
88E
330
884
100
AcDbEntity
  8
0
100
AcDbBlockBegin
  2
*D12
 70
     1
 10
0.0
 20
0.0
 30
0.0
  3
*D12
  1

  0
LINE
  5
885
330
884
100
AcDbEntity
  8
0
  6
BYBLOCK
 62
    71
100
AcDbLine
 10
153.7029679050353
 20
123.0595630964863
 30
0.0
 11
153.7029679050353
 21
123.3287794918294
 31
0.0
  0
LINE
  5
886
330
884
100
AcDbEntity
  8
0
  6
BYBLOCK
 62
    71
100
AcDbLine
 10
154.7029679050353
 20
123.0595630964863
 30
0.0
 11
154.7029679050353
 21
123.3287794918294
 31
0.0
  0
LINE
  5
887
330
884
100
AcDbEntity
  8
0
  6
BYBLOCK
 62
    71
100
AcDbLine
 10
153.7529679050354
 20
123.2487794918295
 30
0.0
 11
154.6529679050354
 21
123.2487794918295
 31
0.0
  0
INSERT
  5
888
330
884
100
AcDbEntity
  8
0
  6
BYBLOCK
 62
    71
100
AcDbBlockReference
  2
TICK
 10
153.7029679050353
 20
123.2487794918295
 30
0.0
 41
0.05
 42
0.05
 43
0.05
 50
180.0
  0
INSERT
  5
889
330
884
100
AcDbEntity
  8
0
  6
BYBLOCK
 62
    71
100
AcDbBlockReference
  2
TICK
 10
154.7029679050353
 20
123.2487794918295
 30
0.0
 41
0.05
 42
0.05
 43
0.05
  0
TEXT
  5
88A
330
884
100
AcDbEntity
  8
0
  6
BYBLOCK
 62
     7
100
AcDbText
 10
154.109634571702
 20
123.2887794918294
 30
0.0
 40
0.08
  1
1.00
 72
     1
 11
154.2029679050354
 21
123.3287794918294
 31
0.0
100
AcDbText
 73
     2
  0
POINT
  5
88B
330
884
100
AcDbEntity
  8
DEFPOINTS
  6
BYBLOCK
 62
     0
100
AcDbPoint
 10
153.7029679050353
 20
122.9795630964862
 30
0.0
  0
POINT
  5
88C
330
884
100
AcDbEntity
  8
DEFPOINTS
  6
BYBLOCK
 62
     0
100
AcDbPoint
 10
154.7029679050353
 20
122.9795630964862
 30
0.0
  0
POINT
  5
88D
330
884
100
AcDbEntity
  8
DEFPOINTS
  6
BYBLOCK
 62
     0
100
AcDbPoint
 10
154.7029679050353
 20
123.2487794918295
 30
0.0
  0
ENDBLK
  5
88F
330
884
100
AcDbEntity
  8
0
100
AcDbBlockEnd
  0
BLOCK
  5
89A
330
890
100
AcDbEntity
  8
0
100
AcDbBlockBegin
  2
*D13
 70
     1
 10
0.0
 20
0.0
 30
0.0
  3
*D13
  1

  0
LINE
  5
891
330
890
100
AcDbEntity
  8
0
  6
BYBLOCK
 62
    71
100
AcDbLine
 10
154.7029679050353
 20
123.0595630964863
 30
0.0
 11
154.7029679050353
 21
123.3287794918294
 31
0.0
  0
LINE
  5
892
330
890
100
AcDbEntity
  8
0
  6
BYBLOCK
 62
    71
100
AcDbLine
 10
155.5029679050354
 20
122.7595630964863
 30
0.0
 11
155.5029679050354
 21
123.3287794918294
 31
0.0
  0
LINE
  5
893
330
890
100
AcDbEntity
  8
0
  6
BYBLOCK
 62
    71
100
AcDbLine
 10
154.7529679050354
 20
123.2487794918295
 30
0.0
 11
155.4529679050354
 21
123.2487794918295
 31
0.0
  0
INSERT
  5
894
330
890
100
AcDbEntity
  8
0
  6
BYBLOCK
 62
    71
100
AcDbBlockReference
  2
TICK
 10
154.7029679050353
 20
123.2487794918295
 30
0.0
 41
0.05
 42
0.05
 43
0.05
 50
180.0
  0
INSERT
  5
895
330
890
100
AcDbEntity
  8
0
  6
BYBLOCK
 62
    71
100
AcDbBlockReference
  2
TICK
 10
155.5029679050354
 20
123.2487794918295
 30
0.0
 41
0.05
 42
0.05
 43
0.05
  0
TEXT
  5
896
330
890
100
AcDbEntity
  8
0
  6
BYBLOCK
 62
     7
100
AcDbText
 10
154.9963012383686
 20
123.2887794918294
 30
0.0
 40
0.08
  1
0.80
 72
     1
 11
155.1029679050353
 21
123.3287794918294
 31
0.0
100
AcDbText
 73
     2
  0
POINT
  5
897
330
890
100
AcDbEntity
  8
DEFPOINTS
  6
BYBLOCK
 62
     0
100
AcDbPoint
 10
154.7029679050353
 20
122.9795630964862
 30
0.0
  0
POINT
  5
898
330
890
100
AcDbEntity
  8
DEFPOINTS
  6
BYBLOCK
 62
     0
100
AcDbPoint
 10
155.5029679050354
 20
122.6795630964863
 30
0.0
  0
POINT
  5
899
330
890
100
AcDbEntity
  8
DEFPOINTS
  6
BYBLOCK
 62
     0
100
AcDbPoint
 10
155.5029679050354
 20
123.2487794918295
 30
0.0
  0
ENDBLK
  5
89B
330
890
100
AcDbEntity
  8
0
100
AcDbBlockEnd
  0
BLOCK
  5
8A6
330
89C
100
AcDbEntity
  8
0
100
AcDbBlockBegin
  2
*D14
 70
     1
 10
0.0
 20
0.0
 30
0.0
  3
*D14
  1

  0
LINE
  5
89D
330
89C
100
AcDbEntity
  8
0
  6
BYBLOCK
 62
    71
100
AcDbLine
 10
154.7829679050354
 20
122.6795630964863
 30
0.0
 11
155.079849440102
 21
122.6795630964863
 31
0.0
  0
LINE
  5
89E
330
89C
100
AcDbEntity
  8
0
  6
BYBLOCK
 62
    71
100
AcDbLine
 10
154.7829679050354
 20
122.9795630964862
 30
0.0
 11
155.079849440102
 21
122.9795630964862
 31
0.0
  0
LINE
  5
89F
330
89C
100
AcDbEntity
  8
0
  6
BYBLOCK
 62
    71
100
AcDbLine
 10
154.9998494401021
 20
122.7295630964863
 30
0.0
 11
154.9998494401021
 21
122.9295630964863
 31
0.0
  0
INSERT
  5
8A0
330
89C
100
AcDbEntity
  8
0
  6
BYBLOCK
 62
    71
100
AcDbBlockReference
  2
TICK
 10
154.9998494401021
 20
122.6795630964863
 30
0.0
 41
0.05
 42
0.05
 43
0.05
 50
270.0
  0
INSERT
  5
8A1
330
89C
100
AcDbEntity
  8
0
  6
BYBLOCK
 62
    71
100
AcDbBlockReference
  2
TICK
 10
154.9998494401021
 20
122.9795630964862
 30
0.0
 41
0.05
 42
0.05
 43
0.05
 50
90.0
  0
TEXT
  5
8A2
330
89C
100
AcDbEntity
  8
0
  6
BYBLOCK
 62
     7
100
AcDbText
 10
154.9598494401021
 20
122.7319089327306
 30
0.0
 40
0.08
  1
0.30
 50
90.0
 72
     1
 11
154.9198494401021
 21
122.8385755993973
 31
0.0
100
AcDbText
 73
     2
  0
POINT
  5
8A3
330
89C
100
AcDbEntity
  8
DEFPOINTS
  6
BYBLOCK
 62
     0
100
AcDbPoint
 10
154.7029679050353
 20
122.6795630964863
 30
0.0
  0
POINT
  5
8A4
330
89C
100
AcDbEntity
  8
DEFPOINTS
  6
BYBLOCK
 62
     0
100
AcDbPoint
 10
154.7029679050353
 20
122.9795630964862
 30
0.0
  0
POINT
  5
8A5
330
89C
100
AcDbEntity
  8
DEFPOINTS
  6
BYBLOCK
 62
     0
100
AcDbPoint
 10
154.9998494401021
 20
122.9795630964862
 30
0.0
  0
ENDBLK
  5
8A7
330
89C
100
AcDbEntity
  8
0
100
AcDbBlockEnd
  0
BLOCK
  5
8B3
330
8A8
100
AcDbEntity
  8
0
100
AcDbBlockBegin
  2
*D15
 70
     1
 10
0.0
 20
0.0
 30
0.0
  3
*D15
  1

  0
LINE
  5
8A9
330
8A8
100
AcDbEntity
  8
0
  6
BYBLOCK
 62
    71
100
AcDbLine
 10
153.4529679050353
 20
122.2995630964863
 30
0.0
 11
153.4529679050353
 21
121.9631349436115
 31
0.0
  0
LINE
  5
8AA
330
8A8
100
AcDbEntity
  8
0
  6
BYBLOCK
 62
    71
100
AcDbLine
 10
153.7029679050353
 20
122.2967412612234
 30
0.0
 11
153.7029679050353
 21
121.9631349436115
 31
0.0
  0
LINE
  5
8AB
330
8A8
100
AcDbEntity
  8
0
  6
BYBLOCK
 62
    71
100
AcDbLine
 10
153.4029679050354
 20
122.0431349436114
 30
0.0
 11
153.3529679050354
 21
122.0431349436114
 31
0.0
  0
LINE
  5
8AC
330
8A8
100
AcDbEntity
  8
0
  6
BYBLOCK
 62
    71
100
AcDbLine
 10
153.7529679050354
 20
122.0431349436114
 30
0.0
 11
153.8029679050353
 21
122.0431349436114
 31
0.0
  0
INSERT
  5
8AD
330
8A8
100
AcDbEntity
  8
0
  6
BYBLOCK
 62
    71
100
AcDbBlockReference
  2
TICK
 10
153.4529679050353
 20
122.0431349436114
 30
0.0
 41
0.05
 42
0.05
 43
0.05
  0
INSERT
  5
8AE
330
8A8
100
AcDbEntity
  8
0
  6
BYBLOCK
 62
    71
100
AcDbBlockReference
  2
TICK
 10
153.7029679050353
 20
122.0431349436114
 30
0.0
 41
0.05
 42
0.05
 43
0.05
 50
180.0
  0
TEXT
  5
8AF
330
8A8
100
AcDbEntity
  8
0
  6
BYBLOCK
 62
     7
100
AcDbText
 10
153.1477665491555
 20
122.0831349436114
 30
0.0
 40
0.08
  1
0.25
 72
     1
 11
153.2610998824889
 21
122.1231349436115
 31
0.0
100
AcDbText
 73
     2
  0
POINT
  5
8B0
330
8A8
100
AcDbEntity
  8
DEFPOINTS
  6
BYBLOCK
 62
     0
100
AcDbPoint
 10
153.4529679050353
 20
122.3795630964863
 30
0.0
  0
POINT
  5
8B1
330
8A8
100
AcDbEntity
  8
DEFPOINTS
  6
BYBLOCK
 62
     0
100
AcDbPoint
 10
153.7029679050353
 20
122.3767412612234
 30
0.0
  0
POINT
  5
8B2
330
8A8
100
AcDbEntity
  8
DEFPOINTS
  6
BYBLOCK
 62
     0
100
AcDbPoint
 10
153.7029679050353
 20
122.0431349436114
 30
0.0
  0
ENDBLK
  5
8B4
330
8A8
100
AcDbEntity
  8
0
100
AcDbBlockEnd
  0
BLOCK
  5
8BF
330
8B5
100
AcDbEntity
  8
0
100
AcDbBlockBegin
  2
*D16
 70
     1
 10
0.0
 20
0.0
 30
0.0
  3
*D16
  1

  0
LINE
  5
8B6
330
8B5
100
AcDbEntity
  8
0
  6
BYBLOCK
 62
    71
100
AcDbLine
 10
153.7029679050353
 20
122.2967412612234
 30
0.0
 11
153.7029679050353
 21
121.9631349436115
 31
0.0
  0
LINE
  5
8B7
330
8B5
100
AcDbEntity
  8
0
  6
BYBLOCK
 62
    71
100
AcDbLine
 10
155.5029679050354
 20
122.3002093719615
 30
0.0
 11
155.5029679050354
 21
121.9631349436115
 31
0.0
  0
LINE
  5
8B8
330
8B5
100
AcDbEntity
  8
0
  6
BYBLOCK
 62
    71
100
AcDbLine
 10
153.7529679050354
 20
122.0431349436114
 30
0.0
 11
155.4529679050354
 21
122.0431349436114
 31
0.0
  0
INSERT
  5
8B9
330
8B5
100
AcDbEntity
  8
0
  6
BYBLOCK
 62
    71
100
AcDbBlockReference
  2
TICK
 10
153.7029679050353
 20
122.0431349436114
 30
0.0
 41
0.05
 42
0.05
 43
0.05
 50
180.0
  0
INSERT
  5
8BA
330
8B5
100
AcDbEntity
  8
0
  6
BYBLOCK
 62
    71
100
AcDbBlockReference
  2
TICK
 10
155.5029679050354
 20
122.0431349436114
 30
0.0
 41
0.05
 42
0.05
 43
0.05
  0
TEXT
  5
8BB
330
8B5
100
AcDbEntity
  8
0
  6
BYBLOCK
 62
     7
100
AcDbText
 10
154.5029679050354
 20
122.0831349436114
 30
0.0
 40
0.08
  1
1.80
 72
     1
 11
154.6029679050354
 21
122.1231349436115
 31
0.0
100
AcDbText
 73
     2
  0
POINT
  5
8BC
330
8B5
100
AcDbEntity
  8
DEFPOINTS
  6
BYBLOCK
 62
     0
100
AcDbPoint
 10
153.7029679050353
 20
122.3767412612234
 30
0.0
  0
POINT
  5
8BD
330
8B5
100
AcDbEntity
  8
DEFPOINTS
  6
BYBLOCK
 62
     0
100
AcDbPoint
 10
155.5029679050354
 20
122.3802093719615
 30
0.0
  0
POINT
  5
8BE
330
8B5
100
AcDbEntity
  8
DEFPOINTS
  6
BYBLOCK
 62
     0
100
AcDbPoint
 10
155.5029679050354
 20
122.0431349436114
 30
0.0
  0
ENDBLK
  5
8C0
330
8B5
100
AcDbEntity
  8
0
100
AcDbBlockEnd
  0
BLOCK
  5
8CC
330
8C1
100
AcDbEntity
  8
0
100
AcDbBlockBegin
  2
*D17
 70
     1
 10
0.0
 20
0.0
 30
0.0
  3
*D17
  1

  0
LINE
  5
8C2
330
8C1
100
AcDbEntity
  8
0
  6
BYBLOCK
 62
    71
100
AcDbLine
 10
155.5029679050354
 20
122.3002093719615
 30
0.0
 11
155.5029679050354
 21
121.9631349436115
 31
0.0
  0
LINE
  5
8C3
330
8C1
100
AcDbEntity
  8
0
  6
BYBLOCK
 62
    71
100
AcDbLine
 10
155.7529679050354
 20
122.2995630964863
 30
0.0
 11
155.7529679050354
 21
121.9631349436115
 31
0.0
  0
LINE
  5
8C4
330
8C1
100
AcDbEntity
  8
0
  6
BYBLOCK
 62
    71
100
AcDbLine
 10
155.4529679050354
 20
122.0431349436114
 30
0.0
 11
155.4029679050354
 21
122.0431349436114
 31
0.0
  0
LINE
  5
8C5
330
8C1
100
AcDbEntity
  8
0
  6
BYBLOCK
 62
    71
100
AcDbLine
 10
155.8029679050353
 20
122.0431349436114
 30
0.0
 11
155.8529679050353
 21
122.0431349436114
 31
0.0
  0
INSERT
  5
8C6
330
8C1
100
AcDbEntity
  8
0
  6
BYBLOCK
 62
    71
100
AcDbBlockReference
  2
TICK
 10
155.5029679050354
 20
122.0431349436114
 30
0.0
 41
0.05
 42
0.05
 43
0.05
  0
INSERT
  5
8C7
330
8C1
100
AcDbEntity
  8
0
  6
BYBLOCK
 62
    71
100
AcDbBlockReference
  2
TICK
 10
155.7529679050354
 20
122.0431349436114
 30
0.0
 41
0.05
 42
0.05
 43
0.05
 50
180.0
  0
TEXT
  5
8C8
330
8C1
100
AcDbEntity
  8
0
  6
BYBLOCK
 62
     7
100
AcDbText
 10
155.8465484414471
 20
122.0831349436114
 30
0.0
 40
0.08
  1
0.25
 72
     1
 11
155.9598817747805
 21
122.1231349436115
 31
0.0
100
AcDbText
 73
     2
  0
POINT
  5
8C9
330
8C1
100
AcDbEntity
  8
DEFPOINTS
  6
BYBLOCK
 62
     0
100
AcDbPoint
 10
155.5029679050354
 20
122.3802093719615
 30
0.0
  0
POINT
  5
8CA
330
8C1
100
AcDbEntity
  8
DEFPOINTS
  6
BYBLOCK
 62
     0
100
AcDbPoint
 10
155.7529679050354
 20
122.3795630964863
 30
0.0
  0
POINT
  5
8CB
330
8C1
100
AcDbEntity
  8
DEFPOINTS
  6
BYBLOCK
 62
     0
100
AcDbPoint
 10
155.7529679050354
 20
122.0431349436114
 30
0.0
  0
ENDBLK
  5
8CD
330
8C1
100
AcDbEntity
  8
0
100
AcDbBlockEnd
  0
BLOCK
  5
8D8
330
8CE
100
AcDbEntity
  8
0
100
AcDbBlockBegin
  2
*D18
 70
     1
 10
0.0
 20
0.0
 30
0.0
  3
*D18
  1

  0
LINE
  5
8CF
330
8CE
100
AcDbEntity
  8
0
  6
BYBLOCK
 62
    71
100
AcDbLine
 10
155.8329679050354
 20
122.3795630964863
 30
0.0
 11
156.2310726707774
 21
122.3795630964863
 31
0.0
  0
LINE
  5
8D0
330
8CE
100
AcDbEntity
  8
0
  6
BYBLOCK
 62
    71
100
AcDbLine
 10
155.8338307698639
 20
122.6795630964863
 30
0.0
 11
156.2310726707774
 21
122.6795630964863
 31
0.0
  0
LINE
  5
8D1
330
8CE
100
AcDbEntity
  8
0
  6
BYBLOCK
 62
    71
100
AcDbLine
 10
156.1510726707775
 20
122.4295630964863
 30
0.0
 11
156.1510726707775
 21
122.6295630964863
 31
0.0
  0
INSERT
  5
8D2
330
8CE
100
AcDbEntity
  8
0
  6
BYBLOCK
 62
    71
100
AcDbBlockReference
  2
TICK
 10
156.1510726707775
 20
122.3795630964863
 30
0.0
 41
0.05
 42
0.05
 43
0.05
 50
270.0
  0
INSERT
  5
8D3
330
8CE
100
AcDbEntity
  8
0
  6
BYBLOCK
 62
    71
100
AcDbBlockReference
  2
TICK
 10
156.1510726707775
 20
122.6795630964863
 30
0.0
 41
0.05
 42
0.05
 43
0.05
 50
90.0
  0
TEXT
  5
8D4
330
8CE
100
AcDbEntity
  8
0
  6
BYBLOCK
 62
     7
100
AcDbText
 10
156.1110726707773
 20
122.426863623489
 30
0.0
 40
0.08
  1
0.30
 50
90.0
 72
     1
 11
156.0710726707774
 21
122.5335302901557
 31
0.0
100
AcDbText
 73
     2
  0
POINT
  5
8D5
330
8CE
100
AcDbEntity
  8
DEFPOINTS
  6
BYBLOCK
 62
     0
100
AcDbPoint
 10
155.7529679050354
 20
122.3795630964863
 30
0.0
  0
POINT
  5
8D6
330
8CE
100
AcDbEntity
  8
DEFPOINTS
  6
BYBLOCK
 62
     0
100
AcDbPoint
 10
155.7538307698639
 20
122.6795630964863
 30
0.0
  0
POINT
  5
8D7
330
8CE
100
AcDbEntity
  8
DEFPOINTS
  6
BYBLOCK
 62
     0
100
AcDbPoint
 10
156.1510726707775
 20
122.6795630964863
 30
0.0
  0
ENDBLK
  5
8D9
330
8CE
100
AcDbEntity
  8
0
100
AcDbBlockEnd
  0
BLOCK
  5
8E4
330
8DA
100
AcDbEntity
  8
0
100
AcDbBlockBegin
  2
*D19
 70
     1
 10
0.0
 20
0.0
 30
0.0
  3
*D19
  1

  0
LINE
  5
8DB
330
8DA
100
AcDbEntity
  8
0
  6
BYBLOCK
 62
    71
100
AcDbLine
 10
155.8338307698639
 20
122.6795630964863
 30
0.0
 11
156.2310726707774
 21
122.6795630964863
 31
0.0
  0
LINE
  5
8DC
330
8DA
100
AcDbEntity
  8
0
  6
BYBLOCK
 62
    71
100
AcDbLine
 10
155.8338307698639
 20
123.5795630964863
 30
0.0
 11
156.2310726707774
 21
123.5795630964863
 31
0.0
  0
LINE
  5
8DD
330
8DA
100
AcDbEntity
  8
0
  6
BYBLOCK
 62
    71
100
AcDbLine
 10
156.1510726707775
 20
122.7295630964863
 30
0.0
 11
156.1510726707775
 21
123.5295630964863
 31
0.0
  0
INSERT
  5
8DE
330
8DA
100
AcDbEntity
  8
0
  6
BYBLOCK
 62
    71
100
AcDbBlockReference
  2
TICK
 10
156.1510726707775
 20
122.6795630964863
 30
0.0
 41
0.05
 42
0.05
 43
0.05
 50
270.0
  0
INSERT
  5
8DF
330
8DA
100
AcDbEntity
  8
0
  6
BYBLOCK
 62
    71
100
AcDbBlockReference
  2
TICK
 10
156.1510726707775
 20
123.5795630964863
 30
0.0
 41
0.05
 42
0.05
 43
0.05
 50
90.0
  0
TEXT
  5
8E0
330
8DA
100
AcDbEntity
  8
0
  6
BYBLOCK
 62
     7
100
AcDbText
 10
156.1110726707773
 20
123.0228964298196
 30
0.0
 40
0.08
  1
0.90
 50
90.0
 72
     1
 11
156.0710726707774
 21
123.1295630964863
 31
0.0
100
AcDbText
 73
     2
  0
POINT
  5
8E1
330
8DA
100
AcDbEntity
  8
DEFPOINTS
  6
BYBLOCK
 62
     0
100
AcDbPoint
 10
155.7538307698639
 20
122.6795630964863
 30
0.0
  0
POINT
  5
8E2
330
8DA
100
AcDbEntity
  8
DEFPOINTS
  6
BYBLOCK
 62
     0
100
AcDbPoint
 10
155.7538307698639
 20
123.5795630964863
 30
0.0
  0
POINT
  5
8E3
330
8DA
100
AcDbEntity
  8
DEFPOINTS
  6
BYBLOCK
 62
     0
100
AcDbPoint
 10
156.1510726707775
 20
123.5795630964863
 30
0.0
  0
ENDBLK
  5
8E5
330
8DA
100
AcDbEntity
  8
0
100
AcDbBlockEnd
  0
BLOCK
  5
8F0
330
8E6
100
AcDbEntity
  8
0
100
AcDbBlockBegin
  2
*D20
 70
     1
 10
0.0
 20
0.0
 30
0.0
  3
*D20
  1

  0
LINE
  5
8E7
330
8E6
100
AcDbEntity
  8
0
  6
BYBLOCK
 62
    71
100
AcDbLine
 10
155.8338307698639
 20
123.5795630964863
 30
0.0
 11
156.2310726707774
 21
123.5795630964863
 31
0.0
  0
LINE
  5
8E8
330
8E6
100
AcDbEntity
  8
0
  6
BYBLOCK
 62
    71
100
AcDbLine
 10
155.3982569737851
 20
124.4795630964863
 30
0.0
 11
156.2310726707774
 21
124.4795630964863
 31
0.0
  0
LINE
  5
8E9
330
8E6
100
AcDbEntity
  8
0
  6
BYBLOCK
 62
    71
100
AcDbLine
 10
156.1510726707775
 20
123.6295630964863
 30
0.0
 11
156.1510726707775
 21
124.4295630964863
 31
0.0
  0
INSERT
  5
8EA
330
8E6
100
AcDbEntity
  8
0
  6
BYBLOCK
 62
    71
100
AcDbBlockReference
  2
TICK
 10
156.1510726707775
 20
123.5795630964863
 30
0.0
 41
0.05
 42
0.05
 43
0.05
 50
270.0
  0
INSERT
  5
8EB
330
8E6
100
AcDbEntity
  8
0
  6
BYBLOCK
 62
    71
100
AcDbBlockReference
  2
TICK
 10
156.1510726707775
 20
124.4795630964863
 30
0.0
 41
0.05
 42
0.05
 43
0.05
 50
90.0
  0
TEXT
  5
8EC
330
8E6
100
AcDbEntity
  8
0
  6
BYBLOCK
 62
     7
100
AcDbText
 10
156.1110726707773
 20
123.9228964298195
 30
0.0
 40
0.08
  1
0.90
 50
90.0
 72
     1
 11
156.0710726707774
 21
124.0295630964862
 31
0.0
100
AcDbText
 73
     2
  0
POINT
  5
8ED
330
8E6
100
AcDbEntity
  8
DEFPOINTS
  6
BYBLOCK
 62
     0
100
AcDbPoint
 10
155.7538307698639
 20
123.5795630964863
 30
0.0
  0
POINT
  5
8EE
330
8E6
100
AcDbEntity
  8
DEFPOINTS
  6
BYBLOCK
 62
     0
100
AcDbPoint
 10
155.3182569737853
 20
124.4795630964863
 30
0.0
  0
POINT
  5
8EF
330
8E6
100
AcDbEntity
  8
DEFPOINTS
  6
BYBLOCK
 62
     0
100
AcDbPoint
 10
156.1510726707775
 20
124.4795630964863
 30
0.0
  0
ENDBLK
  5
8F1
330
8E6
100
AcDbEntity
  8
0
100
AcDbBlockEnd
  0
BLOCK
  5
8FD
330
8F2
100
AcDbEntity
  8
0
100
AcDbBlockBegin
  2
*D21
 70
     1
 10
0.0
 20
0.0
 30
0.0
  3
*D21
  1

  0
LINE
  5
8F3
330
8F2
100
AcDbEntity
  8
0
  6
BYBLOCK
 62
    71
100
AcDbLine
 10
155.3982569737851
 20
124.4795630964863
 30
0.0
 11
156.2310726707774
 21
124.4795630964863
 31
0.0
  0
LINE
  5
8F4
330
8F2
100
AcDbEntity
  8
0
  6
BYBLOCK
 62
    71
100
AcDbLine
 10
154.8518573287063
 20
124.7295630964863
 30
0.0
 11
156.2310726707774
 21
124.7295630964863
 31
0.0
  0
LINE
  5
8F5
330
8F2
100
AcDbEntity
  8
0
  6
BYBLOCK
 62
    71
100
AcDbLine
 10
156.1510726707775
 20
124.4295630964863
 30
0.0
 11
156.1510726707775
 21
124.3795630964863
 31
0.0
  0
LINE
  5
8F6
330
8F2
100
AcDbEntity
  8
0
  6
BYBLOCK
 62
    71
100
AcDbLine
 10
156.1510726707775
 20
124.7795630964863
 30
0.0
 11
156.1510726707775
 21
124.8295630964862
 31
0.0
  0
INSERT
  5
8F7
330
8F2
100
AcDbEntity
  8
0
  6
BYBLOCK
 62
    71
100
AcDbBlockReference
  2
TICK
 10
156.1510726707775
 20
124.4795630964863
 30
0.0
 41
0.05
 42
0.05
 43
0.05
 50
90.0
  0
INSERT
  5
8F8
330
8F2
100
AcDbEntity
  8
0
  6
BYBLOCK
 62
    71
100
AcDbBlockReference
  2
TICK
 10
156.1510726707775
 20
124.7295630964863
 30
0.0
 41
0.05
 42
0.05
 43
0.05
 50
270.0
  0
TEXT
  5
8F9
330
8F2
100
AcDbEntity
  8
0
  6
BYBLOCK
 62
     7
100
AcDbText
 10
156.1110726707773
 20
124.8315945057485
 30
0.0
 40
0.08
  1
0.25
 50
90.0
 72
     1
 11
156.0710726707774
 21
124.9449278390819
 31
0.0
100
AcDbText
 73
     2
  0
POINT
  5
8FA
330
8F2
100
AcDbEntity
  8
DEFPOINTS
  6
BYBLOCK
 62
     0
100
AcDbPoint
 10
155.3182569737853
 20
124.4795630964863
 30
0.0
  0
POINT
  5
8FB
330
8F2
100
AcDbEntity
  8
DEFPOINTS
  6
BYBLOCK
 62
     0
100
AcDbPoint
 10
154.7718573287063
 20
124.7295630964863
 30
0.0
  0
POINT
  5
8FC
330
8F2
100
AcDbEntity
  8
DEFPOINTS
  6
BYBLOCK
 62
     0
100
AcDbPoint
 10
156.1510726707775
 20
124.7295630964863
 30
0.0
  0
ENDBLK
  5
8FE
330
8F2
100
AcDbEntity
  8
0
100
AcDbBlockEnd
  0
BLOCK
  5
906
330
8FF
100
AcDbEntity
  8
0
100
AcDbBlockBegin
  2
*D22
 70
     1
 10
0.0
 20
0.0
 30
0.0
  3
*D22
  1

  0
LINE
  5
900
330
8FF
100
AcDbEntity
  8
0
  6
BYBLOCK
 62
    71
100
AcDbLine
 10
154.399015463477
 20
124.4047318074676
 30
0.0
 11
154.5015297473135
 21
123.9899705091761
 31
0.0
  0
LINE
  5
901
330
8FF
100
AcDbEntity
  8
0
  6
BYBLOCK
 62
    71
100
AcDbLine
 10
154.5015297473135
 20
123.9899705091761
 30
0.0
 11
154.5975073668699
 21
123.6016558216557
 31
0.0
  0
INSERT
  5
902
330
8FF
100
AcDbEntity
  8
0
  6
BYBLOCK
 62
    71
100
AcDbBlockReference
  2
TICK
 10
154.3870182610326
 20
124.4532711434074
 30
0.0
 41
0.05
 42
0.05
 43
0.05
 50
103.883238107735
  0
TEXT
  5
903
330
8FF
100
AcDbEntity
  8
0
  6
BYBLOCK
 62
     7
100
AcDbText
 10
154.5627559939619
 20
123.9089615107105
 30
0.0
 40
0.08
  1
R0.90
 50
283.8832381077353
 72
     1
 11
154.6367792565515
 21
123.7761772205753
 31
0.0
100
AcDbText
 73
     2
  0
POINT
  5
904
330
8FF
100
AcDbEntity
  8
DEFPOINTS
  6
BYBLOCK
 62
     0
100
AcDbPoint
 10
154.3870182610326
 20
124.4532711434074
 30
0.0
  0
POINT
  5
905
330
8FF
100
AcDbEntity
  8
DEFPOINTS
  6
BYBLOCK
 62
     0
100
AcDbPoint
 10
154.6029679050354
 20
123.5795630964863
 30
0.0
  0
ENDBLK
  5
907
330
8FF
100
AcDbEntity
  8
0
100
AcDbBlockEnd
  0
BLOCK
  5
936
330
90B
100
AcDbEntity
  8
0
100
AcDbBlockBegin
  2
VILADOMAT
 70
     0
 10
0.0
 20
0.0
 30
0.0
  3
VILADOMAT
  1

  0
DIMENSION
  5
90C
330
90B
100
AcDbEntity
  8
COTES
100
AcDbDimension
  2
*D9
 10
-5.873181786683261
 20
3.756355560202422
 30
0.0
 11
-5.729876453301643
 21
3.648369167011026
 31
0.0
 12
-150.7663357172268
 22
-121.4918615500937
 32
0.0
 70
   128
  3
STANDARD
100
AcDbAlignedDimension
 13
-6.961681008154782
 23
3.506355560202422
 33
0.0
 14
-7.454082917226401
 24
3.756355560202422
 34
0.0
 50
90.0
100
AcDbRotatedDimension
  0
DIMENSION
  5
90D
330
90B
100
AcDbEntity
  8
COTES
100
AcDbDimension
  2
*D8
 10
-5.873181786683261
 20
3.506355560202422
 30
0.0
 11
-5.953181786683272
 21
3.008236940676481
 31
0.0
 12
-150.7663357172268
 22
-121.4918615500937
 32
0.0
  3
STANDARD
100
AcDbAlignedDimension
 13
-6.461314185190389
 23
2.510118321150556
 33
0.0
 14
-6.874813564505271
 24
3.506355560202422
 34
0.0
 50
90.0
100
AcDbRotatedDimension
  0
DIMENSION
  5
90E
330
90B
100
AcDbEntity
  8
COTES
100
AcDbDimension
  2
*D7
 10
-5.873181786683261
 20
2.510118321150556
 30
0.0
 11
-5.953181786683272
 21
1.708236940676498
 31
0.0
 12
-150.7663357172268
 22
-121.4918615500937
 32
0.0
  3
STANDARD
100
AcDbAlignedDimension
 13
-6.461314185190389
 23
0.9063555602024278
 33
0.0
 14
-6.459186711603137
 24
2.510118321150556
 34
0.0
 50
90.0
100
AcDbRotatedDimension
  0
DIMENSION
  5
90F
330
90B
100
AcDbEntity
  8
COTES
100
AcDbDimension
  2
*D6
 10
-5.873181786683261
 20
0.9063555602024278
 30
0.0
 11
-5.723056190431548
 21
0.7652547808940824
 31
0.0
 12
-150.7663357172268
 22
-121.4918615500937
 32
0.0
 70
   128
  3
STANDARD
100
AcDbAlignedDimension
 13
-6.459881016336652
 23
0.6063555602024593
 33
0.0
 14
-6.461314185190389
 24
0.9063555602024278
 34
0.0
 50
90.0
100
AcDbRotatedDimension
  0
DIMENSION
  5
910
330
90B
100
AcDbEntity
  8
COTES
100
AcDbDimension
  2
*D5
 10
-6.459881016336652
 20
0.2438229595251613
 30
0.0
 11
-6.568968249372261
 21
0.0632198008316323
 31
0.0
 12
-150.7663357172268
 22
-121.4918615500937
 32
0.0
 70
   128
  3
STANDARD
100
AcDbAlignedDimension
 13
-6.709881016336652
 23
0.6070785383869861
 33
0.0
 14
-6.459881016336652
 24
0.6063555602024593
 34
0.0
100
AcDbRotatedDimension
  0
ARC
  5
911
330
90B
100
AcDbEntity
  8
SECCIO
100
AcDbCircle
 10
-7.709881016336652
 20
2.506355560202421
 30
0.0
 40
1.25
100
AcDbArc
 50
0.0
 51
180.0
  0
ARC
  5
912
330
90B
100
AcDbEntity
  8
SECCIO
100
AcDbCircle
 10
-7.709881016336652
 20
2.506355560202421
 30
0.0
 40
1.0
100
AcDbArc
 50
0.0000000000007994
 51
179.9999999999992
  0
LINE
  5
913
330
90B
100
AcDbEntity
  8
SECCIO
100
AcDbLine
 10
-6.459881016336652
 20
0.6063555602024593
 30
0.0
 11
-6.459881016336652
 21
2.506355560202421
 31
0.0
  0
LINE
  5
914
330
90B
100
AcDbEntity
  8
SECCIO
100
AcDbLine
 10
-8.709881016336652
 20
2.506355560202436
 30
0.0
 11
-8.709881016336652
 21
1.206355560202425
 31
0.0
  0
LINE
  5
915
330
90B
100
AcDbEntity
  8
SECCIO
100
AcDbLine
 10
-6.709881016336652
 20
0.9063555602024278
 30
0.0
 11
-6.709881016336652
 21
2.506355560202436
 31
0.0
  0
LINE
  5
916
330
90B
100
AcDbEntity
  8
SECCIO
100
AcDbLine
 10
-8.959881016336652
 20
2.506355560202421
 30
0.0
 11
-8.959881016336652
 21
0.6063555602024593
 31
0.0
  0
LINE
  5
917
330
90B
100
AcDbEntity
  8
SECCIO
100
AcDbLine
 10
-8.959881016336652
 20
0.6063555602024593
 30
0.0
 11
-6.459881016336652
 21
0.6063555602024593
 31
0.0
  0
DIMENSION
  5
918
330
90B
100
AcDbEntity
  8
COTES
100
AcDbDimension
  2
*D11
 10
-6.709881016336652
 20
0.2438229595251613
 30
0.0
 11
-7.680660955167668
 21
0.2404325179864486
 31
0.0
 12
-150.7663357172268
 22
-121.4918615500937
 32
0.0
 70
   128
  3
STANDARD
100
AcDbAlignedDimension
 13
-8.709881016336652
 23
0.6045604117168324
 33
0.0
 14
-6.709881016336652
 24
0.6070785383869861
 34
0.0
100
AcDbRotatedDimension
  0
DIMENSION
  5
919
330
90B
100
AcDbEntity
  8
COTES
100
AcDbDimension
  2
*D10
 10
-7.489776517604322
 20
1.206355560202425
 30
0.0
 11
-7.587662534343706
 21
1.061653991973584
 31
0.0
 12
-150.7663357172268
 22
-121.4918615500937
 32
0.0
 70
   128
  3
STANDARD
100
AcDbAlignedDimension
 13
-7.709881016336652
 23
0.9063555602024278
 33
0.0
 14
-7.709881016336652
 24
1.206355560202425
 34
0.0
 50
90.0
100
AcDbRotatedDimension
  0
DIMENSION
  5
91A
330
90B
100
AcDbEntity
  8
COTES
100
AcDbDimension
  2
*D4
 10
-8.709881016336652
 20
0.242888937224393
 30
0.0
 11
-8.840095120727625
 21
0.0632198008316323
 31
0.0
 12
-150.7663357172268
 22
-121.4918615500937
 32
0.0
 70
   128
  3
STANDARD
100
AcDbAlignedDimension
 13
-8.959881016336652
 23
0.6063555602024593
 33
0.0
 14
-8.709881016336652
 24
0.6045604117168324
 34
0.0
100
AcDbRotatedDimension
  0
DIMENSION
  5
91B
330
90B
100
AcDbEntity
  8
COTES
100
AcDbDimension
  2
*D3
 10
-7.709881016336652
 20
2.506355560202436
 30
0.0
 11
-7.789881016336661
 21
2.7812339031976
 31
0.0
 12
-150.7663357172268
 22
-121.4918615500937
 32
0.0
 70
     4
  3
STANDARD
100
AcDbRadialDimension
 15
-7.709881016336652
 25
3.506355560202422
 35
0.0
 40
-0.4851216570048282
  0
DIMENSION
  5
91C
330
90B
100
AcDbEntity
  8
COTES
100
AcDbDimension
  2
*D2
 10
-6.709881016336652
 20
1.430369219734018
 30
0.0
 11
-7.209881016336652
 21
1.510369219734014
 31
0.0
 12
-150.7663357172268
 22
-121.4918615500937
 32
0.0
  3
STANDARD
100
AcDbAlignedDimension
 13
-7.709881016336652
 23
1.206355560202425
 33
0.0
 14
-6.709881016336652
 24
0.9063555602024278
 34
0.0
100
AcDbRotatedDimension
  0
DIMENSION
  5
91D
330
90B
100
AcDbEntity
  8
COTES
100
AcDbDimension
  2
*D1
 10
-7.709881016336652
 20
1.430369219734018
 30
0.0
 11
-8.209881016336652
 21
1.510369219734014
 31
0.0
 12
-150.7663357172268
 22
-121.4918615500937
 32
0.0
  3
STANDARD
100
AcDbAlignedDimension
 13
-8.709881016336652
 23
1.206355560202425
 33
0.0
 14
-7.709881016336652
 24
1.206355560202425
 34
0.0
100
AcDbRotatedDimension
  0
LINE
  5
91E
330
90B
100
AcDbEntity
  8
SECCIO
100
AcDbLine
 10
-7.709881016336652
 20
0.9063555602024422
 30
0.0
 11
-6.709881016336652
 21
0.9063555602024138
 31
0.0
  0
LINE
  5
91F
330
90B
100
AcDbEntity
  8
SECCIO
100
AcDbLine
 10
-7.709881016336652
 20
1.206355560202425
 30
0.0
 11
-8.709881016336652
 21
1.206355560202425
 31
0.0
  0
LINE
  5
920
330
90B
100
AcDbEntity
  8
SECCIO
100
AcDbLine
 10
-7.709881016336652
 20
0.9063555602024278
 30
0.0
 11
-7.709881016336652
 21
1.206355560202425
 31
0.0
  0
DIMENSION
  5
921
330
90B
100
AcDbEntity
  8
COTES
100
AcDbDimension
  2
*D22
 10
-3.301087139114883
 20
2.087701546392465
 30
0.0
 11
-3.267275787598578
 21
2.284315670481529
 31
0.0
 12
-157.9040550441503
 22
-121.4918615500937
 32
0.0
 70
     4
  3
STANDARD
100
AcDbRadialDimension
 15
-3.517036783117531
 25
2.961409593313831
 35
0.0
 40
-0.47724245218689
  0
DIMENSION
  5
922
330
90B
100
AcDbEntity
  8
COTES
100
AcDbDimension
  2
*D21
 10
-1.752982373372589
 20
3.237701546392471
 30
0.0
 11
-1.8329823733726
 21
3.453066288988238
 31
0.0
 12
-157.9040550441503
 22
-121.4918615500937
 32
0.0
 70
   128
  3
STANDARD
100
AcDbAlignedDimension
 13
-2.585798070365
 23
2.987701546392471
 33
0.0
 14
-3.132197715443964
 24
3.237701546392471
 34
0.0
 50
90.0
100
AcDbRotatedDimension
  0
DIMENSION
  5
923
330
90B
100
AcDbEntity
  8
COTES
100
AcDbDimension
  2
*D20
 10
-1.752982373372589
 20
2.987701546392471
 30
0.0
 11
-1.8329823733726
 21
2.537701546392469
 31
0.0
 12
-157.9040550441503
 22
-121.4918615500937
 32
0.0
  3
STANDARD
100
AcDbAlignedDimension
 13
-2.150224274286387
 23
2.087701546392465
 33
0.0
 14
-2.585798070365
 24
2.987701546392471
 34
0.0
 50
90.0
100
AcDbRotatedDimension
  0
DIMENSION
  5
924
330
90B
100
AcDbEntity
  8
COTES
100
AcDbDimension
  2
*D19
 10
-1.752982373372589
 20
2.087701546392465
 30
0.0
 11
-1.8329823733726
 21
1.637701546392463
 31
0.0
 12
-157.9040550441503
 22
-121.4918615500937
 32
0.0
  3
STANDARD
100
AcDbAlignedDimension
 13
-2.150224274286387
 23
1.18770154639246
 33
0.0
 14
-2.150224274286387
 24
2.087701546392465
 34
0.0
 50
90.0
100
AcDbRotatedDimension
  0
DIMENSION
  5
925
330
90B
100
AcDbEntity
  8
COTES
100
AcDbDimension
  2
*D18
 10
-1.752982373372589
 20
1.18770154639246
 30
0.0
 11
-1.8329823733726
 21
1.041668740061922
 31
0.0
 12
-157.9040550441503
 22
-121.4918615500937
 32
0.0
 70
   128
  3
STANDARD
100
AcDbAlignedDimension
 13
-2.151087139114904
 23
0.8877015463924633
 33
0.0
 14
-2.150224274286387
 24
1.18770154639246
 34
0.0
 50
90.0
100
AcDbRotatedDimension
  0
DIMENSION
  5
926
330
90B
100
AcDbEntity
  8
COTES
100
AcDbDimension
  2
*D17
 10
-2.151087139114904
 20
0.5512733935177039
 30
0.0
 11
-1.944173269369429
 21
0.6312733935177022
 31
0.0
 12
-157.9040550441503
 22
-121.4918615500937
 32
0.0
 70
   128
  3
STANDARD
100
AcDbAlignedDimension
 13
-2.401087139114876
 23
0.8883478218676684
 33
0.0
 14
-2.151087139114904
 24
0.8877015463924633
 34
0.0
100
AcDbRotatedDimension
  0
DIMENSION
  5
927
330
90B
100
AcDbEntity
  8
COTES
100
AcDbDimension
  2
*D16
 10
-2.401087139114876
 20
0.5512733935177039
 30
0.0
 11
-3.301087139114883
 21
0.6312733935177022
 31
0.0
 12
-157.9040550441503
 22
-121.4918615500937
 32
0.0
  3
STANDARD
100
AcDbAlignedDimension
 13
-4.201087139114888
 23
0.8848797111295848
 33
0.0
 14
-2.401087139114876
 24
0.8883478218676684
 34
0.0
100
AcDbRotatedDimension
  0
DIMENSION
  5
928
330
90B
100
AcDbEntity
  8
COTES
100
AcDbDimension
  2
*D15
 10
-4.201087139114888
 20
0.5512733935177039
 30
0.0
 11
-4.642955161661375
 21
0.6312733935177022
 31
0.0
 12
-157.9040550441503
 22
-121.4918615500937
 32
0.0
 70
   128
  3
STANDARD
100
AcDbAlignedDimension
 13
-4.451087139114861
 23
0.8877015463924633
 33
0.0
 14
-4.201087139114888
 24
0.8848797111295848
 34
0.0
100
AcDbRotatedDimension
  0
DIMENSION
  5
929
330
90B
100
AcDbEntity
  8
COTES
100
AcDbDimension
  2
*D14
 10
-2.90420560404803
 20
1.487701546392443
 30
0.0
 11
-2.984205604048041
 21
1.346714049303469
 31
0.0
 12
-157.9040550441503
 22
-121.4918615500937
 32
0.0
 70
   128
  3
STANDARD
100
AcDbAlignedDimension
 13
-3.201087139114888
 23
1.18770154639246
 33
0.0
 14
-3.201087139114888
 24
1.487701546392443
 34
0.0
 50
90.0
100
AcDbRotatedDimension
  0
DIMENSION
  5
92A
330
90B
100
AcDbEntity
  8
COTES
100
AcDbDimension
  2
*D13
 10
-2.401087139114876
 20
1.756917941735778
 30
0.0
 11
-2.801087139114883
 21
1.836917941735777
 31
0.0
 12
-157.9040550441503
 22
-121.4918615500937
 32
0.0
  3
STANDARD
100
AcDbAlignedDimension
 13
-3.201087139114888
 23
1.487701546392443
 33
0.0
 14
-2.401087139114876
 24
1.18770154639246
 34
0.0
100
AcDbRotatedDimension
  0
DIMENSION
  5
92B
330
90B
100
AcDbEntity
  8
COTES
100
AcDbDimension
  2
*D12
 10
-3.201087139114888
 20
1.756917941735778
 30
0.0
 11
-3.701087139114888
 21
1.836917941735777
 31
0.0
 12
-157.9040550441503
 22
-121.4918615500937
 32
0.0
  3
STANDARD
100
AcDbAlignedDimension
 13
-4.201087139114888
 23
1.487701546392455
 33
0.0
 14
-3.201087139114888
 24
1.487701546392443
 34
0.0
100
AcDbRotatedDimension
  0
LINE
  5
92C
330
90B
100
AcDbEntity
  8
SECCIO
100
AcDbLine
 10
-3.201087139114888
 20
1.18770154639246
 30
0.0
 11
-3.201087139114888
 21
1.487701546392443
 31
0.0
  0
LINE
  5
92D
330
90B
100
AcDbEntity
  8
SECCIO
100
AcDbLine
 10
-4.201087139114888
 20
1.487701546392455
 30
0.0
 11
-3.201087139114888
 21
1.487701546392443
 31
0.0
  0
LINE
  5
92E
330
90B
100
AcDbEntity
  8
SECCIO
100
AcDbLine
 10
-4.451087139114861
 20
0.8877015463924633
 30
0.0
 11
-4.451087139114886
 21
2.087701546392465
 31
0.0
  0
ARC
  5
92F
330
90B
100
AcDbEntity
  8
SECCIO
100
AcDbCircle
 10
-3.301087139114883
 20
2.087701546392465
 30
0.0
 40
1.150000000000005
100
AcDbArc
 50
0.0
 51
180.0
  0
LINE
  5
930
330
90B
100
AcDbEntity
  8
SECCIO
100
AcDbLine
 10
-2.151087139114904
 20
0.8877015463924633
 30
0.0
 11
-2.151087139114878
 21
2.087701546392465
 31
0.0
  0
LINE
  5
931
330
90B
100
AcDbEntity
  8
SECCIO
100
AcDbLine
 10
-3.201087139114888
 20
1.18770154639246
 30
0.0
 11
-2.401087139114876
 21
1.18770154639246
 31
0.0
  0
ARC
  5
932
330
90B
100
AcDbEntity
  8
SECCIO
100
AcDbCircle
 10
-3.301087139114883
 20
2.087701546392465
 30
0.0
 40
0.9000000000000055
100
AcDbArc
 50
0.0
 51
180.0
  0
LINE
  5
933
330
90B
100
AcDbEntity
  8
SECCIO
100
AcDbLine
 10
-4.201087139114888
 20
1.487701546392455
 30
0.0
 11
-4.201087139114888
 21
2.087701546392465
 31
0.0
  0
LINE
  5
934
330
90B
100
AcDbEntity
  8
SECCIO
100
AcDbLine
 10
-2.401087139114876
 20
1.18770154639246
 30
0.0
 11
-2.401087139114876
 21
2.087701546392465
 31
0.0
  0
LINE
  5
935
330
90B
100
AcDbEntity
  8
SECCIO
100
AcDbLine
 10
-4.451087139114861
 20
0.8877015463924633
 30
0.0
 11
-2.151087139114904
 21
0.8877015463924633
 31
0.0
  0
ENDBLK
  5
937
330
90B
100
AcDbEntity
  8
0
100
AcDbBlockEnd
  0
BLOCK
  5
100D
330
1003
100
AcDbEntity
  8
0
100
AcDbBlockBegin
  2
*D24
 70
     1
 10
0.0
 20
0.0
 30
0.0
  3
*D24
  1

  0
LINE
  5
1025
330
1003
100
AcDbEntity
  8
0
 62
     0
100
AcDbLine
 10
322.6095831532583
 20
35.36651566130531
 30
0.0
 11
322.6095831532583
 21
34.25714486947281
 31
0.0
  0
LINE
  5
1026
330
1003
100
AcDbEntity
  8
0
 62
     0
100
AcDbLine
 10
324.6095831532583
 20
35.36651566130531
 30
0.0
 11
324.6095831532583
 21
34.25714486947281
 31
0.0
  0
LINE
  5
1027
330
1003
100
AcDbEntity
  8
0
 62
     0
100
AcDbLine
 10
322.7595831532583
 20
34.27214486947281
 30
0.0
 11
324.4595831532585
 21
34.27214486947281
 31
0.0
  0
SOLID
  5
1028
330
1003
100
AcDbEntity
  8
0
 62
     0
100
AcDbTrace
 10
322.7595831532583
 20
34.29714486947281
 30
0.0
 11
322.7595831532583
 21
34.24714486947282
 31
0.0
 12
322.6095831532583
 22
34.27214486947281
 32
0.0
 13
322.6095831532583
 23
34.27214486947281
 33
0.0
  0
SOLID
  5
1029
330
1003
100
AcDbEntity
  8
0
 62
     0
100
AcDbTrace
 10
324.4595831532585
 20
34.29714486947281
 30
0.0
 11
324.4595831532585
 21
34.24714486947282
 31
0.0
 12
324.6095831532583
 22
34.27214486947281
 32
0.0
 13
324.6095831532583
 23
34.27214486947281
 33
0.0
  0
MTEXT
  5
102A
330
1003
100
AcDbEntity
  8
0
 62
     0
100
AcDbMText
 10
323.6095831532583
 20
34.34714486947282
 30
0.0
 40
0.075
 41
0.0
 71
     5
 72
     1
  1
\A1;2.00
  7
ROMANC
1001
ACAD
1000
MTEXTBEGIN
1070
    73
1070
     1
1070
    44
1040
1.0
1070
    74
1070
     0
1000
MTEXTEND
1000
MTEXTBEGIN
1070
    73
1070
     1
1070
    44
1040
1.0
1070
    74
1070
     0
1000
MTEXTEND
1000
MTEXTBEGIN
1070
    73
1070
     1
1070
    44
1040
1.0
1070
    74
1070
     0
1000
MTEXTEND
1000
MTEXTBEGIN
1070
    73
1070
     1
1070
    44
1040
1.0
1070
    74
1070
     0
1000
MTEXTEND
1000
MTEXTBEGIN
1070
    73
1070
     1
1070
    44
1040
1.0
1070
    74
1070
     0
1000
MTEXTEND
  0
POINT
  5
102B
330
1003
100
AcDbEntity
  8
DEFPOINTS
 62
     0
100
AcDbPoint
 10
322.6095831532583
 20
35.38151566130531
 30
0.0
  0
POINT
  5
102C
330
1003
100
AcDbEntity
  8
DEFPOINTS
 62
     0
100
AcDbPoint
 10
324.6095831532583
 20
35.38151566130531
 30
0.0
  0
POINT
  5
102D
330
1003
100
AcDbEntity
  8
DEFPOINTS
 62
     0
100
AcDbPoint
 10
324.6095831532583
 20
34.27214486947281
 30
0.0
  0
ENDBLK
  5
100E
330
1003
100
AcDbEntity
  8
0
100
AcDbBlockEnd
  0
BLOCK
  5
101A
330
1010
100
AcDbEntity
  8
0
100
AcDbBlockBegin
  2
*D25
 70
     1
 10
0.0
 20
0.0
 30
0.0
  3
*D25
  1

  0
LINE
  5
1011
330
1010
100
AcDbEntity
  8
0
 62
     0
100
AcDbLine
 10
323.6245831532583
 20
34.83151566130532
 30
0.0
 11
324.9439118517853
 21
34.83151566130532
 31
0.0
  0
LINE
  5
1012
330
1010
100
AcDbEntity
  8
0
 62
     0
100
AcDbLine
 10
323.6245831532583
 20
36.23151566130529
 30
0.0
 11
324.9439118517853
 21
36.23151566130529
 31
0.0
  0
LINE
  5
1013
330
1010
100
AcDbEntity
  8
0
 62
     0
100
AcDbLine
 10
324.9289118517852
 20
34.9815156613053
 30
0.0
 11
324.9289118517852
 21
36.08151566130529
 31
0.0
  0
SOLID
  5
1014
330
1010
100
AcDbEntity
  8
0
 62
     0
100
AcDbTrace
 10
324.9039118517853
 20
34.9815156613053
 30
0.0
 11
324.9539118517853
 21
34.9815156613053
 31
0.0
 12
324.9289118517852
 22
34.83151566130532
 32
0.0
 13
324.9289118517852
 23
34.83151566130532
 33
0.0
  0
SOLID
  5
1015
330
1010
100
AcDbEntity
  8
0
 62
     0
100
AcDbTrace
 10
324.9039118517853
 20
36.08151566130529
 30
0.0
 11
324.9539118517853
 21
36.08151566130529
 31
0.0
 12
324.9289118517852
 22
36.23151566130529
 32
0.0
 13
324.9289118517852
 23
36.23151566130529
 33
0.0
  0
MTEXT
  5
1016
330
1010
100
AcDbEntity
  8
0
 62
     0
100
AcDbMText
 10
324.8539118517853
 20
35.53151566130535
 30
0.0
 40
0.075
 41
0.0
 71
     5
 72
     1
  1
\A1;1.40
  7
ROMANC
 11
0.0000000000000001
 21
1.0
 31
0.0
1001
ACAD
1000
MTEXTBEGIN
1070
    73
1070
     1
1070
    44
1040
1.0
1070
    74
1070
     0
1000
MTEXTEND
1000
MTEXTBEGIN
1070
    73
1070
     1
1070
    44
1040
1.0
1070
    74
1070
     0
1000
MTEXTEND
1000
MTEXTBEGIN
1070
    73
1070
     1
1070
    44
1040
1.0
1070
    74
1070
     0
1000
MTEXTEND
1000
MTEXTBEGIN
1070
    73
1070
     1
1070
    44
1040
1.0
1070
    74
1070
     0
1000
MTEXTEND
1000
MTEXTBEGIN
1070
    73
1070
     1
1070
    44
1040
1.0
1070
    74
1070
     0
1000
MTEXTEND
  0
POINT
  5
1017
330
1010
100
AcDbEntity
  8
DEFPOINTS
 62
     0
100
AcDbPoint
 10
323.6095831532583
 20
34.83151566130532
 30
0.0
  0
POINT
  5
1018
330
1010
100
AcDbEntity
  8
DEFPOINTS
 62
     0
100
AcDbPoint
 10
323.6095831532583
 20
36.23151566130529
 30
0.0
  0
POINT
  5
1019
330
1010
100
AcDbEntity
  8
DEFPOINTS
 62
     0
100
AcDbPoint
 10
324.9289118517852
 20
36.23151566130529
 30
0.0
  0
ENDBLK
  5
101B
330
1010
100
AcDbEntity
  8
0
100
AcDbBlockEnd
  0
BLOCK
  5
1039
330
102F
100
AcDbEntity
  8
0
100
AcDbBlockBegin
  2
*D26
 70
     1
 10
0.0
 20
0.0
 30
0.0
  3
*D26
  1

  0
LINE
  5
1030
330
102F
100
AcDbEntity
  8
0
 62
     0
100
AcDbLine
 10
322.6095831532583
 20
35.36651566130531
 30
0.0
 11
322.6095831532583
 21
34.52484374800901
 31
0.0
  0
LINE
  5
1031
330
102F
100
AcDbEntity
  8
0
 62
     0
100
AcDbLine
 10
323.6095831532583
 20
34.81651566130532
 30
0.0
 11
323.6095831532583
 21
34.52484374800901
 31
0.0
  0
LINE
  5
1032
330
102F
100
AcDbEntity
  8
0
 62
     0
100
AcDbLine
 10
322.7595831532583
 20
34.53984374800901
 30
0.0
 11
323.4595831532585
 21
34.53984374800901
 31
0.0
  0
SOLID
  5
1033
330
102F
100
AcDbEntity
  8
0
 62
     0
100
AcDbTrace
 10
322.7595831532583
 20
34.56484374800901
 30
0.0
 11
322.7595831532583
 21
34.514843748009
 31
0.0
 12
322.6095831532583
 22
34.53984374800901
 32
0.0
 13
322.6095831532583
 23
34.53984374800901
 33
0.0
  0
SOLID
  5
1034
330
102F
100
AcDbEntity
  8
0
 62
     0
100
AcDbTrace
 10
323.4595831532585
 20
34.56484374800901
 30
0.0
 11
323.4595831532585
 21
34.514843748009
 31
0.0
 12
323.6095831532583
 22
34.53984374800901
 32
0.0
 13
323.6095831532583
 23
34.53984374800901
 33
0.0
  0
MTEXT
  5
1035
330
102F
100
AcDbEntity
  8
0
 62
     0
100
AcDbMText
 10
323.1095831532583
 20
34.614843748009
 30
0.0
 40
0.075
 41
0.0
 71
     5
 72
     1
  1
\A1;1.00
  7
ROMANC
1001
ACAD
1000
MTEXTBEGIN
1070
    73
1070
     1
1070
    44
1040
1.0
1070
    74
1070
     0
1000
MTEXTEND
1000
MTEXTBEGIN
1070
    73
1070
     1
1070
    44
1040
1.0
1070
    74
1070
     0
1000
MTEXTEND
1000
MTEXTBEGIN
1070
    73
1070
     1
1070
    44
1040
1.0
1070
    74
1070
     0
1000
MTEXTEND
1000
MTEXTBEGIN
1070
    73
1070
     1
1070
    44
1040
1.0
1070
    74
1070
     0
1000
MTEXTEND
1000
MTEXTBEGIN
1070
    73
1070
     1
1070
    44
1040
1.0
1070
    74
1070
     0
1000
MTEXTEND
  0
POINT
  5
1036
330
102F
100
AcDbEntity
  8
DEFPOINTS
 62
     0
100
AcDbPoint
 10
322.6095831532583
 20
35.38151566130531
 30
0.0
  0
POINT
  5
1037
330
102F
100
AcDbEntity
  8
DEFPOINTS
 62
     0
100
AcDbPoint
 10
323.6095831532583
 20
34.83151566130532
 30
0.0
  0
POINT
  5
1038
330
102F
100
AcDbEntity
  8
DEFPOINTS
 62
     0
100
AcDbPoint
 10
323.6095831532583
 20
34.53984374800901
 30
0.0
  0
ENDBLK
  5
103A
330
102F
100
AcDbEntity
  8
0
100
AcDbBlockEnd
  0
BLOCK
  5
1046
330
103C
100
AcDbEntity
  8
0
100
AcDbBlockBegin
  2
*D27
 70
     1
 10
0.0
 20
0.0
 30
0.0
  3
*D27
  1

  0
LINE
  5
103D
330
103C
100
AcDbEntity
  8
0
 62
     0
100
AcDbLine
 10
323.6095831532583
 20
34.81651566130532
 30
0.0
 11
323.6095831532583
 21
34.52484374800901
 31
0.0
  0
LINE
  5
103E
330
103C
100
AcDbEntity
  8
0
 62
     0
100
AcDbLine
 10
324.6095831532583
 20
35.36651566130531
 30
0.0
 11
324.6095831532583
 21
34.52484374800901
 31
0.0
  0
LINE
  5
103F
330
103C
100
AcDbEntity
  8
0
 62
     0
100
AcDbLine
 10
323.7595831532583
 20
34.53984374800901
 30
0.0
 11
324.4595831532585
 21
34.53984374800901
 31
0.0
  0
SOLID
  5
1040
330
103C
100
AcDbEntity
  8
0
 62
     0
100
AcDbTrace
 10
323.7595831532583
 20
34.56484374800901
 30
0.0
 11
323.7595831532583
 21
34.514843748009
 31
0.0
 12
323.6095831532583
 22
34.53984374800901
 32
0.0
 13
323.6095831532583
 23
34.53984374800901
 33
0.0
  0
SOLID
  5
1041
330
103C
100
AcDbEntity
  8
0
 62
     0
100
AcDbTrace
 10
324.4595831532585
 20
34.56484374800901
 30
0.0
 11
324.4595831532585
 21
34.514843748009
 31
0.0
 12
324.6095831532583
 22
34.53984374800901
 32
0.0
 13
324.6095831532583
 23
34.53984374800901
 33
0.0
  0
MTEXT
  5
1042
330
103C
100
AcDbEntity
  8
0
 62
     0
100
AcDbMText
 10
324.1095831532585
 20
34.614843748009
 30
0.0
 40
0.075
 41
0.0
 71
     5
 72
     1
  1
\A1;1.00
  7
ROMANC
1001
ACAD
1000
MTEXTBEGIN
1070
    73
1070
     1
1070
    44
1040
1.0
1070
    74
1070
     0
1000
MTEXTEND
1000
MTEXTBEGIN
1070
    73
1070
     1
1070
    44
1040
1.0
1070
    74
1070
     0
1000
MTEXTEND
1000
MTEXTBEGIN
1070
    73
1070
     1
1070
    44
1040
1.0
1070
    74
1070
     0
1000
MTEXTEND
1000
MTEXTBEGIN
1070
    73
1070
     1
1070
    44
1040
1.0
1070
    74
1070
     0
1000
MTEXTEND
1000
MTEXTBEGIN
1070
    73
1070
     1
1070
    44
1040
1.0
1070
    74
1070
     0
1000
MTEXTEND
  0
POINT
  5
1043
330
103C
100
AcDbEntity
  8
DEFPOINTS
 62
     0
100
AcDbPoint
 10
323.6095831532583
 20
34.83151566130532
 30
0.0
  0
POINT
  5
1044
330
103C
100
AcDbEntity
  8
DEFPOINTS
 62
     0
100
AcDbPoint
 10
324.6095831532583
 20
35.38151566130531
 30
0.0
  0
POINT
  5
1045
330
103C
100
AcDbEntity
  8
DEFPOINTS
 62
     0
100
AcDbPoint
 10
324.6095831532583
 20
34.53984374800901
 30
0.0
  0
ENDBLK
  5
1047
330
103C
100
AcDbEntity
  8
0
100
AcDbBlockEnd
  0
BLOCK
  5
106A
330
1060
100
AcDbEntity
  8
0
100
AcDbBlockBegin
  2
*D28
 70
     1
 10
0.0
 20
0.0
 30
0.0
  3
*D28
  1

  0
LINE
  5
1133
330
1060
100
AcDbEntity
  8
0
 62
     0
100
AcDbLine
 10
322.5519305951008
 20
34.96089866115354
 30
0.0
 11
322.5519305951008
 21
34.61804425466832
 31
0.0
  0
LINE
  5
1134
330
1060
100
AcDbEntity
  8
0
 62
     0
100
AcDbLine
 10
324.0519305951008
 20
34.96089866115354
 30
0.0
 11
324.0519305951008
 21
34.61804425466832
 31
0.0
  0
LINE
  5
1135
330
1060
100
AcDbEntity
  8
0
 62
     0
100
AcDbLine
 10
322.7019305951007
 20
34.63304425466832
 30
0.0
 11
323.9019305951008
 21
34.63304425466832
 31
0.0
  0
SOLID
  5
1136
330
1060
100
AcDbEntity
  8
0
 62
     0
100
AcDbTrace
 10
322.7019305951007
 20
34.6580442546683
 30
0.0
 11
322.7019305951007
 21
34.60804425466832
 31
0.0
 12
322.5519305951008
 22
34.63304425466832
 32
0.0
 13
322.5519305951008
 23
34.63304425466832
 33
0.0
  0
SOLID
  5
1137
330
1060
100
AcDbEntity
  8
0
 62
     0
100
AcDbTrace
 10
323.9019305951008
 20
34.6580442546683
 30
0.0
 11
323.9019305951008
 21
34.60804425466832
 31
0.0
 12
324.0519305951008
 22
34.63304425466832
 32
0.0
 13
324.0519305951008
 23
34.63304425466832
 33
0.0
  0
MTEXT
  5
1138
330
1060
100
AcDbEntity
  8
0
 62
     0
100
AcDbMText
 10
323.3019305951009
 20
34.70804425466832
 30
0.0
 40
0.075
 41
0.0
 71
     5
 72
     1
  1
\A1;0.30
  7
ROMANC
1001
ACAD
1000
MTEXTBEGIN
1070
    73
1070
     1
1070
    44
1040
1.0
1070
    74
1070
     0
1000
MTEXTEND
1000
MTEXTBEGIN
1070
    73
1070
     1
1070
    44
1040
1.0
1070
    74
1070
     0
1000
MTEXTEND
1000
MTEXTBEGIN
1070
    73
1070
     1
1070
    44
1040
1.0
1070
    74
1070
     0
1000
MTEXTEND
1000
MTEXTBEGIN
1070
    73
1070
     1
1070
    44
1040
1.0
1070
    74
1070
     0
1000
MTEXTEND
1000
MTEXTBEGIN
1070
    73
1070
     1
1070
    44
1040
1.0
1070
    74
1070
     0
1000
MTEXTEND
  0
POINT
  5
1139
330
1060
100
AcDbEntity
  8
DEFPOINTS
 62
     0
100
AcDbPoint
 10
322.5519305951008
 20
34.97589866115354
 30
0.0
  0
POINT
  5
113A
330
1060
100
AcDbEntity
  8
DEFPOINTS
 62
     0
100
AcDbPoint
 10
324.0519305951008
 20
34.97589866115354
 30
0.0
  0
POINT
  5
113B
330
1060
100
AcDbEntity
  8
DEFPOINTS
 62
     0
100
AcDbPoint
 10
324.0519305951008
 20
34.63304425466832
 30
0.0
  0
ENDBLK
  5
106B
330
1060
100
AcDbEntity
  8
0
100
AcDbBlockEnd
  0
BLOCK
  5
1080
330
1076
100
AcDbEntity
  8
0
100
AcDbBlockBegin
  2
*D29
 70
     1
 10
0.0
 20
0.0
 30
0.0
  3
*D29
  1

  0
LINE
  5
113C
330
1076
100
AcDbEntity
  8
0
 62
     0
100
AcDbLine
 10
322.0519305951008
 20
36.96089866115354
 30
0.0
 11
322.0519305951008
 21
34.25878883470486
 31
0.0
  0
LINE
  5
113D
330
1076
100
AcDbEntity
  8
0
 62
     0
100
AcDbLine
 10
324.5669305951006
 20
36.96089866115357
 30
0.0
 11
324.5669305951006
 21
34.25878883470486
 31
0.0
  0
LINE
  5
113E
330
1076
100
AcDbEntity
  8
0
 62
     0
100
AcDbLine
 10
322.2019305951008
 20
34.27378883470487
 30
0.0
 11
324.4169305951008
 21
34.27378883470487
 31
0.0
  0
SOLID
  5
113F
330
1076
100
AcDbEntity
  8
0
 62
     0
100
AcDbTrace
 10
322.2019305951008
 20
34.29878883470486
 30
0.0
 11
322.2019305951008
 21
34.24878883470487
 31
0.0
 12
322.0519305951008
 22
34.27378883470487
 32
0.0
 13
322.0519305951008
 23
34.27378883470487
 33
0.0
  0
SOLID
  5
1140
330
1076
100
AcDbEntity
  8
0
 62
     0
100
AcDbTrace
 10
324.4169305951008
 20
34.29878883470486
 30
0.0
 11
324.4169305951008
 21
34.24878883470487
 31
0.0
 12
324.5669305951006
 22
34.27378883470487
 32
0.0
 13
324.5669305951006
 23
34.27378883470487
 33
0.0
  0
MTEXT
  5
1141
330
1076
100
AcDbEntity
  8
0
 62
     0
100
AcDbMText
 10
323.3094305951008
 20
34.34878883470487
 30
0.0
 40
0.075
 41
0.0
 71
     5
 72
     1
  1
\A1;0.50
  7
ROMANC
1001
ACAD
1000
MTEXTBEGIN
1070
    73
1070
     1
1070
    44
1040
1.0
1070
    74
1070
     0
1000
MTEXTEND
1000
MTEXTBEGIN
1070
    73
1070
     1
1070
    44
1040
1.0
1070
    74
1070
     0
1000
MTEXTEND
1000
MTEXTBEGIN
1070
    73
1070
     1
1070
    44
1040
1.0
1070
    74
1070
     0
1000
MTEXTEND
1000
MTEXTBEGIN
1070
    73
1070
     1
1070
    44
1040
1.0
1070
    74
1070
     0
1000
MTEXTEND
1000
MTEXTBEGIN
1070
    73
1070
     1
1070
    44
1040
1.0
1070
    74
1070
     0
1000
MTEXTEND
  0
POINT
  5
1142
330
1076
100
AcDbEntity
  8
DEFPOINTS
 62
     0
100
AcDbPoint
 10
322.0519305951008
 20
36.97589866115354
 30
0.0
  0
POINT
  5
1143
330
1076
100
AcDbEntity
  8
DEFPOINTS
 62
     0
100
AcDbPoint
 10
324.5669305951006
 20
36.97589866115357
 30
0.0
  0
POINT
  5
1144
330
1076
100
AcDbEntity
  8
DEFPOINTS
 62
     0
100
AcDbPoint
 10
324.5669305951006
 20
34.27378883470487
 30
0.0
  0
ENDBLK
  5
1081
330
1076
100
AcDbEntity
  8
0
100
AcDbBlockEnd
  0
BLOCK
  5
109F
330
1095
100
AcDbEntity
  8
0
100
AcDbBlockBegin
  2
*D30
 70
     1
 10
0.0
 20
0.0
 30
0.0
  3
*D30
  1

  0
LINE
  5
1172
330
1095
100
AcDbEntity
  8
0
 62
     0
100
AcDbLine
 10
324.9579658461381
 20
36.97589866115357
 30
0.0
 11
325.3886717143747
 21
36.97589866115357
 31
0.0
  0
LINE
  5
1173
330
1095
100
AcDbEntity
  8
0
 62
     0
100
AcDbLine
 10
324.0669305951008
 20
34.97589866115354
 30
0.0
 11
325.3886717143747
 21
34.97589866115354
 31
0.0
  0
LINE
  5
1174
330
1095
100
AcDbEntity
  8
0
 62
     0
100
AcDbLine
 10
325.3736717143747
 20
36.82589866115358
 30
0.0
 11
325.3736717143747
 21
35.12589866115354
 31
0.0
  0
SOLID
  5
1175
330
1095
100
AcDbEntity
  8
0
 62
     0
100
AcDbTrace
 10
325.3486717143747
 20
36.82589866115358
 30
0.0
 11
325.3986717143746
 21
36.82589866115358
 31
0.0
 12
325.3736717143747
 22
36.97589866115357
 32
0.0
 13
325.3736717143747
 23
36.97589866115357
 33
0.0
  0
SOLID
  5
1176
330
1095
100
AcDbEntity
  8
0
 62
     0
100
AcDbTrace
 10
325.3486717143747
 20
35.12589866115354
 30
0.0
 11
325.3986717143746
 21
35.12589866115354
 31
0.0
 12
325.3736717143747
 22
34.97589866115354
 32
0.0
 13
325.3736717143747
 23
34.97589866115354
 33
0.0
  0
MTEXT
  5
1177
330
1095
100
AcDbEntity
  8
0
 62
     0
100
AcDbMText
 10
325.2986717143746
 20
35.9758986611536
 30
0.0
 40
0.075
 41
0.0
 71
     5
 72
     1
  1
\A1;0.40
  7
ROMANC
 11
0.0000000000000001
 21
1.0
 31
0.0
1001
ACAD
1000
MTEXTBEGIN
1070
    73
1070
     1
1070
    44
1040
1.0
1070
    74
1070
     0
1000
MTEXTEND
1000
MTEXTBEGIN
1070
    73
1070
     1
1070
    44
1040
1.0
1070
    74
1070
     0
1000
MTEXTEND
1000
MTEXTBEGIN
1070
    73
1070
     1
1070
    44
1040
1.0
1070
    74
1070
     0
1000
MTEXTEND
1000
MTEXTBEGIN
1070
    73
1070
     1
1070
    44
1040
1.0
1070
    74
1070
     0
1000
MTEXTEND
1000
MTEXTBEGIN
1070
    73
1070
     1
1070
    44
1040
1.0
1070
    74
1070
     0
1000
MTEXTEND
  0
POINT
  5
1178
330
1095
100
AcDbEntity
  8
DEFPOINTS
 62
     0
100
AcDbPoint
 10
324.9429658461381
 20
36.97589866115357
 30
0.0
  0
POINT
  5
1179
330
1095
100
AcDbEntity
  8
DEFPOINTS
 62
     0
100
AcDbPoint
 10
324.0519305951008
 20
34.97589866115354
 30
0.0
  0
POINT
  5
117A
330
1095
100
AcDbEntity
  8
DEFPOINTS
 62
     0
100
AcDbPoint
 10
325.3736717143747
 20
34.97589866115354
 30
0.0
  0
ENDBLK
  5
10A0
330
1095
100
AcDbEntity
  8
0
100
AcDbBlockEnd
  0
BLOCK
  5
11CC
330
11C2
100
AcDbEntity
  8
0
100
AcDbBlockBegin
  2
*D31
 70
     1
 10
0.0
 20
0.0
 30
0.0
  3
*D31
  1

  0
LINE
  5
11F1
330
11C2
100
AcDbEntity
  8
0
 62
     0
100
AcDbLine
 10
323.1011690253126
 20
38.10236217381145
 30
0.0
 11
322.8840708501973
 21
38.10236217381145
 31
0.0
  0
LINE
  5
11F2
330
11C2
100
AcDbEntity
  8
0
 62
     0
100
AcDbLine
 10
323.1011690253126
 20
37.65236217381143
 30
0.0
 11
322.8840708501973
 21
37.65236217381143
 31
0.0
  0
LINE
  5
11F3
330
11C2
100
AcDbEntity
  8
0
 62
     0
100
AcDbLine
 10
322.8990708501973
 20
38.10236217381145
 30
0.0
 11
322.8990708501973
 21
37.65236217381143
 31
0.0
  0
INSERT
  5
11F4
330
11C2
100
AcDbEntity
  8
0
 62
     0
100
AcDbBlockReference
  2
_OBLIQUE
 10
322.8990708501973
 20
38.10236217381145
 30
0.0
 41
0.075
 42
0.075
 43
0.075
 50
90.0
  0
INSERT
  5
11F5
330
11C2
100
AcDbEntity
  8
0
 62
     0
100
AcDbBlockReference
  2
_OBLIQUE
 10
322.8990708501973
 20
37.65236217381143
 30
0.0
 41
0.075
 42
0.075
 43
0.075
 50
270.0
  0
MTEXT
  5
11F6
330
11C2
100
AcDbEntity
  8
0
 62
     0
100
AcDbMText
 10
322.8240708501973
 20
37.8773621738115
 30
0.0
 40
0.075
 41
0.0
 71
     5
 72
     1
  1
\A1;0.45
  7
ROMANC
 11
0.0000000000000001
 21
1.0
 31
0.0
1001
ACAD
1000
MTEXTBEGIN
1070
    73
1070
     1
1070
    44
1040
1.0
1070
    74
1070
     0
1000
MTEXTEND
1000
MTEXTBEGIN
1070
    73
1070
     1
1070
    44
1040
1.0
1070
    74
1070
     0
1000
MTEXTEND
1000
MTEXTBEGIN
1070
    73
1070
     1
1070
    44
1040
1.0
1070
    74
1070
     0
1000
MTEXTEND
1000
MTEXTBEGIN
1070
    73
1070
     1
1070
    44
1040
1.0
1070
    74
1070
     0
1000
MTEXTEND
  0
POINT
  5
11F7
330
11C2
100
AcDbEntity
  8
DEFPOINTS
 62
     0
100
AcDbPoint
 10
323.1161690253126
 20
38.10236217381145
 30
0.0
  0
POINT
  5
11F8
330
11C2
100
AcDbEntity
  8
DEFPOINTS
 62
     0
100
AcDbPoint
 10
323.1161690253126
 20
37.65236217381143
 30
0.0
  0
POINT
  5
11F9
330
11C2
100
AcDbEntity
  8
DEFPOINTS
 62
     0
100
AcDbPoint
 10
322.8990708501973
 20
37.65236217381143
 30
0.0
  0
ENDBLK
  5
11CD
330
11C2
100
AcDbEntity
  8
0
100
AcDbBlockEnd
  0
BLOCK
  5
11D9
330
11CF
100
AcDbEntity
  8
0
100
AcDbBlockBegin
  2
*D32
 70
     1
 10
0.0
 20
0.0
 30
0.0
  3
*D32
  1

  0
LINE
  5
11FA
330
11CF
100
AcDbEntity
  8
0
 62
     0
100
AcDbLine
 10
323.1161690253126
 20
37.63736217381143
 30
0.0
 11
323.1161690253126
 21
37.44266714983243
 31
0.0
  0
LINE
  5
11FB
330
11CF
100
AcDbEntity
  8
0
 62
     0
100
AcDbLine
 10
323.6161690253126
 20
37.63736217381143
 30
0.0
 11
323.6161690253126
 21
37.44266714983243
 31
0.0
  0
LINE
  5
11FC
330
11CF
100
AcDbEntity
  8
0
 62
     0
100
AcDbLine
 10
323.1161690253126
 20
37.45766714983243
 30
0.0
 11
323.6161690253126
 21
37.45766714983243
 31
0.0
  0
INSERT
  5
11FD
330
11CF
100
AcDbEntity
  8
0
 62
     0
100
AcDbBlockReference
  2
_OBLIQUE
 10
323.1161690253126
 20
37.45766714983243
 30
0.0
 41
0.075
 42
0.075
 43
0.075
 50
180.0
  0
INSERT
  5
11FE
330
11CF
100
AcDbEntity
  8
0
 62
     0
100
AcDbBlockReference
  2
_OBLIQUE
 10
323.6161690253126
 20
37.45766714983243
 30
0.0
 41
0.075
 42
0.075
 43
0.075
  0
MTEXT
  5
11FF
330
11CF
100
AcDbEntity
  8
0
 62
     0
100
AcDbMText
 10
323.3661690253126
 20
37.53266714983242
 30
0.0
 40
0.075
 41
0.0
 71
     5
 72
     1
  1
\A1;0.50
  7
ROMANC
1001
ACAD
1000
MTEXTBEGIN
1070
    73
1070
     1
1070
    44
1040
1.0
1070
    74
1070
     0
1000
MTEXTEND
1000
MTEXTBEGIN
1070
    73
1070
     1
1070
    44
1040
1.0
1070
    74
1070
     0
1000
MTEXTEND
1000
MTEXTBEGIN
1070
    73
1070
     1
1070
    44
1040
1.0
1070
    74
1070
     0
1000
MTEXTEND
1000
MTEXTBEGIN
1070
    73
1070
     1
1070
    44
1040
1.0
1070
    74
1070
     0
1000
MTEXTEND
  0
POINT
  5
1200
330
11CF
100
AcDbEntity
  8
DEFPOINTS
 62
     0
100
AcDbPoint
 10
323.1161690253126
 20
37.65236217381143
 30
0.0
  0
POINT
  5
1201
330
11CF
100
AcDbEntity
  8
DEFPOINTS
 62
     0
100
AcDbPoint
 10
323.6161690253126
 20
37.65236217381143
 30
0.0
  0
POINT
  5
1202
330
11CF
100
AcDbEntity
  8
DEFPOINTS
 62
     0
100
AcDbPoint
 10
323.6161690253126
 20
37.45766714983243
 30
0.0
  0
ENDBLK
  5
11DA
330
11CF
100
AcDbEntity
  8
0
100
AcDbBlockEnd
  0
BLOCK
  5
11DD
330
11DB
100
AcDbEntity
  8
0
100
AcDbBlockBegin
  2
_OBLIQUE
 70
     0
 10
0.0
 20
0.0
 30
0.0
  3
_OBLIQUE
  1

  0
LINE
  5
11DC
330
11DB
100
AcDbEntity
  8
0
 62
     0
100
AcDbLine
 10
-0.5
 20
-0.5
 30
0.0
 11
0.5
 21
0.5
 31
0.0
  0
ENDBLK
  5
11DE
330
11DB
100
AcDbEntity
  8
0
100
AcDbBlockEnd
  0
BLOCK
  5
1238
330
122C
100
AcDbEntity
  8
0
100
AcDbBlockBegin
  2
*D34
 70
     1
 10
0.0
 20
0.0
 30
0.0
  3
*D34
  1

  0
LINE
  5
1261
330
122C
100
AcDbEntity
  8
0
 62
     0
100
AcDbLine
 10
322.953078220781
 20
38.35035893641943
 30
0.0
 11
322.7962795783382
 21
38.1935602939767
 31
0.0
  0
LINE
  5
1262
330
122C
100
AcDbEntity
  8
0
 62
     0
100
AcDbLine
 10
323.0450021023351
 20
38.2584350548652
 30
0.0
 11
322.8882034598924
 21
38.10163641242246
 31
0.0
  0
LINE
  5
1263
330
122C
100
AcDbEntity
  8
0
 62
     0
100
AcDbLine
 10
322.8068861800558
 20
38.2041668956945
 30
0.0
 11
322.753853171467
 21
38.25719990428346
 31
0.0
  0
LINE
  5
1264
330
122C
100
AcDbEntity
  8
0
 62
     0
100
AcDbLine
 10
322.89881006161
 20
38.11224301414025
 30
0.0
 11
322.9518430701992
 21
38.05921000555128
 31
0.0
  0
LINE
  5
1265
330
122C
100
AcDbEntity
  8
0
 62
     0
100
AcDbLine
 10
322.8068861800558
 20
38.2041668956945
 30
0.0
 11
322.89881006161
 21
38.11224301414025
 31
0.0
  0
INSERT
  5
1266
330
122C
100
AcDbEntity
  8
0
 62
     0
100
AcDbBlockReference
  2
_OBLIQUE
 10
322.8068861800558
 20
38.2041668956945
 30
0.0
 41
0.075
 42
0.075
 43
0.075
 50
315.0
  0
INSERT
  5
1267
330
122C
100
AcDbEntity
  8
0
 62
     0
100
AcDbBlockReference
  2
_OBLIQUE
 10
322.89881006161
 20
38.11224301414025
 30
0.0
 41
0.075
 42
0.075
 43
0.075
 50
135.0
  0
MTEXT
  5
1268
330
122C
100
AcDbEntity
  8
0
 62
     0
100
AcDbMText
 10
322.9058811294218
 20
38.21123796350642
 30
0.0
 40
0.075
 41
0.0
 71
     5
 72
     1
  1
\A1;0.13
  7
ROMANC
 11
0.7071067811865476
 21
-0.7071067811865475
 31
0.0
1001
ACAD
1000
MTEXTBEGIN
1070
    73
1070
     1
1070
    44
1040
1.0
1070
    74
1070
     0
1000
MTEXTEND
1000
MTEXTBEGIN
1070
    73
1070
     1
1070
    44
1040
1.0
1070
    74
1070
     0
1000
MTEXTEND
1000
MTEXTBEGIN
1070
    73
1070
     1
1070
    44
1040
1.0
1070
    74
1070
     0
1000
MTEXTEND
1000
MTEXTBEGIN
1070
    73
1070
     1
1070
    44
1040
1.0
1070
    74
1070
     0
1000
MTEXTEND
  0
POINT
  5
1269
330
122C
100
AcDbEntity
  8
DEFPOINTS
 62
     0
100
AcDbPoint
 10
322.9636848224986
 20
38.36096553813723
 30
0.0
  0
POINT
  5
126A
330
122C
100
AcDbEntity
  8
DEFPOINTS
 62
     0
100
AcDbPoint
 10
323.0556087040528
 20
38.269041656583
 30
0.0
  0
POINT
  5
126B
330
122C
100
AcDbEntity
  8
DEFPOINTS
 62
     0
100
AcDbPoint
 10
322.89881006161
 20
38.11224301414025
 30
0.0
  0
ENDBLK
  5
1239
330
122C
100
AcDbEntity
  8
0
100
AcDbBlockEnd
  0
BLOCK
  5
1245
330
123B
100
AcDbEntity
  8
0
100
AcDbBlockBegin
  2
*D35
 70
     1
 10
0.0
 20
0.0
 30
0.0
  3
*D35
  1

  0
LINE
  5
126C
330
123B
100
AcDbEntity
  8
0
 62
     0
100
AcDbLine
 10
323.0594909897295
 20
38.25455276918864
 30
0.0
 11
323.1128229557151
 21
38.05551516246245
 31
0.0
  0
LINE
  5
126D
330
123B
100
AcDbEntity
  8
0
 62
     0
100
AcDbLine
 10
324.0254168160186
 20
38.51337181429117
 30
0.0
 11
324.0787487820043
 21
38.31433420756496
 31
0.0
  0
LINE
  5
126E
330
123B
100
AcDbEntity
  8
0
 62
     0
100
AcDbLine
 10
323.1089406700387
 20
38.07000404985681
 30
0.0
 11
324.0748664963278
 21
38.32882309495932
 31
0.0
  0
INSERT
  5
126F
330
123B
100
AcDbEntity
  8
0
 62
     0
100
AcDbBlockReference
  2
_OBLIQUE
 10
323.1089406700387
 20
38.07000404985681
 30
0.0
 41
0.075
 42
0.075
 43
0.075
 50
194.9999999999992
  0
INSERT
  5
1270
330
123B
100
AcDbEntity
  8
0
 62
     0
100
AcDbBlockReference
  2
_OBLIQUE
 10
324.0748664963278
 20
38.32882309495932
 30
0.0
 41
0.075
 42
0.075
 43
0.075
 50
14.99999999999916
  0
MTEXT
  5
1271
330
123B
100
AcDbEntity
  8
0
 62
     0
100
AcDbMText
 10
323.5724921548006
 20
38.27185800937975
 30
0.0
 40
0.075
 41
0.0
 71
     5
 72
     1
  1
\A1;1.00
  7
ROMANC
 11
0.965925826289072
 21
0.2588190451025067
 31
0.0
1001
ACAD
1000
MTEXTBEGIN
1070
    73
1070
     1
1070
    44
1040
1.0
1070
    74
1070
     0
1000
MTEXTEND
1000
MTEXTBEGIN
1070
    73
1070
     1
1070
    44
1040
1.0
1070
    74
1070
     0
1000
MTEXTEND
1000
MTEXTBEGIN
1070
    73
1070
     1
1070
    44
1040
1.0
1070
    74
1070
     0
1000
MTEXTEND
1000
MTEXTBEGIN
1070
    73
1070
     1
1070
    44
1040
1.0
1070
    74
1070
     0
1000
MTEXTEND
  0
POINT
  5
1272
330
123B
100
AcDbEntity
  8
DEFPOINTS
 62
     0
100
AcDbPoint
 10
323.0556087040528
 20
38.26904165658299
 30
0.0
  0
POINT
  5
1273
330
123B
100
AcDbEntity
  8
DEFPOINTS
 62
     0
100
AcDbPoint
 10
324.0215345303421
 20
38.52786070168551
 30
0.0
  0
POINT
  5
1274
330
123B
100
AcDbEntity
  8
DEFPOINTS
 62
     0
100
AcDbPoint
 10
324.0748664963278
 20
38.32882309495932
 30
0.0
  0
ENDBLK
  5
1246
330
123B
100
AcDbEntity
  8
0
100
AcDbBlockEnd
  0
BLOCK
  5
12AB
330
12A1
100
AcDbEntity
  8
0
100
AcDbBlockBegin
  2
*D36
 70
     1
 10
0.0
 20
0.0
 30
0.0
  3
*D36
  1

  0
LINE
  5
132B
330
12A1
100
AcDbEntity
  8
0
 62
     0
100
AcDbLine
 10
322.9521005214955
 20
38.89656694618335
 30
0.0
 11
322.9521005214955
 21
38.97431546349235
 31
0.0
  0
LINE
  5
132C
330
12A1
100
AcDbEntity
  8
0
 62
     0
100
AcDbLine
 10
323.9521005214956
 20
38.89656694618347
 30
0.0
 11
323.9521005214956
 21
38.97431546349235
 31
0.0
  0
LINE
  5
132D
330
12A1
100
AcDbEntity
  8
0
 62
     0
100
AcDbLine
 10
322.9521005214955
 20
38.95931546349235
 30
0.0
 11
323.9521005214956
 21
38.95931546349235
 31
0.0
  0
INSERT
  5
132E
330
12A1
100
AcDbEntity
  8
0
 62
     0
100
AcDbBlockReference
  2
_OBLIQUE
 10
322.9521005214955
 20
38.95931546349235
 30
0.0
 41
0.075
 42
0.075
 43
0.075
 50
180.0
  0
INSERT
  5
132F
330
12A1
100
AcDbEntity
  8
0
 62
     0
100
AcDbBlockReference
  2
_OBLIQUE
 10
323.9521005214956
 20
38.95931546349235
 30
0.0
 41
0.075
 42
0.075
 43
0.075
  0
MTEXT
  5
1330
330
12A1
100
AcDbEntity
  8
0
 62
     0
100
AcDbMText
 10
323.4521005214956
 20
39.03431546349235
 30
0.0
 40
0.075
 41
0.0
 71
     5
 72
     1
  1
\A1;1.00
  7
ROMANC
1001
ACAD
1000
MTEXTBEGIN
1070
    73
1070
     1
1070
    44
1040
1.0
1070
    74
1070
     0
1000
MTEXTEND
1000
MTEXTBEGIN
1070
    73
1070
     1
1070
    44
1040
1.0
1070
    74
1070
     0
1000
MTEXTEND
1000
MTEXTBEGIN
1070
    73
1070
     1
1070
    44
1040
1.0
1070
    74
1070
     0
1000
MTEXTEND
  0
POINT
  5
1331
330
12A1
100
AcDbEntity
  8
DEFPOINTS
 62
     0
100
AcDbPoint
 10
322.9521005214955
 20
38.88156694618335
 30
0.0
  0
POINT
  5
1332
330
12A1
100
AcDbEntity
  8
DEFPOINTS
 62
     0
100
AcDbPoint
 10
323.9521005214956
 20
38.88156694618347
 30
0.0
  0
POINT
  5
1333
330
12A1
100
AcDbEntity
  8
DEFPOINTS
 62
     0
100
AcDbPoint
 10
323.9521005214956
 20
38.95931546349235
 30
0.0
  0
ENDBLK
  5
12AC
330
12A1
100
AcDbEntity
  8
0
100
AcDbBlockEnd
  0
BLOCK
  5
12B8
330
12AE
100
AcDbEntity
  8
0
100
AcDbBlockBegin
  2
*D37
 70
     1
 10
0.0
 20
0.0
 30
0.0
  3
*D37
  1

  0
LINE
  5
1334
330
12AE
100
AcDbEntity
  8
0
 62
     0
100
AcDbLine
 10
323.9671005214956
 20
38.88156694618347
 30
0.0
 11
324.1666988159365
 21
38.88156694618347
 31
0.0
  0
LINE
  5
1335
330
12AE
100
AcDbEntity
  8
0
 62
     0
100
AcDbLine
 10
323.9671005214956
 20
38.48156694618348
 30
0.0
 11
324.1666988159365
 21
38.48156694618348
 31
0.0
  0
LINE
  5
1336
330
12AE
100
AcDbEntity
  8
0
 62
     0
100
AcDbLine
 10
324.1516988159365
 20
38.88156694618347
 30
0.0
 11
324.1516988159365
 21
38.48156694618348
 31
0.0
  0
INSERT
  5
1337
330
12AE
100
AcDbEntity
  8
0
 62
     0
100
AcDbBlockReference
  2
_OBLIQUE
 10
324.1516988159365
 20
38.88156694618347
 30
0.0
 41
0.075
 42
0.075
 43
0.075
 50
90.0
  0
INSERT
  5
1338
330
12AE
100
AcDbEntity
  8
0
 62
     0
100
AcDbBlockReference
  2
_OBLIQUE
 10
324.1516988159365
 20
38.48156694618348
 30
0.0
 41
0.075
 42
0.075
 43
0.075
 50
270.0
  0
MTEXT
  5
1339
330
12AE
100
AcDbEntity
  8
0
 62
     0
100
AcDbMText
 10
324.0766988159363
 20
38.68156694618352
 30
0.0
 40
0.075
 41
0.0
 71
     5
 72
     1
  1
\A1;0.40
  7
ROMANC
 11
0.0000000000000001
 21
1.0
 31
0.0
1001
ACAD
1000
MTEXTBEGIN
1070
    73
1070
     1
1070
    44
1040
1.0
1070
    74
1070
     0
1000
MTEXTEND
1000
MTEXTBEGIN
1070
    73
1070
     1
1070
    44
1040
1.0
1070
    74
1070
     0
1000
MTEXTEND
1000
MTEXTBEGIN
1070
    73
1070
     1
1070
    44
1040
1.0
1070
    74
1070
     0
1000
MTEXTEND
  0
POINT
  5
133A
330
12AE
100
AcDbEntity
  8
DEFPOINTS
 62
     0
100
AcDbPoint
 10
323.9521005214956
 20
38.88156694618347
 30
0.0
  0
POINT
  5
133B
330
12AE
100
AcDbEntity
  8
DEFPOINTS
 62
     0
100
AcDbPoint
 10
323.9521005214956
 20
38.48156694618348
 30
0.0
  0
POINT
  5
133C
330
12AE
100
AcDbEntity
  8
DEFPOINTS
 62
     0
100
AcDbPoint
 10
324.1516988159365
 20
38.48156694618348
 30
0.0
  0
ENDBLK
  5
12B9
330
12AE
100
AcDbEntity
  8
0
100
AcDbBlockEnd
  0
ENDSEC
  0
SECTION
  2
ENTITIES
  0
TEXT
  5
2A
330
17
100
AcDbEntity
  8
0
100
AcDbText
 10
322.478622061291
 20
41.89508124771027
 30
0.0
 40
0.15
  1
TIPUS   C30
  7
ROMANC
100
AcDbText
  0
TEXT
  5
2D
330
17
100
AcDbEntity
  8
0
100
AcDbText
 10
322.4830293194635
 20
40.98857047167255
 30
0.0
 40
0.15
  1
P = 23,8 dm
  7
ROMANC
100
AcDbText
  0
TEXT
  5
2E
330
17
100
AcDbEntity
  8
0
100
AcDbText
 10
322.4721866792131
 20
41.29324691229729
 30
0.0
 40
0.15
  1
S = 30 dm
  7
ROMANC
100
AcDbText
  0
TEXT
  5
2F
330
17
100
AcDbEntity
  8
0
100
AcDbText
 10
322.478622061291
 20
41.5925419122973
 30
0.0
 40
0.15
  1
ESCALA  1: 2.5
  7
ROMANC
100
AcDbText
  0
TEXT
  5
30
330
17
100
AcDbEntity
  8
0
100
AcDbText
 10
323.9403431471441
 20
41.44620491229729
 30
0.0
 40
0.05
  1
2
  7
ROMANC
100
AcDbText
  0
TEXT
  5
1203
330
17
100
AcDbEntity
  8
0
100
AcDbText
 10
324.176364344085
 20
36.24712461763275
 30
0.0
 40
0.15
  1
SANT ADRIÀ
  7
ROMANC
100
AcDbText
  0
DIMENSION
  5
12A0
330
17
100
AcDbEntity
  8
0
100
AcDbDimension
  2
*D36
 10
323.9521005214956
 20
38.95931546349235
 30
0.0
 11
323.4521005214956
 21
39.03431546349235
 31
0.0
 70
    32
  3
MERITXELL
100
AcDbAlignedDimension
 13
322.9521005214955
 23
38.88156694618335
 33
0.0
 14
323.9521005214956
 24
38.88156694618347
 34
0.0
100
AcDbRotatedDimension
1001
ACAD
1000
DSTYLE
1002
{
1070
   141
1040
0.0
1070
   147
1040
0.025
1002
}
  0
DIMENSION
  5
12AD
330
17
100
AcDbEntity
  8
0
100
AcDbDimension
  2
*D37
 10
324.1516988159365
 20
38.48156694618348
 30
0.0
 11
324.0766988159363
 21
38.68156694618352
 31
0.0
 70
    32
  3
MERITXELL
100
AcDbAlignedDimension
 13
323.9521005214956
 23
38.88156694618347
 33
0.0
 14
323.9521005214956
 24
38.48156694618348
 34
0.0
 50
90.0
100
AcDbRotatedDimension
1001
ACAD
1000
DSTYLE
1002
{
1070
   141
1040
0.0
1070
   147
1040
0.025
1002
}
  0
ARC
  5
12BD
330
17
100
AcDbEntity
  8
0
100
AcDbCircle
 10
323.4521005214955
 20
38.99406694618351
 30
0.0
 40
0.5125000000000056
100
AcDbArc
 50
192.6803834918225
 51
347.3196165081773
  0
ARC
  5
12BF
330
17
100
AcDbEntity
  8
0
100
AcDbCircle
 10
323.4521005214955
 20
38.99406694618351
 30
0.0
 40
0.5225000000000059
100
AcDbArc
 50
192.6803834918225
 51
347.3196165081773
  0
ARC
  5
12C0
330
17
100
AcDbEntity
  8
0
100
AcDbCircle
 10
323.4521005214955
 20
38.99406694618351
 30
0.0
 40
0.5025000000000058
100
AcDbArc
 50
192.6803834918225
 51
347.3196165081773
  0
LWPOLYLINE
  5
1318
330
17
100
AcDbEntity
  8
NO_PRINT
100
AcDbPolyline
 90
        4
 70
     1
 43
0.0
 10
321.0312874670755
 20
35.73641460049263
 10
326.2812874670756
 20
35.73641460049263
 10
326.2812874670756
 20
43.16141460049261
 10
321.0312874670755
 20
43.16141460049261
  0
VIEWPORT
  5
FCA
330
14
100
AcDbEntity
 67
     1
  8
0
100
AcDbViewport
 10
3.959436645507813
 20
5.669703330993652
 30
0.0
 40
21.44806040799458
 41
12.56590810302735
 68
     1
 69
     1
1001
ACAD
1000
MVIEW
1002
{
1070
    16
1010
0.0
1020
0.0
1030
0.0
1010
0.0
1020
0.0
1030
1.0
1040
0.0
1040
12.56590810302735
1040
3.959436645507813
1040
5.669703330993652
1040
50.0
1040
0.0
1040
0.0
1070
     0
1070
   100
1070
     1
1070
     1
1070
     0
1070
     0
1070
     0
1070
     0
1040
0.0
1040
0.0
1040
0.0
1040
10.0
1040
10.0
1040
10.0
1040
10.0
1070
     0
1002
{
1002
}
1002
}
  0
VIEWPORT
  5
FCC
330
14
100
AcDbEntity
 67
     1
  8
FINESTRA
100
AcDbViewport
 10
3.972109424221375
 20
5.74787193526479
 30
0.0
 40
7.521002543796178
 41
11.0264663887638
 68
     2
 69
     2
1001
ACAD
1000
MVIEW
1002
{
1070
    16
1010
0.0
1020
0.0
1030
0.0
1010
0.0
1020
0.0
1030
1.0
1040
0.0
1040
13.78308298595475
1040
324.1005717719679
1040
37.29169518569444
1040
50.0
1040
0.0
1040
0.0
1070
     0
1070
   100
1070
     1
1070
     0
1070
     0
1070
     0
1070
     0
1070
     1
1040
0.0
1040
0.0
1040
0.0
1040
1.0
1040
1.0
1040
10.0
1040
10.0
1070
     0
1002
{
1002
}
1002
}
  0
ENDSEC
  0
SECTION
  2
OBJECTS
  0
DICTIONARY
  5
C
330
0
100
AcDbDictionary
  3
ACAD_GROUP
350
D
  3
ACAD_LAYOUT
350
FC0
  3
ACAD_MLINESTYLE
350
1A
  3
ACAD_PLOTSETTINGS
350
FC1
  3
ACAD_PLOTSTYLENAME
350
FBE
  3
ACDBVARIABLEDICTIONARY
350
25
  3
ACDBHEADERROUNDTRIPXREC
350
13BF
  0
DICTIONARY
  5
11AB
330
17
100
AcDbDictionary
280
     1
  3
ACAD_LAYOUTSELFREF
360
13E1
  0
DICTIONARY
  5
11A9
330
14
100
AcDbDictionary
280
     1
  3
ACAD_LAYOUTSELFREF
360
13E0
  0
DICTIONARY
  5
D
102
{ACAD_REACTORS
330
C
102
}
330
C
100
AcDbDictionary
  0
DICTIONARY
  5
FC0
102
{ACAD_REACTORS
330
C
102
}
330
C
100
AcDbDictionary
  0
DICTIONARY
  5
1A
102
{ACAD_REACTORS
330
C
102
}
330
C
100
AcDbDictionary
  3
STANDARD
350
1B
  0
DICTIONARY
  5
FC1
102
{ACAD_REACTORS
330
C
102
}
330
C
100
AcDbDictionary
  0
ACDBDICTIONARYWDFLT
  5
FBE
102
{ACAD_REACTORS
330
C
102
}
330
C
100
AcDbDictionary
281
     1
  3
Normal
350
FBF
100
AcDbDictionaryWithDefault
340
FBF
  0
DICTIONARY
  5
25
102
{ACAD_REACTORS
330
C
102
}
330
C
100
AcDbDictionary
  3
DIMADEC
350
26
  0
DICTIONARY
  5
13BF
102
{ACAD_REACTORS
330
C
102
}
330
C
100
AcDbDictionary
  3
TSTACKALIGN
350
13C0
  3
TSTACKSIZE
350
13C1
  3
HYPERLINKBASE
350
13C2
  3
STYLESHEET
350
13C3
  3
LAYOUTDICT
350
13C4
  3
PLOTSETDICT
350
13C5
  3
PLOTSTYLNAMDICT
350
13C6
  3
LWETCUNION
350
13C7
  3
INSUNITS
350
13C8
  3
CEPSNTYPE
350
13C9
  3
FINGERPRINTGUID
350
13CA
  3
VERSIONGUID
350
13CB
  3
PSVPSCALE
350
13CC
  3
DIMSTYLEDATA
350
13CD
  3
PUCSORTHOREF
350
13CE
  3
PUCSORTHOVIEW
350
13CF
  3
PUCSBASE
350
13D0
  3
PUCSORGTOP
350
13D1
  3
PUCSORGBOTTOM
350
13D2
  3
PUCSORGLEFT
350
13D3
  3
PUCSORGRIGHT
350
13D4
  3
PUCSORGFRONT
350
13D5
  3
PUCSORGBACK
350
13D6
  3
UCSORTHOREF
350
13D7
  3
UCSORTHOVIEW
350
13D8
  3
UCSBASE
350
13D9
  3
UCSORGTOP
350
13DA
  3
UCSORGBOTTOM
350
13DB
  3
UCSORGLEFT
350
13DC
  3
UCSORGRIGHT
350
13DD
  3
UCSORGFRONT
350
13DE
  3
UCSORGBACK
350
13DF
  0
XRECORD
  5
13E1
102
{ACAD_REACTORS
330
11AB
102
}
330
11AB
100
AcDbXrecord
340
17
  0
XRECORD
  5
13E0
102
{ACAD_REACTORS
330
11A9
102
}
330
11A9
100
AcDbXrecord
340
14
  0
MLINESTYLE
  5
1B
102
{ACAD_REACTORS
330
1A
102
}
330
1A
100
AcDbMlineStyle
  2
STANDARD
 70
     0
  3

 62
   256
 51
90.0
 52
90.0
 71
     2
 49
0.5
 62
   256
  6
BYLAYER
 49
-0.5
 62
   256
  6
BYLAYER
  0
ACDBPLACEHOLDER
  5
FBF
102
{ACAD_REACTORS
330
FBE
102
}
330
FBE
100
AcDbPlaceHolder
280
     0
  0
DICTIONARYVAR
  5
26
102
{ACAD_REACTORS
330
25
102
}
330
25
100
DictionaryVariables
280
     0
  1
0
  0
XRECORD
  5
13C0
102
{ACAD_REACTORS
330
13BF
102
}
330
13BF
100
AcDbXrecord
 90
        1
  0
XRECORD
  5
13C1
102
{ACAD_REACTORS
330
13BF
102
}
330
13BF
100
AcDbXrecord
 90
       70
  0
XRECORD
  5
13C2
102
{ACAD_REACTORS
330
13BF
102
}
330
13BF
100
AcDbXrecord
  1

  0
XRECORD
  5
13C3
102
{ACAD_REACTORS
330
13BF
102
}
330
13BF
100
AcDbXrecord
  1

  0
XRECORD
  5
13C4
102
{ACAD_REACTORS
330
13BF
102
}
330
13BF
100
AcDbXrecord
340
FC0
  0
XRECORD
  5
13C5
102
{ACAD_REACTORS
330
13BF
102
}
330
13BF
100
AcDbXrecord
340
FC1
  0
XRECORD
  5
13C6
102
{ACAD_REACTORS
330
13BF
102
}
330
13BF
100
AcDbXrecord
340
FBE
  0
XRECORD
  5
13C7
102
{ACAD_REACTORS
330
13BF
102
}
330
13BF
100
AcDbXrecord
 90
    10781
  0
XRECORD
  5
13C8
102
{ACAD_REACTORS
330
13BF
102
}
330
13BF
100
AcDbXrecord
 90
        0
  0
XRECORD
  5
13C9
102
{ACAD_REACTORS
330
13BF
102
}
330
13BF
100
AcDbXrecord
 90
        0
  0
XRECORD
  5
13CA
102
{ACAD_REACTORS
330
13BF
102
}
330
13BF
100
AcDbXrecord
  1
{85A93EE0-FB4C-11D3-A568-0008C769B1B5}
  0
XRECORD
  5
13CB
102
{ACAD_REACTORS
330
13BF
102
}
330
13BF
100
AcDbXrecord
  1
{D25BDC5D-AD3F-4C4D-93EA-46D545613BFB}
  0
XRECORD
  5
13CC
102
{ACAD_REACTORS
330
13BF
102
}
330
13BF
100
AcDbXrecord
 40
0.0
  0
XRECORD
  5
13CD
102
{ACAD_REACTORS
330
13BF
102
}
330
13BF
100
AcDbXrecord
1000
DSTYLE
1002
{
1070
   341
340
11DB
1070
   342
340
11DB
1002
}
  0
XRECORD
  5
13CE
102
{ACAD_REACTORS
330
13BF
102
}
330
13BF
100
AcDbXrecord
340
0
  0
XRECORD
  5
13CF
102
{ACAD_REACTORS
330
13BF
102
}
330
13BF
100
AcDbXrecord
 70
     0
  0
XRECORD
  5
13D0
102
{ACAD_REACTORS
330
13BF
102
}
330
13BF
100
AcDbXrecord
340
0
  0
XRECORD
  5
13D1
102
{ACAD_REACTORS
330
13BF
102
}
330
13BF
100
AcDbXrecord
 10
0.0
 20
0.0
 30
0.0
  0
XRECORD
  5
13D2
102
{ACAD_REACTORS
330
13BF
102
}
330
13BF
100
AcDbXrecord
 10
0.0
 20
0.0
 30
0.0
  0
XRECORD
  5
13D3
102
{ACAD_REACTORS
330
13BF
102
}
330
13BF
100
AcDbXrecord
 10
0.0
 20
0.0
 30
0.0
  0
XRECORD
  5
13D4
102
{ACAD_REACTORS
330
13BF
102
}
330
13BF
100
AcDbXrecord
 10
0.0
 20
0.0
 30
0.0
  0
XRECORD
  5
13D5
102
{ACAD_REACTORS
330
13BF
102
}
330
13BF
100
AcDbXrecord
 10
0.0
 20
0.0
 30
0.0
  0
XRECORD
  5
13D6
102
{ACAD_REACTORS
330
13BF
102
}
330
13BF
100
AcDbXrecord
 10
0.0
 20
0.0
 30
0.0
  0
XRECORD
  5
13D7
102
{ACAD_REACTORS
330
13BF
102
}
330
13BF
100
AcDbXrecord
340
0
  0
XRECORD
  5
13D8
102
{ACAD_REACTORS
330
13BF
102
}
330
13BF
100
AcDbXrecord
 70
     0
  0
XRECORD
  5
13D9
102
{ACAD_REACTORS
330
13BF
102
}
330
13BF
100
AcDbXrecord
340
0
  0
XRECORD
  5
13DA
102
{ACAD_REACTORS
330
13BF
102
}
330
13BF
100
AcDbXrecord
 10
0.0
 20
0.0
 30
0.0
  0
XRECORD
  5
13DB
102
{ACAD_REACTORS
330
13BF
102
}
330
13BF
100
AcDbXrecord
 10
0.0
 20
0.0
 30
0.0
  0
XRECORD
  5
13DC
102
{ACAD_REACTORS
330
13BF
102
}
330
13BF
100
AcDbXrecord
 10
0.0
 20
0.0
 30
0.0
  0
XRECORD
  5
13DD
102
{ACAD_REACTORS
330
13BF
102
}
330
13BF
100
AcDbXrecord
 10
0.0
 20
0.0
 30
0.0
  0
XRECORD
  5
13DE
102
{ACAD_REACTORS
330
13BF
102
}
330
13BF
100
AcDbXrecord
 10
0.0
 20
0.0
 30
0.0
  0
XRECORD
  5
13DF
102
{ACAD_REACTORS
330
13BF
102
}
330
13BF
100
AcDbXrecord
 10
0.0
 20
0.0
 30
0.0
  0
ENDSEC
  0
EOF
