  0
SECTION
  2
HEADER
  9
$ACADVER
  1
AC1015
  9
$ACADMAINTVER
 70
    13
  9
$DWGCODEPAGE
  3
ANSI_1252
  9
$INSBASE
 10
105.4640269999999
 20
-4.528761
 30
0.0
  9
$EXTMIN
 10
281.3870252079646
 20
29.77029489233416
 30
-0.000000000000013
  9
$EXTMAX
 10
302.4075325676328
 20
59.48365824027405
 30
0.0000000000000023
  9
$LIMMIN
 10
0.0
 20
0.0
  9
$LIMMAX
 10
410.0
 20
287.0
  9
$ORTHOMODE
 70
     1
  9
$REGENMODE
 70
     1
  9
$FILLMODE
 70
     1
  9
$QTEXTMODE
 70
     0
  9
$MIRRTEXT
 70
     1
  9
$LTSCALE
 40
25.0
  9
$ATTMODE
 70
     1
  9
$TEXTSIZE
 40
0.1
  9
$TRACEWID
 40
1.0
  9
$TEXTSTYLE
  7
ROMANC
  9
$CLAYER
  8
0
  9
$CELTYPE
  6
BYLAYER
  9
$CECOLOR
 62
   256
  9
$CELTSCALE
 40
1.0
  9
$DISPSILH
 70
     0
  9
$DIMSCALE
 40
1.5
  9
$DIMASZ
 40
0.1
  9
$DIMEXO
 40
0.01
  9
$DIMDLI
 40
7.0
  9
$DIMRND
 40
0.0
  9
$DIMDLE
 40
0.0
  9
$DIMEXE
 40
0.01
  9
$DIMTP
 40
0.0
  9
$DIMTM
 40
0.0
  9
$DIMTXT
 40
0.15
  9
$DIMCEN
 40
0.1
  9
$DIMTSZ
 40
0.0
  9
$DIMTOL
 70
     0
  9
$DIMLIM
 70
     0
  9
$DIMTIH
 70
     0
  9
$DIMTOH
 70
     0
  9
$DIMSE1
 70
     0
  9
$DIMSE2
 70
     0
  9
$DIMTAD
 70
     1
  9
$DIMZIN
 70
     0
  9
$DIMBLK
  1

  9
$DIMASO
 70
     1
  9
$DIMSHO
 70
     0
  9
$DIMPOST
  1

  9
$DIMAPOST
  1

  9
$DIMALT
 70
     0
  9
$DIMALTD
 70
     2
  9
$DIMALTF
 40
25.4
  9
$DIMLFAC
 40
1.0
  9
$DIMTOFL
 70
     1
  9
$DIMTVP
 40
0.0
  9
$DIMTIX
 70
     1
  9
$DIMSOXD
 70
     0
  9
$DIMSAH
 70
     0
  9
$DIMBLK1
  1

  9
$DIMBLK2
  1

  9
$DIMSTYLE
  2
SILVIA
  9
$DIMCLRD
 70
     0
  9
$DIMCLRE
 70
     0
  9
$DIMCLRT
 70
     0
  9
$DIMTFAC
 40
70.0
  9
$DIMGAP
 40
0.09
  9
$DIMJUST
 70
     0
  9
$DIMSD1
 70
     0
  9
$DIMSD2
 70
     0
  9
$DIMTOLJ
 70
     1
  9
$DIMTZIN
 70
     0
  9
$DIMALTZ
 70
     0
  9
$DIMALTTZ
 70
     0
  9
$DIMUPT
 70
     0
  9
$DIMDEC
 70
     2
  9
$DIMTDEC
 70
     2
  9
$DIMALTU
 70
     2
  9
$DIMALTTD
 70
     2
  9
$DIMTXSTY
  7
STANDARD
  9
$DIMAUNIT
 70
     0
  9
$DIMADEC
 70
     0
  9
$DIMALTRND
 40
0.0
  9
$DIMAZIN
 70
     0
  9
$DIMDSEP
 70
    46
  9
$DIMATFIT
 70
     3
  9
$DIMFRAC
 70
     0
  9
$DIMLDRBLK
  1

  9
$DIMLUNIT
 70
     2
  9
$DIMLWD
 70
    -2
  9
$DIMLWE
 70
    -2
  9
$DIMTMOVE
 70
     0
  9
$LUNITS
 70
     2
  9
$LUPREC
 70
     2
  9
$SKETCHINC
 40
1.0
  9
$FILLETRAD
 40
0.0
  9
$AUNITS
 70
     0
  9
$AUPREC
 70
     0
  9
$MENU
  1
acad
  9
$ELEVATION
 40
0.0
  9
$PELEVATION
 40
0.0
  9
$THICKNESS
 40
0.0
  9
$LIMCHECK
 70
     0
  9
$CHAMFERA
 40
0.0
  9
$CHAMFERB
 40
0.0
  9
$CHAMFERC
 40
0.0
  9
$CHAMFERD
 40
0.0
  9
$SKPOLY
 70
     0
  9
$TDCREATE
 40
2450305.554557986
  9
$TDUCREATE
 40
2450305.471224652
  9
$TDUPDATE
 40
2453180.768069397
  9
$TDUUPDATE
 40
2453180.684736064
  9
$TDINDWG
 40
0.0859803009
  9
$TDUSRTIMER
 40
0.0859718056
  9
$USRTIMER
 70
     1
  9
$ANGBASE
 50
0.0
  9
$ANGDIR
 70
     0
  9
$PDMODE
 70
     0
  9
$PDSIZE
 40
0.0
  9
$PLINEWID
 40
0.0
  9
$SPLFRAME
 70
     0
  9
$SPLINETYPE
 70
     6
  9
$SPLINESEGS
 70
     8
  9
$HANDSEED
  5
3C6
  9
$SURFTAB1
 70
     6
  9
$SURFTAB2
 70
     6
  9
$SURFTYPE
 70
     6
  9
$SURFU
 70
     6
  9
$SURFV
 70
     6
  9
$UCSBASE
  2

  9
$UCSNAME
  2

  9
$UCSORG
 10
0.0
 20
0.0
 30
0.0
  9
$UCSXDIR
 10
1.0
 20
0.0
 30
0.0
  9
$UCSYDIR
 10
0.0
 20
1.0
 30
0.0
  9
$UCSORTHOREF
  2

  9
$UCSORTHOVIEW
 70
     0
  9
$UCSORGTOP
 10
0.0
 20
0.0
 30
0.0
  9
$UCSORGBOTTOM
 10
0.0
 20
0.0
 30
0.0
  9
$UCSORGLEFT
 10
0.0
 20
0.0
 30
0.0
  9
$UCSORGRIGHT
 10
0.0
 20
0.0
 30
0.0
  9
$UCSORGFRONT
 10
0.0
 20
0.0
 30
0.0
  9
$UCSORGBACK
 10
0.0
 20
0.0
 30
0.0
  9
$PUCSBASE
  2

  9
$PUCSNAME
  2

  9
$PUCSORG
 10
0.0
 20
0.0
 30
0.0
  9
$PUCSXDIR
 10
1.0
 20
0.0
 30
0.0
  9
$PUCSYDIR
 10
0.0
 20
1.0
 30
0.0
  9
$PUCSORTHOREF
  2

  9
$PUCSORTHOVIEW
 70
     0
  9
$PUCSORGTOP
 10
0.0
 20
0.0
 30
0.0
  9
$PUCSORGBOTTOM
 10
0.0
 20
0.0
 30
0.0
  9
$PUCSORGLEFT
 10
0.0
 20
0.0
 30
0.0
  9
$PUCSORGRIGHT
 10
0.0
 20
0.0
 30
0.0
  9
$PUCSORGFRONT
 10
0.0
 20
0.0
 30
0.0
  9
$PUCSORGBACK
 10
0.0
 20
0.0
 30
0.0
  9
$USERI1
 70
     0
  9
$USERI2
 70
     0
  9
$USERI3
 70
     0
  9
$USERI4
 70
     0
  9
$USERI5
 70
     0
  9
$USERR1
 40
0.0
  9
$USERR2
 40
0.0
  9
$USERR3
 40
0.0
  9
$USERR4
 40
0.0
  9
$USERR5
 40
0.0
  9
$WORLDVIEW
 70
     1
  9
$SHADEDGE
 70
     3
  9
$SHADEDIF
 70
    70
  9
$TILEMODE
 70
     1
  9
$MAXACTVP
 70
    16
  9
$PINSBASE
 10
0.0
 20
0.0
 30
0.0
  9
$PLIMCHECK
 70
     0
  9
$PEXTMIN
 10
1.000000000000000E+20
 20
1.000000000000000E+20
 30
1.000000000000000E+20
  9
$PEXTMAX
 10
-1.000000000000000E+20
 20
-1.000000000000000E+20
 30
-1.000000000000000E+20
  9
$PLIMMIN
 10
0.0
 20
0.0
  9
$PLIMMAX
 10
12.0
 20
9.0
  9
$UNITMODE
 70
     0
  9
$VISRETAIN
 70
     0
  9
$PLINEGEN
 70
     0
  9
$PSLTSCALE
 70
     0
  9
$TREEDEPTH
 70
  3020
  9
$CMLSTYLE
  2
STANDARD
  9
$CMLJUST
 70
     0
  9
$CMLSCALE
 40
1.0
  9
$PROXYGRAPHICS
 70
     1
  9
$MEASUREMENT
 70
     0
  9
$CELWEIGHT
370
    -1
  9
$ENDCAPS
280
     0
  9
$JOINSTYLE
280
     0
  9
$LWDISPLAY
290
     0
  9
$INSUNITS
 70
     0
  9
$HYPERLINKBASE
  1

  9
$STYLESHEET
  1

  9
$XEDIT
290
     1
  9
$CEPSNTYPE
380
     0
  9
$PSTYLEMODE
290
     1
  9
$FINGERPRINTGUID
  2
{3A9A1BF3-37C0-11D4-A5B7-0008C769B1B5}
  9
$VERSIONGUID
  2
{3369CC8E-EB12-45BC-8E7C-0BAF5210F4C9}
  9
$EXTNAMES
290
     1
  9
$PSVPSCALE
 40
0.0
  9
$OLESTARTUP
290
     0
  0
ENDSEC
  0
SECTION
  2
CLASSES
  0
CLASS
  1
ACDBDICTIONARYWDFLT
  2
AcDbDictionaryWithDefault
  3
AutoCAD 2000
 90
        0
280
     0
281
     0
  0
CLASS
  1
ACDBPLACEHOLDER
  2
AcDbPlaceHolder
  3
AutoCAD 2000
 90
        0
280
     0
281
     0
  0
CLASS
  1
LAYOUT
  2
AcDbLayout
  3
AutoCAD 2000
 90
        0
280
     0
281
     0
  0
CLASS
  1
DICTIONARYVAR
  2
AcDbDictionaryVar
  3
AutoCAD 2000
 90
        0
280
     0
281
     0
  0
CLASS
  1
LONG_TRANSACTION
  2
AcDbLongTransaction
  3
AutoCAD 2000
 90
    32768
280
     0
281
     0
  0
CLASS
  1
LWPOLYLINE
  2
AcDbPolyline
  3
AutoCAD 2000
 90
    32768
280
     0
281
     1
  0
CLASS
  1
HATCH
  2
AcDbHatch
  3
AutoCAD 2000
 90
    32768
280
     0
281
     1
  0
CLASS
  1
XRECORD
  2
AcDbXrecord
  3
AutoCAD 2000
 90
    32768
280
     0
281
     0
  0
CLASS
  1
LONG_TRANSACTION
  2
AcDbLongTransaction
  3
AutoCAD 2000
 90
    32768
280
     0
281
     0
  0
CLASS
  1
LWPOLYLINE
  2
AcDbPolyline
  3
AutoCAD 2000
 90
    32768
280
     0
281
     1
  0
CLASS
  1
HATCH
  2
AcDbHatch
  3
AutoCAD 2000
 90
    32768
280
     0
281
     1
  0
CLASS
  1
XRECORD
  2
AcDbXrecord
  3
AutoCAD 2000
 90
    32768
280
     0
281
     0
  0
CLASS
  1
LONG_TRANSACTION
  2
AcDbLongTransaction
  3
AutoCAD 2000
 90
    32768
280
     0
281
     0
  0
CLASS
  1
LWPOLYLINE
  2
AcDbPolyline
  3
AutoCAD 2000
 90
    32768
280
     0
281
     1
  0
CLASS
  1
HATCH
  2
AcDbHatch
  3
AutoCAD 2000
 90
    32768
280
     0
281
     1
  0
CLASS
  1
XRECORD
  2
AcDbXrecord
  3
AutoCAD 2000
 90
    32768
280
     0
281
     0
  0
CLASS
  1
LONG_TRANSACTION
  2
AcDbLongTransaction
  3
AutoCAD 2000
 90
    32768
280
     0
281
     0
  0
CLASS
  1
LWPOLYLINE
  2
AcDbPolyline
  3
AutoCAD 2000
 90
    32768
280
     0
281
     1
  0
CLASS
  1
HATCH
  2
AcDbHatch
  3
AutoCAD 2000
 90
    32768
280
     0
281
     1
  0
CLASS
  1
XRECORD
  2
AcDbXrecord
  3
AutoCAD 2000
 90
    32768
280
     0
281
     0
  0
CLASS
  1
LONG_TRANSACTION
  2
AcDbLongTransaction
  3
AutoCAD 2000
 90
    32768
280
     0
281
     0
  0
CLASS
  1
LWPOLYLINE
  2
AcDbPolyline
  3
AutoCAD 2000
 90
    32768
280
     0
281
     1
  0
CLASS
  1
HATCH
  2
AcDbHatch
  3
AutoCAD 2000
 90
    32768
280
     0
281
     1
  0
CLASS
  1
XRECORD
  2
AcDbXrecord
  3
AutoCAD 2000
 90
    32768
280
     0
281
     0
  0
ENDSEC
  0
SECTION
  2
TABLES
  0
TABLE
  2
VPORT
  5
8
330
0
100
AcDbSymbolTable
 70
     6
  0
VPORT
  5
3C5
330
8
100
AcDbSymbolTableRecord
100
AcDbViewportTableRecord
  2
*Active
 70
     0
 10
0.0
 20
0.0
 11
1.0
 21
1.0
 12
291.8972788877987
 22
44.6269765663041
 13
0.0
 23
0.0
 14
1.0
 24
1.0
 15
10.0
 25
10.0
 16
0.0
 26
0.0
 36
1.0
 17
0.0
 27
0.0
 37
0.0
 40
29.93482941016056
 41
1.498756218905472
 42
50.0
 43
0.0
 44
0.0
 50
0.0
 51
0.0
 71
     0
 72
   100
 73
     1
 74
     0
 75
     0
 76
     0
 77
     0
 78
     1
281
     0
 65
     1
110
0.0
120
0.0
130
0.0
111
1.0
121
0.0
131
0.0
112
0.0
122
1.0
132
0.0
 79
     0
146
0.0
  0
ENDTAB
  0
TABLE
  2
LTYPE
  5
5
330
0
100
AcDbSymbolTable
 70
     1
  0
LTYPE
  5
13
330
5
100
AcDbSymbolTableRecord
100
AcDbLinetypeTableRecord
  2
BYBLOCK
 70
     0
  3

 72
    65
 73
     0
 40
0.0
  0
LTYPE
  5
14
330
5
100
AcDbSymbolTableRecord
100
AcDbLinetypeTableRecord
  2
BYLAYER
 70
     0
  3

 72
    65
 73
     0
 40
0.0
  0
LTYPE
  5
15
330
5
100
AcDbSymbolTableRecord
100
AcDbLinetypeTableRecord
  2
CONTINUOUS
 70
     0
  3
Solid line
 72
    65
 73
     0
 40
0.0
  0
ENDTAB
  0
TABLE
  2
LAYER
  5
2
330
0
100
AcDbSymbolTable
 70
     4
  0
LAYER
  5
10
330
2
100
AcDbSymbolTableRecord
100
AcDbLayerTableRecord
  2
0
 70
     0
 62
     7
  6
CONTINUOUS
370
    -3
390
F
  0
LAYER
  5
24
330
2
100
AcDbSymbolTableRecord
100
AcDbLayerTableRecord
  2
MESURA
 70
     0
 62
     7
  6
CONTINUOUS
370
    -3
390
F
  0
LAYER
  5
25
330
2
100
AcDbSymbolTableRecord
100
AcDbLayerTableRecord
  2
DEFPOINTS
 70
     0
 62
     7
  6
CONTINUOUS
290
     0
370
    -3
390
F
  0
LAYER
  5
151
330
2
100
AcDbSymbolTableRecord
100
AcDbLayerTableRecord
  2
CAPA1
 70
     0
 62
     7
  6
CONTINUOUS
370
    -3
390
F
  0
ENDTAB
  0
TABLE
  2
STYLE
  5
3
330
0
100
AcDbSymbolTable
 70
     2
  0
STYLE
  5
11
330
3
100
AcDbSymbolTableRecord
100
AcDbTextStyleTableRecord
  2
STANDARD
 70
     0
 40
0.0
 41
1.0
 50
0.0
 71
     0
 42
0.1
  3
txt
  4

  0
STYLE
  5
22
330
3
100
AcDbSymbolTableRecord
100
AcDbTextStyleTableRecord
  2
ROMANC
 70
     0
 40
0.0
 41
1.0
 50
0.0
 71
     0
 42
0.1
  3
romanc
  4

  0
ENDTAB
  0
TABLE
  2
VIEW
  5
6
330
0
100
AcDbSymbolTable
 70
     0
  0
ENDTAB
  0
TABLE
  2
UCS
  5
7
330
0
100
AcDbSymbolTable
 70
     0
  0
ENDTAB
  0
TABLE
  2
APPID
  5
9
330
0
100
AcDbSymbolTable
 70
     1
  0
APPID
  5
12
330
9
100
AcDbSymbolTableRecord
100
AcDbRegAppTableRecord
  2
ACAD
 70
     0
  0
ENDTAB
  0
TABLE
  2
DIMSTYLE
  5
A
330
0
100
AcDbSymbolTable
 70
     1
100
AcDbDimStyleTable
 71
     1
340
26
  0
DIMSTYLE
105
26
102
{ACAD_REACTORS
330
39D
330
3AA
330
3B7
102
}
330
A
100
AcDbSymbolTableRecord
100
AcDbDimStyleTableRecord
  2
SILVIA
 70
     0
 40
1.5
 41
0.1
 42
0.01
 43
7.0
 44
0.01
 73
     0
 74
     0
 77
     1
140
0.05
141
0.1
146
70.0
172
     1
174
     1
271
     2
272
     2
340
22
  0
ENDTAB
  0
TABLE
  2
BLOCK_RECORD
  5
1
330
0
100
AcDbSymbolTable
 70
    13
  0
BLOCK_RECORD
  5
1E
102
{ACAD_XDICTIONARY
360
17C
102
}
330
1
100
AcDbSymbolTableRecord
100
AcDbBlockTableRecord
  2
*MODEL_SPACE
340
380
  0
BLOCK_RECORD
  5
1A
102
{ACAD_XDICTIONARY
360
17A
102
}
330
1
100
AcDbSymbolTableRecord
100
AcDbBlockTableRecord
  2
*PAPER_SPACE
340
381
  0
BLOCK_RECORD
  5
136
330
1
100
AcDbSymbolTableRecord
100
AcDbBlockTableRecord
  2
*D0
340
0
  0
BLOCK_RECORD
  5
143
330
1
100
AcDbSymbolTableRecord
100
AcDbBlockTableRecord
  2
*D1
340
0
  0
BLOCK_RECORD
  5
19D
330
1
100
AcDbSymbolTableRecord
100
AcDbBlockTableRecord
  2
*D2
340
0
  0
BLOCK_RECORD
  5
1AA
330
1
100
AcDbSymbolTableRecord
100
AcDbBlockTableRecord
  2
*D3
340
0
  0
BLOCK_RECORD
  5
233
330
1
100
AcDbSymbolTableRecord
100
AcDbBlockTableRecord
  2
*D4
340
0
  0
BLOCK_RECORD
  5
240
330
1
100
AcDbSymbolTableRecord
100
AcDbBlockTableRecord
  2
*D5
340
0
  0
BLOCK_RECORD
  5
24D
330
1
100
AcDbSymbolTableRecord
100
AcDbBlockTableRecord
  2
*D6
340
0
  0
BLOCK_RECORD
  5
31C
330
1
100
AcDbSymbolTableRecord
100
AcDbBlockTableRecord
  2
*D7
340
0
  0
BLOCK_RECORD
  5
329
330
1
100
AcDbSymbolTableRecord
100
AcDbBlockTableRecord
  2
*D8
340
0
  0
BLOCK_RECORD
  5
391
330
1
100
AcDbSymbolTableRecord
100
AcDbBlockTableRecord
  2
*D9
340
0
  0
BLOCK_RECORD
  5
39E
330
1
100
AcDbSymbolTableRecord
100
AcDbBlockTableRecord
  2
*D10
340
0
  0
BLOCK_RECORD
  5
3AB
330
1
100
AcDbSymbolTableRecord
100
AcDbBlockTableRecord
  2
*D11
340
0
  0
BLOCK_RECORD
  5
3B8
330
1
100
AcDbSymbolTableRecord
100
AcDbBlockTableRecord
  2
*D12
340
0
  0
ENDTAB
  0
ENDSEC
  0
SECTION
  2
BLOCKS
  0
BLOCK
  5
1F
330
1E
100
AcDbEntity
  8
0
100
AcDbBlockBegin
  2
*MODEL_SPACE
 70
     0
 10
0.0
 20
0.0
 30
0.0
  3
*MODEL_SPACE
  1

  0
ENDBLK
  5
20
330
1E
100
AcDbEntity
  8
0
100
AcDbBlockEnd
  0
BLOCK
  5
1B
330
1A
100
AcDbEntity
 67
     1
  8
0
100
AcDbBlockBegin
  2
*PAPER_SPACE
 70
     0
 10
0.0
 20
0.0
 30
0.0
  3
*PAPER_SPACE
  1

  0
ENDBLK
  5
1C
330
1A
100
AcDbEntity
 67
     1
  8
0
100
AcDbBlockEnd
  0
BLOCK
  5
140
330
136
100
AcDbEntity
  8
0
100
AcDbBlockBegin
  2
*D0
 70
     1
 10
0.0
 20
0.0
 30
0.0
  3
*D0
  1

  0
LINE
  5
17E
330
136
100
AcDbEntity
  8
0
 62
     0
100
AcDbLine
 10
285.5572032283108
 20
43.55290868049445
 30
0.0
 11
285.5572032283108
 21
44.92545556036581
 31
0.0
  0
LINE
  5
17F
330
136
100
AcDbEntity
  8
0
 62
     0
100
AcDbLine
 10
297.557203228311
 20
43.55290868049445
 30
0.0
 11
297.557203228311
 21
44.92545556036581
 31
0.0
  0
LINE
  5
180
330
136
100
AcDbEntity
  8
0
 62
     0
100
AcDbLine
 10
285.707203228311
 20
44.91045556036583
 30
0.0
 11
297.4072032283111
 21
44.91045556036583
 31
0.0
  0
SOLID
  5
181
330
136
100
AcDbEntity
  8
0
 62
     0
100
AcDbTrace
 10
285.707203228311
 20
44.93545556036583
 30
0.0
 11
285.707203228311
 21
44.88545556036583
 31
0.0
 12
285.5572032283108
 22
44.91045556036583
 32
0.0
 13
285.5572032283108
 23
44.91045556036583
 33
0.0
  0
SOLID
  5
182
330
136
100
AcDbEntity
  8
0
 62
     0
100
AcDbTrace
 10
297.4072032283111
 20
44.93545556036583
 30
0.0
 11
297.4072032283111
 21
44.88545556036583
 31
0.0
 12
297.557203228311
 22
44.91045556036583
 32
0.0
 13
297.557203228311
 23
44.91045556036583
 33
0.0
  0
MTEXT
  5
183
330
136
100
AcDbEntity
  8
0
 62
     0
100
AcDbMText
 10
291.557203228311
 20
45.15795556036581
 30
0.0
 40
0.225
 41
0.0
 71
     5
 72
     1
  1
\A1;12.00
 73
     1
 44
1.0
1001
ACAD
1000
MTEXTBEGIN
1070
    73
1070
     1
1070
    44
1040
1.0
1070
    74
1070
     0
1000
MTEXTEND
1000
MTEXTBEGIN
1070
    73
1070
     1
1070
    44
1040
1.0
1070
    74
1070
     0
1000
MTEXTEND
1000
MTEXTBEGIN
1070
    73
1070
     1
1070
    44
1040
1.0
1070
    74
1070
     0
1000
MTEXTEND
1000
MTEXTBEGIN
1070
    73
1070
     1
1070
    44
1040
1.0
1070
    74
1070
     0
1000
MTEXTEND
  0
POINT
  5
184
330
136
100
AcDbEntity
  8
DEFPOINTS
 62
     0
100
AcDbPoint
 10
285.5572032283108
 20
43.53790868049445
 30
0.0
  0
POINT
  5
185
330
136
100
AcDbEntity
  8
DEFPOINTS
 62
     0
100
AcDbPoint
 10
297.557203228311
 20
43.53790868049445
 30
0.0
  0
POINT
  5
186
330
136
100
AcDbEntity
  8
DEFPOINTS
 62
     0
100
AcDbPoint
 10
297.557203228311
 20
44.91045556036583
 30
0.0
  0
ENDBLK
  5
141
330
136
100
AcDbEntity
  8
0
100
AcDbBlockEnd
  0
BLOCK
  5
14D
330
143
100
AcDbEntity
  8
0
100
AcDbBlockBegin
  2
*D1
 70
     1
 10
0.0
 20
0.0
 30
0.0
  3
*D1
  1

  0
LINE
  5
187
330
143
100
AcDbEntity
  8
0
 62
     0
100
AcDbLine
 10
297.572203228311
 20
43.53790868049445
 30
0.0
 11
299.484128401062
 21
43.53790868049445
 31
0.0
  0
LINE
  5
188
330
143
100
AcDbEntity
  8
0
 62
     0
100
AcDbLine
 10
297.572203228311
 20
39.53790868049445
 30
0.0
 11
299.484128401062
 21
39.53790868049445
 31
0.0
  0
LINE
  5
189
330
143
100
AcDbEntity
  8
0
 62
     0
100
AcDbLine
 10
299.4691284010619
 20
43.38790868049446
 30
0.0
 11
299.4691284010619
 21
39.68790868049445
 31
0.0
  0
SOLID
  5
18A
330
143
100
AcDbEntity
  8
0
 62
     0
100
AcDbTrace
 10
299.4441284010618
 20
43.38790868049446
 30
0.0
 11
299.4941284010618
 21
43.38790868049446
 31
0.0
 12
299.4691284010619
 22
43.53790868049445
 32
0.0
 13
299.4691284010619
 23
43.53790868049445
 33
0.0
  0
SOLID
  5
18B
330
143
100
AcDbEntity
  8
0
 62
     0
100
AcDbTrace
 10
299.4441284010618
 20
39.68790868049445
 30
0.0
 11
299.4941284010618
 21
39.68790868049445
 31
0.0
 12
299.4691284010619
 22
39.53790868049445
 32
0.0
 13
299.4691284010619
 23
39.53790868049445
 33
0.0
  0
MTEXT
  5
18C
330
143
100
AcDbEntity
  8
0
 62
     0
100
AcDbMText
 10
299.2216284010618
 20
41.53790868049449
 30
0.0
 40
0.225
 41
0.0
 71
     5
 72
     1
  1
\A1;4.00
 11
0.0000000000000001
 21
1.0
 31
0.0
 73
     1
 44
1.0
1001
ACAD
1000
MTEXTBEGIN
1070
    73
1070
     1
1070
    44
1040
1.0
1070
    74
1070
     0
1000
MTEXTEND
1000
MTEXTBEGIN
1070
    73
1070
     1
1070
    44
1040
1.0
1070
    74
1070
     0
1000
MTEXTEND
1000
MTEXTBEGIN
1070
    73
1070
     1
1070
    44
1040
1.0
1070
    74
1070
     0
1000
MTEXTEND
1000
MTEXTBEGIN
1070
    73
1070
     1
1070
    44
1040
1.0
1070
    74
1070
     0
1000
MTEXTEND
  0
POINT
  5
18D
330
143
100
AcDbEntity
  8
DEFPOINTS
 62
     0
100
AcDbPoint
 10
297.557203228311
 20
43.53790868049445
 30
0.0
  0
POINT
  5
18E
330
143
100
AcDbEntity
  8
DEFPOINTS
 62
     0
100
AcDbPoint
 10
297.557203228311
 20
39.53790868049445
 30
0.0
  0
POINT
  5
18F
330
143
100
AcDbEntity
  8
DEFPOINTS
 62
     0
100
AcDbPoint
 10
299.4691284010619
 20
39.53790868049445
 30
0.0
  0
ENDBLK
  5
14E
330
143
100
AcDbEntity
  8
0
100
AcDbBlockEnd
  0
BLOCK
  5
1A7
330
19D
100
AcDbEntity
  8
0
100
AcDbBlockBegin
  2
*D2
 70
     1
 10
0.0
 20
0.0
 30
0.0
  3
*D2
  1

  0
LINE
  5
19E
330
19D
100
AcDbEntity
  8
0
 62
     0
100
AcDbLine
 10
285.4008565720547
 20
43.86488962585399
 30
0.0
 11
285.4008565720547
 21
45.02540708125656
 31
0.0
  0
LINE
  5
19F
330
19D
100
AcDbEntity
  8
0
 62
     0
100
AcDbLine
 10
297.4008565720546
 20
43.86488962585399
 30
0.0
 11
297.4008565720546
 21
45.02540708125656
 31
0.0
  0
LINE
  5
1A0
330
19D
100
AcDbEntity
  8
0
 62
     0
100
AcDbLine
 10
285.5508565720546
 20
45.01040708125656
 30
0.0
 11
297.2508565720546
 21
45.01040708125656
 31
0.0
  0
SOLID
  5
1A1
330
19D
100
AcDbEntity
  8
0
 62
     0
100
AcDbTrace
 10
285.5508565720546
 20
45.03540708125654
 30
0.0
 11
285.5508565720546
 21
44.98540708125656
 31
0.0
 12
285.4008565720547
 22
45.01040708125656
 32
0.0
 13
285.4008565720547
 23
45.01040708125656
 33
0.0
  0
SOLID
  5
1A2
330
19D
100
AcDbEntity
  8
0
 62
     0
100
AcDbTrace
 10
297.2508565720546
 20
45.03540708125654
 30
0.0
 11
297.2508565720546
 21
44.98540708125656
 31
0.0
 12
297.4008565720546
 22
45.01040708125656
 32
0.0
 13
297.4008565720546
 23
45.01040708125656
 33
0.0
  0
MTEXT
  5
1A3
330
19D
100
AcDbEntity
  8
0
 62
     0
100
AcDbMText
 10
291.4008565720546
 20
45.25790708125656
 30
0.0
 40
0.225
 41
0.0
 71
     5
 72
     1
  1
\A1;12.00
 73
     1
 44
1.0
1001
ACAD
1000
MTEXTBEGIN
1070
    73
1070
     1
1070
    44
1040
1.0
1070
    74
1070
     0
1000
MTEXTEND
1000
MTEXTBEGIN
1070
    73
1070
     1
1070
    44
1040
1.0
1070
    74
1070
     0
1000
MTEXTEND
1000
MTEXTBEGIN
1070
    73
1070
     1
1070
    44
1040
1.0
1070
    74
1070
     0
1000
MTEXTEND
1000
MTEXTBEGIN
1070
    73
1070
     1
1070
    44
1040
1.0
1070
    74
1070
     0
1000
MTEXTEND
  0
POINT
  5
1A4
330
19D
100
AcDbEntity
  8
DEFPOINTS
 62
     0
100
AcDbPoint
 10
285.4008565720547
 20
43.84988962585399
 30
0.0
  0
POINT
  5
1A5
330
19D
100
AcDbEntity
  8
DEFPOINTS
 62
     0
100
AcDbPoint
 10
297.4008565720546
 20
43.84988962585399
 30
0.0
  0
POINT
  5
1A6
330
19D
100
AcDbEntity
  8
DEFPOINTS
 62
     0
100
AcDbPoint
 10
297.4008565720546
 20
45.01040708125656
 30
0.0
  0
ENDBLK
  5
1A8
330
19D
100
AcDbEntity
  8
0
100
AcDbBlockEnd
  0
BLOCK
  5
1B4
330
1AA
100
AcDbEntity
  8
0
100
AcDbBlockBegin
  2
*D3
 70
     1
 10
0.0
 20
0.0
 30
0.0
  3
*D3
  1

  0
LINE
  5
1AB
330
1AA
100
AcDbEntity
  8
0
 62
     0
100
AcDbLine
 10
297.4158565720546
 20
43.84988962585399
 30
0.0
 11
299.0806489142753
 21
43.84988962585399
 31
0.0
  0
LINE
  5
1AC
330
1AA
100
AcDbEntity
  8
0
 62
     0
100
AcDbLine
 10
297.4158565720546
 20
41.249889625854
 30
0.0
 11
299.0806489142753
 21
41.249889625854
 31
0.0
  0
LINE
  5
1AD
330
1AA
100
AcDbEntity
  8
0
 62
     0
100
AcDbLine
 10
299.0656489142752
 20
43.699889625854
 30
0.0
 11
299.0656489142752
 21
41.39988962585401
 31
0.0
  0
SOLID
  5
1AE
330
1AA
100
AcDbEntity
  8
0
 62
     0
100
AcDbTrace
 10
299.0406489142753
 20
43.699889625854
 30
0.0
 11
299.0906489142751
 21
43.699889625854
 31
0.0
 12
299.0656489142752
 22
43.84988962585399
 32
0.0
 13
299.0656489142752
 23
43.84988962585399
 33
0.0
  0
SOLID
  5
1AF
330
1AA
100
AcDbEntity
  8
0
 62
     0
100
AcDbTrace
 10
299.0406489142753
 20
41.39988962585401
 30
0.0
 11
299.0906489142751
 21
41.39988962585401
 31
0.0
 12
299.0656489142752
 22
41.249889625854
 32
0.0
 13
299.0656489142752
 23
41.249889625854
 33
0.0
  0
MTEXT
  5
1B0
330
1AA
100
AcDbEntity
  8
0
 62
     0
100
AcDbMText
 10
298.8181489142752
 20
42.54988962585406
 30
0.0
 40
0.225
 41
0.0
 71
     5
 72
     1
  1
\A1;2.60
 11
0.0000000000000001
 21
1.0
 31
0.0
 73
     1
 44
1.0
1001
ACAD
1000
MTEXTBEGIN
1070
    73
1070
     1
1070
    44
1040
1.0
1070
    74
1070
     0
1000
MTEXTEND
1000
MTEXTBEGIN
1070
    73
1070
     1
1070
    44
1040
1.0
1070
    74
1070
     0
1000
MTEXTEND
1000
MTEXTBEGIN
1070
    73
1070
     1
1070
    44
1040
1.0
1070
    74
1070
     0
1000
MTEXTEND
1000
MTEXTBEGIN
1070
    73
1070
     1
1070
    44
1040
1.0
1070
    74
1070
     0
1000
MTEXTEND
  0
POINT
  5
1B1
330
1AA
100
AcDbEntity
  8
DEFPOINTS
 62
     0
100
AcDbPoint
 10
297.4008565720546
 20
43.84988962585399
 30
0.0
  0
POINT
  5
1B2
330
1AA
100
AcDbEntity
  8
DEFPOINTS
 62
     0
100
AcDbPoint
 10
297.4008565720546
 20
41.249889625854
 30
0.0
  0
POINT
  5
1B3
330
1AA
100
AcDbEntity
  8
DEFPOINTS
 62
     0
100
AcDbPoint
 10
299.0656489142752
 20
41.249889625854
 30
0.0
  0
ENDBLK
  5
1B5
330
1AA
100
AcDbEntity
  8
0
100
AcDbBlockEnd
  0
BLOCK
  5
23D
330
233
100
AcDbEntity
  8
0
100
AcDbBlockBegin
  2
*D4
 70
     1
 10
0.0
 20
0.0
 30
0.0
  3
*D4
  1

  0
LINE
  5
265
330
233
100
AcDbEntity
  8
0
 62
     0
100
AcDbLine
 10
286.5608787189736
 20
41.08520317743781
 30
0.0
 11
286.5608787189736
 21
39.5242743459307
 31
0.0
  0
LINE
  5
266
330
233
100
AcDbEntity
  8
0
 62
     0
100
AcDbLine
 10
298.5608787189736
 20
41.08520317743781
 30
0.0
 11
298.5608787189736
 21
39.5242743459307
 31
0.0
  0
LINE
  5
267
330
233
100
AcDbEntity
  8
0
 62
     0
100
AcDbLine
 10
286.7108787189735
 20
39.53927434593071
 30
0.0
 11
298.4108787189736
 21
39.53927434593071
 31
0.0
  0
SOLID
  5
268
330
233
100
AcDbEntity
  8
0
 62
     0
100
AcDbTrace
 10
286.7108787189735
 20
39.5642743459307
 30
0.0
 11
286.7108787189735
 21
39.51427434593071
 31
0.0
 12
286.5608787189736
 22
39.53927434593071
 32
0.0
 13
286.5608787189736
 23
39.53927434593071
 33
0.0
  0
SOLID
  5
269
330
233
100
AcDbEntity
  8
0
 62
     0
100
AcDbTrace
 10
298.4108787189736
 20
39.5642743459307
 30
0.0
 11
298.4108787189736
 21
39.51427434593071
 31
0.0
 12
298.5608787189736
 22
39.53927434593071
 32
0.0
 13
298.5608787189736
 23
39.53927434593071
 33
0.0
  0
MTEXT
  5
26A
330
233
100
AcDbEntity
  8
0
 62
     0
100
AcDbMText
 10
292.5608787189736
 20
39.7867743459307
 30
0.0
 40
0.225
 41
0.0
 71
     5
 72
     1
  1
\A1;12.00
 73
     1
 44
1.0
1001
ACAD
1000
MTEXTBEGIN
1070
    73
1070
     1
1070
    44
1040
1.0
1070
    74
1070
     0
1000
MTEXTEND
1000
MTEXTBEGIN
1070
    73
1070
     1
1070
    44
1040
1.0
1070
    74
1070
     0
1000
MTEXTEND
1000
MTEXTBEGIN
1070
    73
1070
     1
1070
    44
1040
1.0
1070
    74
1070
     0
1000
MTEXTEND
  0
POINT
  5
26B
330
233
100
AcDbEntity
  8
DEFPOINTS
 62
     0
100
AcDbPoint
 10
286.5608787189736
 20
41.10020317743781
 30
0.0
  0
POINT
  5
26C
330
233
100
AcDbEntity
  8
DEFPOINTS
 62
     0
100
AcDbPoint
 10
298.5608787189736
 20
41.10020317743781
 30
0.0
  0
POINT
  5
26D
330
233
100
AcDbEntity
  8
DEFPOINTS
 62
     0
100
AcDbPoint
 10
298.5608787189736
 20
39.53927434593071
 30
0.0
  0
ENDBLK
  5
23E
330
233
100
AcDbEntity
  8
0
100
AcDbBlockEnd
  0
BLOCK
  5
24A
330
240
100
AcDbEntity
  8
0
100
AcDbBlockBegin
  2
*D5
 70
     1
 10
0.0
 20
0.0
 30
0.0
  3
*D5
  1

  0
LINE
  5
241
330
240
100
AcDbEntity
  8
0
 62
     0
100
AcDbLine
 10
285.688871137173
 20
40.4677224740036
 30
0.0
 11
284.5930685345898
 21
40.4677224740036
 31
0.0
  0
LINE
  5
242
330
240
100
AcDbEntity
  8
0
 62
     0
100
AcDbLine
 10
285.688871137173
 20
42.6327224740036
 30
0.0
 11
284.5930685345898
 21
42.6327224740036
 31
0.0
  0
LINE
  5
243
330
240
100
AcDbEntity
  8
0
 62
     0
100
AcDbLine
 10
284.6080685345901
 20
40.6177224740036
 30
0.0
 11
284.6080685345901
 21
42.4827224740036
 31
0.0
  0
SOLID
  5
244
330
240
100
AcDbEntity
  8
0
 62
     0
100
AcDbTrace
 10
284.5830685345901
 20
40.6177224740036
 30
0.0
 11
284.63306853459
 21
40.6177224740036
 31
0.0
 12
284.6080685345901
 22
40.4677224740036
 32
0.0
 13
284.6080685345901
 23
40.4677224740036
 33
0.0
  0
SOLID
  5
245
330
240
100
AcDbEntity
  8
0
 62
     0
100
AcDbTrace
 10
284.5830685345901
 20
42.4827224740036
 30
0.0
 11
284.63306853459
 21
42.4827224740036
 31
0.0
 12
284.6080685345901
 22
42.6327224740036
 32
0.0
 13
284.6080685345901
 23
42.6327224740036
 33
0.0
  0
MTEXT
  5
246
330
240
100
AcDbEntity
  8
0
 62
     0
100
AcDbMText
 10
284.3605685345901
 20
41.55022247400363
 30
0.0
 40
0.225
 41
0.0
 71
     5
 72
     1
  1
\A1;2.17
 11
0.0000000000000001
 21
1.0
 31
0.0
 73
     1
 44
1.0
1001
ACAD
1000
MTEXTBEGIN
1070
    73
1070
     1
1070
    44
1040
1.0
1070
    74
1070
     0
1000
MTEXTEND
1000
MTEXTBEGIN
1070
    73
1070
     1
1070
    44
1040
1.0
1070
    74
1070
     0
1000
MTEXTEND
1000
MTEXTBEGIN
1070
    73
1070
     1
1070
    44
1040
1.0
1070
    74
1070
     0
1000
MTEXTEND
  0
POINT
  5
247
330
240
100
AcDbEntity
  8
DEFPOINTS
 62
     0
100
AcDbPoint
 10
285.703871137173
 20
40.4677224740036
 30
0.0
  0
POINT
  5
248
330
240
100
AcDbEntity
  8
DEFPOINTS
 62
     0
100
AcDbPoint
 10
285.703871137173
 20
42.6327224740036
 30
0.0
  0
POINT
  5
249
330
240
100
AcDbEntity
  8
DEFPOINTS
 62
     0
100
AcDbPoint
 10
284.6080685345901
 20
42.6327224740036
 30
0.0
  0
ENDBLK
  5
24B
330
240
100
AcDbEntity
  8
0
100
AcDbBlockEnd
  0
BLOCK
  5
257
330
24D
100
AcDbEntity
  8
0
100
AcDbBlockBegin
  2
*D6
 70
     1
 10
0.0
 20
0.0
 30
0.0
  3
*D6
  1

  0
LINE
  5
25C
330
24D
100
AcDbEntity
  8
0
 62
     0
100
AcDbLine
 10
286.5458787189735
 20
41.10020317743781
 30
0.0
 11
284.8818635553723
 21
41.10020317743781
 31
0.0
  0
LINE
  5
25D
330
24D
100
AcDbEntity
  8
0
 62
     0
100
AcDbLine
 10
286.5458787189735
 20
43.2502031774378
 30
0.0
 11
284.8818635553723
 21
43.2502031774378
 31
0.0
  0
LINE
  5
25E
330
24D
100
AcDbEntity
  8
0
 62
     0
100
AcDbLine
 10
284.8968635553723
 20
41.25020317743781
 30
0.0
 11
284.8968635553723
 21
43.10020317743783
 31
0.0
  0
SOLID
  5
25F
330
24D
100
AcDbEntity
  8
0
 62
     0
100
AcDbTrace
 10
284.8718635553725
 20
41.25020317743781
 30
0.0
 11
284.9218635553723
 21
41.25020317743781
 31
0.0
 12
284.8968635553723
 22
41.10020317743781
 32
0.0
 13
284.8968635553723
 23
41.10020317743781
 33
0.0
  0
SOLID
  5
260
330
24D
100
AcDbEntity
  8
0
 62
     0
100
AcDbTrace
 10
284.8718635553725
 20
43.10020317743783
 30
0.0
 11
284.9218635553723
 21
43.10020317743783
 31
0.0
 12
284.8968635553723
 22
43.2502031774378
 32
0.0
 13
284.8968635553723
 23
43.2502031774378
 33
0.0
  0
MTEXT
  5
261
330
24D
100
AcDbEntity
  8
0
 62
     0
100
AcDbMText
 10
284.6493635553724
 20
42.17520317743788
 30
0.0
 40
0.225
 41
0.0
 71
     5
 72
     1
  1
\A1;2.15
 11
0.0000000000000001
 21
1.0
 31
0.0
 73
     1
 44
1.0
1001
ACAD
1000
MTEXTBEGIN
1070
    73
1070
     1
1070
    44
1040
1.0
1070
    74
1070
     0
1000
MTEXTEND
1000
MTEXTBEGIN
1070
    73
1070
     1
1070
    44
1040
1.0
1070
    74
1070
     0
1000
MTEXTEND
1000
MTEXTBEGIN
1070
    73
1070
     1
1070
    44
1040
1.0
1070
    74
1070
     0
1000
MTEXTEND
  0
POINT
  5
262
330
24D
100
AcDbEntity
  8
DEFPOINTS
 62
     0
100
AcDbPoint
 10
286.5608787189736
 20
41.10020317743781
 30
0.0
  0
POINT
  5
263
330
24D
100
AcDbEntity
  8
DEFPOINTS
 62
     0
100
AcDbPoint
 10
286.5608787189736
 20
43.2502031774378
 30
0.0
  0
POINT
  5
264
330
24D
100
AcDbEntity
  8
DEFPOINTS
 62
     0
100
AcDbPoint
 10
284.8968635553723
 20
43.2502031774378
 30
0.0
  0
ENDBLK
  5
258
330
24D
100
AcDbEntity
  8
0
100
AcDbBlockEnd
  0
BLOCK
  5
326
330
31C
100
AcDbEntity
  8
0
100
AcDbBlockBegin
  2
*D7
 70
     1
 10
0.0
 20
0.0
 30
0.0
  3
*D7
  1

  0
LINE
  5
31D
330
31C
100
AcDbEntity
  8
0
 62
     0
100
AcDbLine
 10
286.1989983043347
 20
43.69783934041525
 30
0.0
 11
284.2901805253991
 21
43.69783934041525
 31
0.0
  0
LINE
  5
31E
330
31C
100
AcDbEntity
  8
0
 62
     0
100
AcDbLine
 10
286.1989983043347
 20
41.09783934041526
 30
0.0
 11
284.2901805253991
 21
41.09783934041526
 31
0.0
  0
LINE
  5
31F
330
31C
100
AcDbEntity
  8
0
 62
     0
100
AcDbLine
 10
284.3051805253992
 20
43.54783934041527
 30
0.0
 11
284.3051805253992
 21
41.24783934041526
 31
0.0
  0
SOLID
  5
320
330
31C
100
AcDbEntity
  8
0
 62
     0
100
AcDbTrace
 10
284.2801805253991
 20
43.54783934041527
 30
0.0
 11
284.3301805253991
 21
43.54783934041527
 31
0.0
 12
284.3051805253992
 22
43.69783934041525
 32
0.0
 13
284.3051805253992
 23
43.69783934041525
 33
0.0
  0
SOLID
  5
321
330
31C
100
AcDbEntity
  8
0
 62
     0
100
AcDbTrace
 10
284.2801805253991
 20
41.24783934041526
 30
0.0
 11
284.3301805253991
 21
41.24783934041526
 31
0.0
 12
284.3051805253992
 22
41.09783934041526
 32
0.0
 13
284.3051805253992
 23
41.09783934041526
 33
0.0
  0
MTEXT
  5
322
330
31C
100
AcDbEntity
  8
0
 62
     0
100
AcDbMText
 10
284.0576805253991
 20
42.39783934041532
 30
0.0
 40
0.225
 41
0.0
 71
     5
 72
     1
  1
\A1;2.60
 11
0.0000000000000001
 21
1.0
 31
0.0
 73
     1
 44
1.0
1001
ACAD
1000
MTEXTBEGIN
1070
    73
1070
     1
1070
    44
1040
1.0
1070
    74
1070
     0
1000
MTEXTEND
  0
POINT
  5
323
330
31C
100
AcDbEntity
  8
DEFPOINTS
 62
     0
100
AcDbPoint
 10
286.2139983043346
 20
43.69783934041525
 30
0.0
  0
POINT
  5
324
330
31C
100
AcDbEntity
  8
DEFPOINTS
 62
     0
100
AcDbPoint
 10
286.2139983043346
 20
41.09783934041526
 30
0.0
  0
POINT
  5
325
330
31C
100
AcDbEntity
  8
DEFPOINTS
 62
     0
100
AcDbPoint
 10
284.3051805253992
 20
41.09783934041526
 30
0.0
  0
ENDBLK
  5
327
330
31C
100
AcDbEntity
  8
0
100
AcDbBlockEnd
  0
BLOCK
  5
333
330
329
100
AcDbEntity
  8
0
100
AcDbBlockBegin
  2
*D8
 70
     1
 10
0.0
 20
0.0
 30
0.0
  3
*D8
  1

  0
LINE
  5
32A
330
329
100
AcDbEntity
  8
0
 62
     0
100
AcDbLine
 10
286.2139983043346
 20
41.06825587773747
 30
0.0
 11
286.2139983043346
 21
39.03766149153068
 31
0.0
  0
LINE
  5
32B
330
329
100
AcDbEntity
  8
0
 62
     0
100
AcDbLine
 10
298.2139983043346
 20
41.06825587773747
 30
0.0
 11
298.2139983043346
 21
39.03766149153068
 31
0.0
  0
LINE
  5
32C
330
329
100
AcDbEntity
  8
0
 62
     0
100
AcDbLine
 10
286.3639983043347
 20
39.05266149153068
 30
0.0
 11
298.0639983043346
 21
39.05266149153068
 31
0.0
  0
SOLID
  5
32D
330
329
100
AcDbEntity
  8
0
 62
     0
100
AcDbTrace
 10
286.3639983043347
 20
39.07766149153068
 30
0.0
 11
286.3639983043347
 21
39.0276614915307
 31
0.0
 12
286.2139983043346
 22
39.05266149153068
 32
0.0
 13
286.2139983043346
 23
39.05266149153068
 33
0.0
  0
SOLID
  5
32E
330
329
100
AcDbEntity
  8
0
 62
     0
100
AcDbTrace
 10
298.0639983043346
 20
39.07766149153068
 30
0.0
 11
298.0639983043346
 21
39.0276614915307
 31
0.0
 12
298.2139983043346
 22
39.05266149153068
 32
0.0
 13
298.2139983043346
 23
39.05266149153068
 33
0.0
  0
MTEXT
  5
32F
330
329
100
AcDbEntity
  8
0
 62
     0
100
AcDbMText
 10
292.2139983043346
 20
39.3001614915307
 30
0.0
 40
0.225
 41
0.0
 71
     5
 72
     1
  1
\A1;12.00
 73
     1
 44
1.0
1001
ACAD
1000
MTEXTBEGIN
1070
    73
1070
     1
1070
    44
1040
1.0
1070
    74
1070
     0
1000
MTEXTEND
  0
POINT
  5
330
330
329
100
AcDbEntity
  8
DEFPOINTS
 62
     0
100
AcDbPoint
 10
286.2139983043346
 20
41.08325587773747
 30
0.0
  0
POINT
  5
331
330
329
100
AcDbEntity
  8
DEFPOINTS
 62
     0
100
AcDbPoint
 10
298.2139983043346
 20
41.08325587773747
 30
0.0
  0
POINT
  5
332
330
329
100
AcDbEntity
  8
DEFPOINTS
 62
     0
100
AcDbPoint
 10
298.2139983043346
 20
39.05266149153068
 30
0.0
  0
ENDBLK
  5
334
330
329
100
AcDbEntity
  8
0
100
AcDbBlockEnd
  0
BLOCK
  5
39B
330
391
100
AcDbEntity
  8
0
100
AcDbBlockBegin
  2
*D9
 70
     1
 10
0.0
 20
0.0
 30
0.0
  3
*D9
  1

  0
LINE
  5
392
330
391
100
AcDbEntity
  8
0
 62
     0
370
    -2
100
AcDbLine
 10
288.0532001630312
 20
42.62872820007585
 30
0.0
 11
288.0532001630312
 21
40.96727398554983
 31
0.0
  0
LINE
  5
393
330
391
100
AcDbEntity
  8
0
 62
     0
370
    -2
100
AcDbLine
 10
295.9679739651347
 20
42.62872820007585
 30
0.0
 11
295.9679739651347
 21
40.96727398554983
 31
0.0
  0
LINE
  5
394
330
391
100
AcDbEntity
  8
0
 62
     0
370
    -2
100
AcDbLine
 10
288.2032001630312
 20
40.98227398554983
 30
0.0
 11
295.8179739651347
 21
40.98227398554983
 31
0.0
  0
SOLID
  5
395
330
391
100
AcDbEntity
  8
0
 62
     0
100
AcDbTrace
 10
288.2032001630312
 20
41.00727398554982
 30
0.0
 11
288.2032001630312
 21
40.95727398554983
 31
0.0
 12
288.0532001630312
 22
40.98227398554983
 32
0.0
 13
288.0532001630312
 23
40.98227398554983
 33
0.0
  0
SOLID
  5
396
330
391
100
AcDbEntity
  8
0
 62
     0
100
AcDbTrace
 10
295.8179739651347
 20
41.00727398554982
 30
0.0
 11
295.8179739651347
 21
40.95727398554983
 31
0.0
 12
295.9679739651347
 22
40.98227398554983
 32
0.0
 13
295.9679739651347
 23
40.98227398554983
 33
0.0
  0
MTEXT
  5
397
330
391
100
AcDbEntity
  8
0
 62
     0
100
AcDbMText
 10
292.010587064083
 20
41.22977398554983
 30
0.0
 40
0.225
 41
0.0
 71
     5
 72
     1
  1
\A1;7.91
 73
     1
 44
1.0
  0
POINT
  5
398
330
391
100
AcDbEntity
  8
DEFPOINTS
 62
     0
100
AcDbPoint
 10
288.0532001630312
 20
42.64372820007585
 30
0.0
  0
POINT
  5
399
330
391
100
AcDbEntity
  8
DEFPOINTS
 62
     0
100
AcDbPoint
 10
295.9679739651347
 20
42.64372820007585
 30
0.0
  0
POINT
  5
39A
330
391
100
AcDbEntity
  8
DEFPOINTS
 62
     0
100
AcDbPoint
 10
295.9679739651347
 20
40.98227398554983
 30
0.0
  0
ENDBLK
  5
39C
330
391
100
AcDbEntity
  8
0
100
AcDbBlockEnd
  0
BLOCK
  5
3A8
330
39E
100
AcDbEntity
  8
0
100
AcDbBlockBegin
  2
*D10
 70
     1
 10
0.0
 20
0.0
 30
0.0
  3
*D10
  1

  0
LINE
  5
39F
330
39E
100
AcDbEntity
  8
0
 62
     0
370
    -2
100
AcDbLine
 10
295.9820473793493
 20
42.58853791951082
 30
0.0
 11
297.0367578987146
 21
42.19956027507395
 31
0.0
  0
LINE
  5
3A0
330
39E
100
AcDbEntity
  8
0
 62
     0
370
    -2
100
AcDbLine
 10
297.1253285694146
 20
45.68853791951079
 30
0.0
 11
298.1800390887798
 21
45.29956027507391
 31
0.0
  0
LINE
  5
3A1
330
39E
100
AcDbEntity
  8
0
 62
     0
370
    -2
100
AcDbLine
 10
297.0745872901502
 20
42.34548469778521
 30
0.0
 11
298.114062868915
 21
45.16401641349271
 31
0.0
  0
SOLID
  5
3A2
330
39E
100
AcDbEntity
  8
0
 62
     0
100
AcDbTrace
 10
297.0511315997925
 20
42.35413516539357
 30
0.0
 11
297.0980429805079
 21
42.33683423017684
 31
0.0
 12
297.0226844844999
 22
42.20475055563897
 32
0.0
 13
297.0226844844999
 23
42.20475055563897
 33
0.0
  0
SOLID
  5
3A3
330
39E
100
AcDbEntity
  8
0
 62
     0
100
AcDbTrace
 10
298.0906071785573
 20
45.17266688110107
 30
0.0
 11
298.1375185592726
 21
45.15536594588435
 31
0.0
 12
298.1659656745652
 22
45.30475055563893
 32
0.0
 13
298.1659656745652
 23
45.30475055563893
 33
0.0
  0
MTEXT
  5
3A4
330
39E
100
AcDbEntity
  8
0
 62
     0
100
AcDbMText
 10
297.3621137449913
 20
43.84039018496184
 30
0.0
 40
0.225
 41
0.0
 71
     5
 72
     1
  1
\A1;3.30
 11
0.3460187043349496
 21
0.9382276143081501
 31
0.0
 73
     1
 44
1.0
  0
POINT
  5
3A5
330
39E
100
AcDbEntity
  8
DEFPOINTS
 62
     0
100
AcDbPoint
 10
295.9679739651346
 20
42.59372820007586
 30
0.0
  0
POINT
  5
3A6
330
39E
100
AcDbEntity
  8
DEFPOINTS
 62
     0
100
AcDbPoint
 10
297.1112551551999
 20
45.69372820007582
 30
0.0
  0
POINT
  5
3A7
330
39E
100
AcDbEntity
  8
DEFPOINTS
 62
     0
100
AcDbPoint
 10
298.1659656745652
 20
45.30475055563893
 30
0.0
  0
ENDBLK
  5
3A9
330
39E
100
AcDbEntity
  8
0
100
AcDbBlockEnd
  0
BLOCK
  5
3B5
330
3AB
100
AcDbEntity
  8
0
100
AcDbBlockBegin
  2
*D11
 70
     1
 10
0.0
 20
0.0
 30
0.0
  3
*D11
  1

  0
LINE
  5
3AC
330
3AB
100
AcDbEntity
  8
0
 62
     0
370
    -2
100
AcDbLine
 10
287.9882001630312
 20
42.59372820007585
 30
0.0
 11
286.7850560344509
 21
42.59372820007585
 31
0.0
  0
LINE
  5
3AD
330
3AB
100
AcDbEntity
  8
0
 62
     0
370
    -2
100
AcDbLine
 10
287.9882001630312
 20
45.69372820007585
 30
0.0
 11
286.7850560344509
 21
45.69372820007585
 31
0.0
  0
LINE
  5
3AE
330
3AB
100
AcDbEntity
  8
0
 62
     0
370
    -2
100
AcDbLine
 10
286.8000560344508
 20
42.74372820007585
 30
0.0
 11
286.8000560344508
 21
45.54372820007585
 31
0.0
  0
SOLID
  5
3AF
330
3AB
100
AcDbEntity
  8
0
 62
     0
100
AcDbTrace
 10
286.7750560344509
 20
42.74372820007585
 30
0.0
 11
286.8250560344508
 21
42.74372820007585
 31
0.0
 12
286.8000560344508
 22
42.59372820007585
 32
0.0
 13
286.8000560344508
 23
42.59372820007585
 33
0.0
  0
SOLID
  5
3B0
330
3AB
100
AcDbEntity
  8
0
 62
     0
100
AcDbTrace
 10
286.7750560344509
 20
45.54372820007585
 30
0.0
 11
286.8250560344508
 21
45.54372820007585
 31
0.0
 12
286.8000560344508
 22
45.69372820007585
 32
0.0
 13
286.8000560344508
 23
45.69372820007585
 33
0.0
  0
MTEXT
  5
3B1
330
3AB
100
AcDbEntity
  8
0
 62
     0
100
AcDbMText
 10
286.5525560344508
 20
44.1437282000759
 30
0.0
 40
0.225
 41
0.0
 71
     5
 72
     1
  1
\A1;3.10
 11
0.0000000000000001
 21
1.0
 31
0.0
 73
     1
 44
1.0
  0
POINT
  5
3B2
330
3AB
100
AcDbEntity
  8
DEFPOINTS
 62
     0
100
AcDbPoint
 10
288.0032001630312
 20
42.59372820007585
 30
0.0
  0
POINT
  5
3B3
330
3AB
100
AcDbEntity
  8
DEFPOINTS
 62
     0
100
AcDbPoint
 10
288.0032001630312
 20
45.69372820007585
 30
0.0
  0
POINT
  5
3B4
330
3AB
100
AcDbEntity
  8
DEFPOINTS
 62
     0
100
AcDbPoint
 10
286.8000560344508
 20
45.69372820007585
 30
0.0
  0
ENDBLK
  5
3B6
330
3AB
100
AcDbEntity
  8
0
100
AcDbBlockEnd
  0
BLOCK
  5
3C2
330
3B8
100
AcDbEntity
  8
0
100
AcDbBlockBegin
  2
*D12
 70
     1
 10
0.0
 20
0.0
 30
0.0
  3
*D12
  1

  0
LINE
  5
3B9
330
3B8
100
AcDbEntity
  8
0
 62
     0
370
    -2
100
AcDbLine
 10
288.0032001630312
 20
42.57872820007585
 30
0.0
 11
288.0032001630312
 21
40.62970039231212
 31
0.0
  0
LINE
  5
3BA
330
3B8
100
AcDbEntity
  8
0
 62
     0
370
    -2
100
AcDbLine
 10
296.0032001630312
 20
42.57872820007585
 30
0.0
 11
296.0032001630312
 21
40.62970039231212
 31
0.0
  0
LINE
  5
3BB
330
3B8
100
AcDbEntity
  8
0
 62
     0
370
    -2
100
AcDbLine
 10
288.1532001630312
 20
40.64470039231212
 30
0.0
 11
295.8532001630312
 21
40.64470039231212
 31
0.0
  0
SOLID
  5
3BC
330
3B8
100
AcDbEntity
  8
0
 62
     0
100
AcDbTrace
 10
288.1532001630312
 20
40.66970039231212
 30
0.0
 11
288.1532001630312
 21
40.61970039231212
 31
0.0
 12
288.0032001630312
 22
40.64470039231212
 32
0.0
 13
288.0032001630312
 23
40.64470039231212
 33
0.0
  0
SOLID
  5
3BD
330
3B8
100
AcDbEntity
  8
0
 62
     0
100
AcDbTrace
 10
295.8532001630312
 20
40.66970039231212
 30
0.0
 11
295.8532001630312
 21
40.61970039231212
 31
0.0
 12
296.0032001630312
 22
40.64470039231212
 32
0.0
 13
296.0032001630312
 23
40.64470039231212
 33
0.0
  0
MTEXT
  5
3BE
330
3B8
100
AcDbEntity
  8
0
 62
     0
100
AcDbMText
 10
292.0032001630312
 20
40.89220039231213
 30
0.0
 40
0.225
 41
0.0
 71
     5
 72
     1
  1
\A1;8.00
 73
     1
 44
1.0
  0
POINT
  5
3BF
330
3B8
100
AcDbEntity
  8
DEFPOINTS
 62
     0
100
AcDbPoint
 10
288.0032001630312
 20
42.59372820007585
 30
0.0
  0
POINT
  5
3C0
330
3B8
100
AcDbEntity
  8
DEFPOINTS
 62
     0
100
AcDbPoint
 10
296.0032001630312
 20
42.59372820007585
 30
0.0
  0
POINT
  5
3C1
330
3B8
100
AcDbEntity
  8
DEFPOINTS
 62
     0
100
AcDbPoint
 10
296.0032001630312
 20
40.64470039231212
 30
0.0
  0
ENDBLK
  5
3C3
330
3B8
100
AcDbEntity
  8
0
100
AcDbBlockEnd
  0
ENDSEC
  0
SECTION
  2
ENTITIES
  0
TEXT
  5
82
330
1E
100
AcDbEntity
  8
0
100
AcDbText
 10
289.4611459281948
 20
50.11081121504246
 30
0.0
 40
0.4
  1
P = 235 dm
  7
ROMANC
100
AcDbText
  0
TEXT
  5
86
330
1E
100
AcDbEntity
  8
0
100
AcDbText
 10
293.6848082527398
 20
50.99721026535547
 30
0.0
 40
0.4
  1
2
  7
ROMANC
100
AcDbText
  0
TEXT
  5
87
330
1E
100
AcDbEntity
  8
0
100
AcDbText
 10
289.4402907944343
 20
51.57031065679936
 30
0.0
 40
0.4
  1
ESCALA  1:100
  7
ROMANC
100
AcDbText
  0
TEXT
  5
88
330
1E
100
AcDbEntity
  8
0
100
AcDbText
 10
289.369633088493
 20
52.2073685455252
 30
0.0
 40
0.4
  1
TIPUS   C2652
  7
ROMANC
100
AcDbText
  0
TEXT
  5
89
330
1E
100
AcDbEntity
  8
0
100
AcDbText
 10
289.5121619281947
 20
50.80839021504242
 30
0.0
 40
0.4
  1
S= 2652 dm
  7
ROMANC
100
AcDbText
  0
LWPOLYLINE
  5
119
330
1E
100
AcDbEntity
  8
CAPA1
100
AcDbPolyline
 90
        4
 70
     1
 43
0.0
 10
302.395795
 20
29.77146041325219
 10
302.395795
 20
59.47146041325218
 10
281.395795
 20
59.47146041325218
 10
281.395795
 20
29.77146041325219
  0
LWPOLYLINE
  5
389
330
1E
100
AcDbEntity
  8
0
100
AcDbPolyline
 90
        4
 70
     0
 43
0.0
 10
288.0032001630312
 20
45.69372820007585
 10
288.0032001630312
 20
42.59372820007585
 10
296.0032001630312
 20
42.59372820007585
 10
297.1112551552
 20
45.69372820007585
  0
LWPOLYLINE
  5
38C
330
1E
100
AcDbEntity
  8
0
100
AcDbPolyline
 90
        4
 70
     0
 43
0.0
 10
288.0532001630312
 20
45.69372820007585
 10
288.0532001630312
 20
42.64372820007585
 10
295.9679739651347
 20
42.64372820007585
 10
297.0641724492029
 20
45.71055730569675
  0
LWPOLYLINE
  5
38D
330
1E
100
AcDbEntity
  8
0
100
AcDbPolyline
 90
        4
 70
     0
 43
0.0
 10
287.9532001630312
 20
45.69372820007585
 10
287.9532001630312
 20
42.54372820007585
 10
296.0384263609277
 20
42.54372820007585
 10
297.158337861197
 20
45.67689909445495
  0
DIMENSION
  5
39D
330
1E
100
AcDbEntity
  8
0
100
AcDbDimension
  2
*D10
 10
298.1659656745652
 20
45.30475055563893
 30
0.0
 11
297.3621137449913
 21
43.84039018496184
 31
0.0
 70
    33
 71
     5
 42
3.304102280432147
  3
SILVIA
100
AcDbAlignedDimension
 13
295.9679739651347
 23
42.59372820007585
 33
0.0
 14
297.1112551552
 24
45.69372820007585
 34
0.0
1001
ACAD
1000
DSTYLE
1002
{
1070
   140
1040
0.15
1070
   340
1005
11
1002
}
  0
DIMENSION
  5
3AA
330
1E
100
AcDbEntity
  8
0
100
AcDbDimension
  2
*D11
 10
286.8000560344508
 20
45.69372820007585
 30
0.0
 11
286.5525560344508
 21
44.1437282000759
 31
0.0
 70
    33
 71
     5
 42
3.100000000000001
  3
SILVIA
100
AcDbAlignedDimension
 13
288.0032001630312
 23
42.59372820007585
 33
0.0
 14
288.0032001630312
 24
45.69372820007585
 34
0.0
1001
ACAD
1000
DSTYLE
1002
{
1070
   140
1040
0.15
1070
   340
1005
11
1002
}
  0
DIMENSION
  5
3B7
330
1E
100
AcDbEntity
  8
0
100
AcDbDimension
  2
*D12
 10
296.0032001630312
 20
40.64470039231212
 30
0.0
 11
292.0032001630312
 21
40.89220039231213
 31
0.0
 70
    32
 71
     5
 42
8.0
  3
SILVIA
100
AcDbAlignedDimension
 13
288.0032001630312
 23
42.59372820007585
 33
0.0
 14
296.0032001630312
 24
42.59372820007585
 34
0.0
100
AcDbRotatedDimension
1001
ACAD
1000
DSTYLE
1002
{
1070
   140
1040
0.15
1070
   340
1005
11
1002
}
  0
ENDSEC
  0
SECTION
  2
OBJECTS
  0
DICTIONARY
  5
C
330
0
100
AcDbDictionary
281
     1
  3
ACAD_GROUP
350
D
  3
ACAD_LAYOUT
350
19
  3
ACAD_MLINESTYLE
350
16
  3
ACAD_PLOTSETTINGS
350
18
  3
ACAD_PLOTSTYLENAME
350
E
  3
ACDBVARIABLEDICTIONARY
350
153
  0
DICTIONARY
  5
17C
330
1E
100
AcDbDictionary
280
     1
281
     1
  3
ACAD_LAYOUTSELFREF
360
37C
  0
DICTIONARY
  5
17A
330
1A
100
AcDbDictionary
280
     1
281
     1
  3
ACAD_LAYOUTSELFREF
360
37B
  0
DICTIONARY
  5
D
102
{ACAD_REACTORS
330
C
102
}
330
C
100
AcDbDictionary
281
     1
  0
DICTIONARY
  5
19
102
{ACAD_REACTORS
330
C
102
}
330
C
100
AcDbDictionary
281
     1
  3
Model
350
380
  3
Presentación1
350
381
  0
DICTIONARY
  5
16
102
{ACAD_REACTORS
330
C
102
}
330
C
100
AcDbDictionary
281
     1
  3
STANDARD
350
17
  0
DICTIONARY
  5
18
102
{ACAD_REACTORS
330
C
102
}
330
C
100
AcDbDictionary
281
     1
  0
ACDBDICTIONARYWDFLT
  5
E
102
{ACAD_REACTORS
330
C
102
}
330
C
100
AcDbDictionary
281
     1
  3
Normal
350
F
100
AcDbDictionaryWithDefault
340
F
  0
DICTIONARY
  5
153
102
{ACAD_REACTORS
330
C
102
}
330
C
100
AcDbDictionary
281
     1
  3
DIMASSOC
350
154
  0
XRECORD
  5
37C
102
{ACAD_REACTORS
330
17C
102
}
330
17C
100
AcDbXrecord
280
     1
340
1E
  0
XRECORD
  5
37B
102
{ACAD_REACTORS
330
17A
102
}
330
17A
100
AcDbXrecord
280
     1
340
1A
  0
LAYOUT
  5
380
102
{ACAD_REACTORS
330
19
102
}
330
19
100
AcDbPlotSettings
  1

  2
\\Servidor1w\LS5000PS
  4
A4
  6

 40
5.746749877929687
 41
5.365768432617187
 42
5.70440673828125
 43
5.746734619140625
 44
209.8886566162109
 45
297.0530090332031
 46
0.0
 47
0.0
 48
282.2434890006553
 49
30.45906349477201
140
301.5882703476115
141
58.94363423443458
142
1.0
143
0.1
 70
 11936
 72
     1
 73
     0
 74
     4
  7

 75
     0
147
10.0
148
-282.2434890006553
149
-30.45906349477201
100
AcDbLayout
  1
Model
 70
     1
 71
     0
 10
0.0
 20
0.0
 11
12.0
 21
9.0
 12
0.0
 22
0.0
 32
0.0
 14
0.0
 24
0.0
 34
0.0
 15
0.0
 25
0.0
 35
0.0
146
0.0
 13
0.0
 23
0.0
 33
0.0
 16
1.0
 26
0.0
 36
0.0
 17
0.0
 27
1.0
 37
0.0
 76
     0
330
1E
  0
LAYOUT
  5
381
102
{ACAD_REACTORS
330
19
102
}
330
19
100
AcDbPlotSettings
  1

  2
Acrobat PDFWriter
  4

  6

 40
0.0
 41
0.0
 42
0.0
 43
0.0
 44
0.0
 45
0.0
 46
0.0
 47
0.0
 48
0.0
 49
0.0
140
0.0
141
0.0
142
1.0
143
1.0
 70
   688
 72
     0
 73
     0
 74
     5
  7

 75
    16
147
1.0
148
0.0
149
0.0
100
AcDbLayout
  1
Presentación1
 70
     0
 71
     1
 10
0.0
 20
0.0
 11
12.0
 21
9.0
 12
0.0
 22
0.0
 32
0.0
 14
1.000000000000000E+20
 24
1.000000000000000E+20
 34
1.000000000000000E+20
 15
-1.000000000000000E+20
 25
-1.000000000000000E+20
 35
-1.000000000000000E+20
146
0.0
 13
0.0
 23
0.0
 33
0.0
 16
1.0
 26
0.0
 36
0.0
 17
0.0
 27
1.0
 37
0.0
 76
     0
330
1A
  0
MLINESTYLE
  5
17
102
{ACAD_REACTORS
330
16
102
}
330
16
100
AcDbMlineStyle
  2
STANDARD
 70
     0
  3

 62
   256
 51
90.0
 52
90.0
 71
     2
 49
0.5
 62
   256
  6
BYLAYER
 49
-0.5
 62
   256
  6
BYLAYER
  0
ACDBPLACEHOLDER
  5
F
102
{ACAD_REACTORS
330
E
102
}
330
E
  0
DICTIONARYVAR
  5
154
102
{ACAD_REACTORS
330
153
102
}
330
153
100
DictionaryVariables
280
     0
  1
1
  0
ENDSEC
  0
EOF
