  0
SECTION
  2
HEADER
  9
$ACADVER
  1
AC1015
  9
$ACADMAINTVER
 70
    13
  9
$DWGCODEPAGE
  3
ANSI_1252
  9
$INSBASE
 10
0.0
 20
0.0
 30
0.0
  9
$EXTMIN
 10
320.7379163670561
 20
33.84301828574734
 30
-0.0000000349181948
  9
$EXTMAX
 10
326.0243233666108
 20
41.28778114389604
 30
0.0000000814935747
  9
$LIMMIN
 10
0.0
 20
0.0
  9
$LIMMAX
 10
410.0
 20
287.0
  9
$ORTHOMODE
 70
     0
  9
$REGENMODE
 70
     1
  9
$FILLMODE
 70
     1
  9
$QTEXTMODE
 70
     0
  9
$MIRRTEXT
 70
     1
  9
$LTSCALE
 40
25.0
  9
$ATTMODE
 70
     1
  9
$TEXTSIZE
 40
0.1
  9
$TRACEWID
 40
1.0
  9
$TEXTSTYLE
  7
ROMANC
  9
$CLAYER
  8
0
  9
$CELTYPE
  6
BYLAYER
  9
$CECOLOR
 62
   256
  9
$CELTSCALE
 40
1.0
  9
$DISPSILH
 70
     0
  9
$DIMSCALE
 40
1.5
  9
$DIMASZ
 40
0.05
  9
$DIMEXO
 40
0.01
  9
$DIMDLI
 40
7.0
  9
$DIMRND
 40
0.0
  9
$DIMDLE
 40
0.0
  9
$DIMEXE
 40
0.01
  9
$DIMTP
 40
0.0
  9
$DIMTM
 40
0.0
  9
$DIMTXT
 40
0.05
  9
$DIMCEN
 40
0.0
  9
$DIMTSZ
 40
0.0
  9
$DIMTOL
 70
     0
  9
$DIMLIM
 70
     0
  9
$DIMTIH
 70
     0
  9
$DIMTOH
 70
     0
  9
$DIMSE1
 70
     0
  9
$DIMSE2
 70
     0
  9
$DIMTAD
 70
     1
  9
$DIMZIN
 70
     0
  9
$DIMBLK
  1
OBLIQUE
  9
$DIMASO
 70
     1
  9
$DIMSHO
 70
     0
  9
$DIMPOST
  1

  9
$DIMAPOST
  1

  9
$DIMALT
 70
     0
  9
$DIMALTD
 70
     2
  9
$DIMALTF
 40
25.4
  9
$DIMLFAC
 40
1.0
  9
$DIMTOFL
 70
     1
  9
$DIMTVP
 40
0.0
  9
$DIMTIX
 70
     1
  9
$DIMSOXD
 70
     0
  9
$DIMSAH
 70
     0
  9
$DIMBLK1
  1

  9
$DIMBLK2
  1

  9
$DIMSTYLE
  2
MERITXELL
  9
$DIMCLRD
 70
     0
  9
$DIMCLRE
 70
     0
  9
$DIMCLRT
 70
     0
  9
$DIMTFAC
 40
70.0
  9
$DIMGAP
 40
0.025
  9
$DIMJUST
 70
     0
  9
$DIMSD1
 70
     0
  9
$DIMSD2
 70
     0
  9
$DIMTOLJ
 70
     1
  9
$DIMTZIN
 70
     0
  9
$DIMALTZ
 70
     0
  9
$DIMALTTZ
 70
     0
  9
$DIMUPT
 70
     0
  9
$DIMDEC
 70
     2
  9
$DIMTDEC
 70
     2
  9
$DIMALTU
 70
     2
  9
$DIMALTTD
 70
     2
  9
$DIMTXSTY
  7
ROMANC
  9
$DIMAUNIT
 70
     0
  9
$DIMADEC
 70
     0
  9
$DIMALTRND
 40
0.0
  9
$DIMAZIN
 70
     0
  9
$DIMDSEP
 70
    46
  9
$DIMATFIT
 70
     3
  9
$DIMFRAC
 70
     0
  9
$DIMLDRBLK
  1
OBLIQUE
  9
$DIMLUNIT
 70
     2
  9
$DIMLWD
 70
    -2
  9
$DIMLWE
 70
    -2
  9
$DIMTMOVE
 70
     0
  9
$LUNITS
 70
     2
  9
$LUPREC
 70
     2
  9
$SKETCHINC
 40
1.0
  9
$FILLETRAD
 40
0.0
  9
$AUNITS
 70
     0
  9
$AUPREC
 70
     0
  9
$MENU
  1
acad
  9
$ELEVATION
 40
0.0
  9
$PELEVATION
 40
0.0
  9
$THICKNESS
 40
0.0
  9
$LIMCHECK
 70
     0
  9
$CHAMFERA
 40
0.0
  9
$CHAMFERB
 40
0.0
  9
$CHAMFERC
 40
0.0
  9
$CHAMFERD
 40
0.0
  9
$SKPOLY
 70
     0
  9
$TDCREATE
 40
2450927.503616667
  9
$TDUCREATE
 40
2450927.461950000
  9
$TDUPDATE
 40
2453321.756336609
  9
$TDUUPDATE
 40
2453321.714669942
  9
$TDINDWG
 40
0.3924059954
  9
$TDUSRTIMER
 40
0.3923992708
  9
$USRTIMER
 70
     1
  9
$ANGBASE
 50
0.0
  9
$ANGDIR
 70
     0
  9
$PDMODE
 70
     0
  9
$PDSIZE
 40
0.0
  9
$PLINEWID
 40
0.0
  9
$SPLFRAME
 70
     0
  9
$SPLINETYPE
 70
     6
  9
$SPLINESEGS
 70
     8
  9
$HANDSEED
  5
181A
  9
$SURFTAB1
 70
     6
  9
$SURFTAB2
 70
     6
  9
$SURFTYPE
 70
     6
  9
$SURFU
 70
     6
  9
$SURFV
 70
     6
  9
$UCSBASE
  2

  9
$UCSNAME
  2

  9
$UCSORG
 10
0.0
 20
0.0
 30
0.0
  9
$UCSXDIR
 10
1.0
 20
0.0
 30
0.0
  9
$UCSYDIR
 10
0.0
 20
1.0
 30
0.0
  9
$UCSORTHOREF
  2

  9
$UCSORTHOVIEW
 70
     0
  9
$UCSORGTOP
 10
0.0
 20
0.0
 30
0.0
  9
$UCSORGBOTTOM
 10
0.0
 20
0.0
 30
0.0
  9
$UCSORGLEFT
 10
0.0
 20
0.0
 30
0.0
  9
$UCSORGRIGHT
 10
0.0
 20
0.0
 30
0.0
  9
$UCSORGFRONT
 10
0.0
 20
0.0
 30
0.0
  9
$UCSORGBACK
 10
0.0
 20
0.0
 30
0.0
  9
$PUCSBASE
  2

  9
$PUCSNAME
  2

  9
$PUCSORG
 10
0.0
 20
0.0
 30
0.0
  9
$PUCSXDIR
 10
1.0
 20
0.0
 30
0.0
  9
$PUCSYDIR
 10
0.0
 20
1.0
 30
0.0
  9
$PUCSORTHOREF
  2

  9
$PUCSORTHOVIEW
 70
     0
  9
$PUCSORGTOP
 10
0.0
 20
0.0
 30
0.0
  9
$PUCSORGBOTTOM
 10
0.0
 20
0.0
 30
0.0
  9
$PUCSORGLEFT
 10
0.0
 20
0.0
 30
0.0
  9
$PUCSORGRIGHT
 10
0.0
 20
0.0
 30
0.0
  9
$PUCSORGFRONT
 10
0.0
 20
0.0
 30
0.0
  9
$PUCSORGBACK
 10
0.0
 20
0.0
 30
0.0
  9
$USERI1
 70
     0
  9
$USERI2
 70
     0
  9
$USERI3
 70
     0
  9
$USERI4
 70
     0
  9
$USERI5
 70
     0
  9
$USERR1
 40
0.0
  9
$USERR2
 40
0.0
  9
$USERR3
 40
0.0
  9
$USERR4
 40
0.0
  9
$USERR5
 40
0.0
  9
$WORLDVIEW
 70
     1
  9
$SHADEDGE
 70
     3
  9
$SHADEDIF
 70
    70
  9
$TILEMODE
 70
     1
  9
$MAXACTVP
 70
    16
  9
$PINSBASE
 10
0.0
 20
0.0
 30
0.0
  9
$PLIMCHECK
 70
     0
  9
$PEXTMIN
 10
0.2116081523232864
 20
0.2346387408828896
 30
0.0
  9
$PEXTMAX
 10
15.88014469551259
 20
22.75922992126416
 30
0.0
  9
$PLIMMIN
 10
-0.211260093180138
 20
-0.1911951125826537
  9
$PLIMMAX
 10
16.31540578211206
 20
23.19880559869317
  9
$UNITMODE
 70
     0
  9
$VISRETAIN
 70
     0
  9
$PLINEGEN
 70
     0
  9
$PSLTSCALE
 70
     0
  9
$TREEDEPTH
 70
  3020
  9
$CMLSTYLE
  2
STANDARD
  9
$CMLJUST
 70
     0
  9
$CMLSCALE
 40
1.0
  9
$PROXYGRAPHICS
 70
     1
  9
$MEASUREMENT
 70
     0
  9
$CELWEIGHT
370
    -1
  9
$ENDCAPS
280
     0
  9
$JOINSTYLE
280
     0
  9
$LWDISPLAY
290
     0
  9
$INSUNITS
 70
     0
  9
$HYPERLINKBASE
  1

  9
$STYLESHEET
  1

  9
$XEDIT
290
     1
  9
$CEPSNTYPE
380
     0
  9
$PSTYLEMODE
290
     1
  9
$FINGERPRINTGUID
  2
{85A93EE0-FB4C-11D3-A568-0008C769B1B5}
  9
$VERSIONGUID
  2
{AD8E1AE7-B633-4E12-A406-CCF00185D7D4}
  9
$EXTNAMES
290
     1
  9
$PSVPSCALE
 40
0.0
  9
$OLESTARTUP
290
     0
  0
ENDSEC
  0
SECTION
  2
CLASSES
  0
CLASS
  1
DICTIONARYVAR
  2
AcDbDictionaryVar
  3
AutoCAD 2000
 90
        0
280
     0
281
     0
  0
CLASS
  1
LWPOLYLINE
  2
AcDbPolyline
  3
AutoCAD 2000
 90
    32768
280
     0
281
     1
  0
CLASS
  1
ACDBDICTIONARYWDFLT
  2
AcDbDictionaryWithDefault
  3
AutoCAD 2000
 90
        0
280
     0
281
     0
  0
CLASS
  1
ACDBPLACEHOLDER
  2
AcDbPlaceHolder
  3
AutoCAD 2000
 90
        0
280
     0
281
     0
  0
CLASS
  1
LAYOUT
  2
AcDbLayout
  3
AutoCAD 2000
 90
        0
280
     0
281
     0
  0
CLASS
  1
LONG_TRANSACTION
  2
AcDbLongTransaction
  3
AutoCAD 2000
 90
    32768
280
     0
281
     0
  0
CLASS
  1
LWPOLYLINE
  2
AcDbPolyline
  3
AutoCAD 2000
 90
    32768
280
     0
281
     1
  0
CLASS
  1
HATCH
  2
AcDbHatch
  3
AutoCAD 2000
 90
    32768
280
     0
281
     1
  0
CLASS
  1
XRECORD
  2
AcDbXrecord
  3
AutoCAD 2000
 90
    32768
280
     0
281
     0
  0
CLASS
  1
LONG_TRANSACTION
  2
AcDbLongTransaction
  3
AutoCAD 2000
 90
    32768
280
     0
281
     0
  0
CLASS
  1
LWPOLYLINE
  2
AcDbPolyline
  3
AutoCAD 2000
 90
    32768
280
     0
281
     1
  0
CLASS
  1
HATCH
  2
AcDbHatch
  3
AutoCAD 2000
 90
    32768
280
     0
281
     1
  0
CLASS
  1
XRECORD
  2
AcDbXrecord
  3
AutoCAD 2000
 90
    32768
280
     0
281
     0
  0
CLASS
  1
LONG_TRANSACTION
  2
AcDbLongTransaction
  3
AutoCAD 2000
 90
    32768
280
     0
281
     0
  0
CLASS
  1
LWPOLYLINE
  2
AcDbPolyline
  3
AutoCAD 2000
 90
    32768
280
     0
281
     1
  0
CLASS
  1
HATCH
  2
AcDbHatch
  3
AutoCAD 2000
 90
    32768
280
     0
281
     1
  0
CLASS
  1
XRECORD
  2
AcDbXrecord
  3
AutoCAD 2000
 90
    32768
280
     0
281
     0
  0
CLASS
  1
LONG_TRANSACTION
  2
AcDbLongTransaction
  3
AutoCAD 2000
 90
    32768
280
     0
281
     0
  0
CLASS
  1
LWPOLYLINE
  2
AcDbPolyline
  3
AutoCAD 2000
 90
    32768
280
     0
281
     1
  0
CLASS
  1
HATCH
  2
AcDbHatch
  3
AutoCAD 2000
 90
    32768
280
     0
281
     1
  0
CLASS
  1
XRECORD
  2
AcDbXrecord
  3
AutoCAD 2000
 90
    32768
280
     0
281
     0
  0
CLASS
  1
LONG_TRANSACTION
  2
AcDbLongTransaction
  3
AutoCAD 2000
 90
    32768
280
     0
281
     0
  0
CLASS
  1
LWPOLYLINE
  2
AcDbPolyline
  3
AutoCAD 2000
 90
    32768
280
     0
281
     1
  0
CLASS
  1
HATCH
  2
AcDbHatch
  3
AutoCAD 2000
 90
    32768
280
     0
281
     1
  0
CLASS
  1
XRECORD
  2
AcDbXrecord
  3
AutoCAD 2000
 90
    32768
280
     0
281
     0
  0
CLASS
  1
LONG_TRANSACTION
  2
AcDbLongTransaction
  3
AutoCAD 2000
 90
    32768
280
     0
281
     0
  0
CLASS
  1
LWPOLYLINE
  2
AcDbPolyline
  3
AutoCAD 2000
 90
    32768
280
     0
281
     1
  0
CLASS
  1
HATCH
  2
AcDbHatch
  3
AutoCAD 2000
 90
    32768
280
     0
281
     1
  0
CLASS
  1
XRECORD
  2
AcDbXrecord
  3
AutoCAD 2000
 90
    32768
280
     0
281
     0
  0
ENDSEC
  0
SECTION
  2
TABLES
  0
TABLE
  2
VPORT
  5
8
330
0
100
AcDbSymbolTable
 70
     4
  0
VPORT
  5
1819
330
8
100
AcDbSymbolTableRecord
100
AcDbViewportTableRecord
  2
*Active
 70
     0
 10
0.0
 20
0.0
 11
1.0
 21
1.0
 12
323.3811198668334
 22
37.56539971482169
 13
0.0
 23
0.0
 14
1.0
 24
1.0
 15
10.0
 25
10.0
 16
0.0
 26
0.0
 36
1.0
 17
0.0
 27
0.0
 37
0.0
 40
7.505952689859498
 41
1.647462277091906
 42
50.0
 43
0.0
 44
0.0
 50
0.0
 51
0.0
 71
     0
 72
   100
 73
     1
 74
     0
 75
     0
 76
     0
 77
     0
 78
     1
281
     0
 65
     1
110
0.0
120
0.0
130
0.0
111
1.0
121
0.0
131
0.0
112
0.0
122
1.0
132
0.0
 79
     0
146
0.0
  0
ENDTAB
  0
TABLE
  2
LTYPE
  5
5
330
0
100
AcDbSymbolTable
 70
     1
  0
LTYPE
  5
11
330
5
100
AcDbSymbolTableRecord
100
AcDbLinetypeTableRecord
  2
BYBLOCK
 70
     0
  3

 72
    65
 73
     0
 40
0.0
  0
LTYPE
  5
12
330
5
100
AcDbSymbolTableRecord
100
AcDbLinetypeTableRecord
  2
BYLAYER
 70
     0
  3

 72
    65
 73
     0
 40
0.0
  0
LTYPE
  5
13
330
5
100
AcDbSymbolTableRecord
100
AcDbLinetypeTableRecord
  2
CONTINUOUS
 70
     0
  3
Solid line
 72
    65
 73
     0
 40
0.0
  0
ENDTAB
  0
TABLE
  2
LAYER
  5
2
330
0
100
AcDbSymbolTable
 70
     4
  0
LAYER
  5
E
330
2
100
AcDbSymbolTableRecord
100
AcDbLayerTableRecord
  2
0
 70
     0
 62
     7
  6
CONTINUOUS
370
    -3
390
FBF
  0
LAYER
  5
70C
330
2
100
AcDbSymbolTableRecord
100
AcDbLayerTableRecord
  2
DEFPOINTS
 70
     0
 62
     7
  6
CONTINUOUS
290
     0
370
    -3
390
FBF
  0
LAYER
  5
FD0
330
2
100
AcDbSymbolTableRecord
100
AcDbLayerTableRecord
  2
FINESTRA
 70
     0
 62
     7
  6
CONTINUOUS
370
    -3
390
FBF
  0
LAYER
  5
1204
330
2
100
AcDbSymbolTableRecord
100
AcDbLayerTableRecord
  2
NO_PRINT
 70
     0
 62
     7
  6
CONTINUOUS
370
    -3
390
FBF
  0
ENDTAB
  0
TABLE
  2
STYLE
  5
3
330
0
100
AcDbSymbolTable
 70
     2
  0
STYLE
  5
F
330
3
100
AcDbSymbolTableRecord
100
AcDbTextStyleTableRecord
  2
STANDARD
 70
     0
 40
0.0
 41
1.0
 50
0.0
 71
     0
 42
0.1
  3
txt
  4

  0
STYLE
  5
1C
330
3
100
AcDbSymbolTableRecord
100
AcDbTextStyleTableRecord
  2
ROMANC
 70
     0
 40
0.0
 41
1.0
 50
0.0
 71
     0
 42
0.1
  3
romanc
  4

  0
ENDTAB
  0
TABLE
  2
VIEW
  5
6
330
0
100
AcDbSymbolTable
 70
     0
  0
ENDTAB
  0
TABLE
  2
UCS
  5
7
330
0
100
AcDbSymbolTable
 70
     0
  0
ENDTAB
  0
TABLE
  2
APPID
  5
9
330
0
100
AcDbSymbolTable
 70
     1
  0
APPID
  5
10
330
9
100
AcDbSymbolTableRecord
100
AcDbRegAppTableRecord
  2
ACAD
 70
     0
  0
ENDTAB
  0
TABLE
  2
DIMSTYLE
  5
A
330
0
100
AcDbSymbolTable
 70
     1
100
AcDbDimStyleTable
 71
     1
340
1F
  0
DIMSTYLE
105
1F
102
{ACAD_REACTORS
330
1734
330
1741
102
}
330
A
100
AcDbSymbolTableRecord
100
AcDbDimStyleTableRecord
  2
MERITXELL
 70
     0
 40
1.5
 41
0.05
 42
0.01
 43
7.0
 44
0.01
 73
     0
 74
     0
 77
     1
140
0.05
141
0.1
146
70.0
172
     1
174
     1
271
     2
272
     2
340
1C
341
11DB
342
11DB
  0
ENDTAB
  0
TABLE
  2
BLOCK_RECORD
  5
1
330
0
100
AcDbSymbolTable
 70
    14
  0
BLOCK_RECORD
  5
17
102
{ACAD_XDICTIONARY
360
11AB
102
}
330
1
100
AcDbSymbolTableRecord
100
AcDbBlockTableRecord
  2
*MODEL_SPACE
340
172F
  0
BLOCK_RECORD
  5
14
102
{ACAD_XDICTIONARY
360
11A9
102
}
330
1
100
AcDbSymbolTableRecord
100
AcDbBlockTableRecord
  2
*PAPER_SPACE
340
1730
  0
BLOCK_RECORD
  5
386
330
1
100
AcDbSymbolTableRecord
100
AcDbBlockTableRecord
  2
TICK
340
0
  0
BLOCK_RECORD
  5
11DB
330
1
100
AcDbSymbolTableRecord
100
AcDbBlockTableRecord
  2
_OBLIQUE
340
0
102
{BLKREFS
331
1327
331
1328
331
1334
331
1335
331
146C
331
146D
331
1479
331
147A
331
154D
331
154E
331
1563
331
1564
331
15E6
331
15E7
331
15F1
331
15F2
331
16A5
331
16A6
331
16B4
331
16B5
331
16C1
331
16C2
331
16C9
331
16CA
331
1739
331
173A
331
1746
331
1747
331
1752
331
1753
331
175B
331
175C
331
1764
331
1765
331
176D
331
176E
331
1776
331
1777
331
177F
331
1780
331
1788
331
1789
331
1791
331
1792
331
17E2
331
17E3
331
17EB
331
17EC
331
17FE
331
17FF
331
1807
331
1808
102
}
  0
BLOCK_RECORD
  5
1321
330
1
100
AcDbSymbolTableRecord
100
AcDbBlockTableRecord
  2
*D2
340
0
  0
BLOCK_RECORD
  5
1330
330
1
100
AcDbSymbolTableRecord
100
AcDbBlockTableRecord
  2
*D3
340
0
  0
BLOCK_RECORD
  5
1468
330
1
100
AcDbSymbolTableRecord
100
AcDbBlockTableRecord
  2
*D4
340
0
  0
BLOCK_RECORD
  5
1475
330
1
100
AcDbSymbolTableRecord
100
AcDbBlockTableRecord
  2
*D5
340
0
  0
BLOCK_RECORD
  5
151D
330
1
100
AcDbSymbolTableRecord
100
AcDbBlockTableRecord
  2
*D6
340
0
  0
BLOCK_RECORD
  5
152A
330
1
100
AcDbSymbolTableRecord
100
AcDbBlockTableRecord
  2
*D7
340
0
  0
BLOCK_RECORD
  5
1593
330
1
100
AcDbSymbolTableRecord
100
AcDbBlockTableRecord
  2
*D8
340
0
  0
BLOCK_RECORD
  5
15A0
330
1
100
AcDbSymbolTableRecord
100
AcDbBlockTableRecord
  2
*D9
340
0
  0
BLOCK_RECORD
  5
169F
330
1
100
AcDbSymbolTableRecord
100
AcDbBlockTableRecord
  2
*D10
340
0
  0
BLOCK_RECORD
  5
16AE
330
1
100
AcDbSymbolTableRecord
100
AcDbBlockTableRecord
  2
*D11
340
0
  0
BLOCK_RECORD
  5
1735
330
1
100
AcDbSymbolTableRecord
100
AcDbBlockTableRecord
  2
*D12
340
0
  0
BLOCK_RECORD
  5
1742
330
1
100
AcDbSymbolTableRecord
100
AcDbBlockTableRecord
  2
*D13
340
0
  0
ENDTAB
  0
ENDSEC
  0
SECTION
  2
BLOCKS
  0
BLOCK
  5
23
330
17
100
AcDbEntity
  8
0
100
AcDbBlockBegin
  2
*MODEL_SPACE
 70
     0
 10
0.0
 20
0.0
 30
0.0
  3
*MODEL_SPACE
  1

  0
ENDBLK
  5
24
330
17
100
AcDbEntity
  8
0
100
AcDbBlockEnd
  0
BLOCK
  5
21
330
14
100
AcDbEntity
 67
     1
  8
0
100
AcDbBlockBegin
  2
*PAPER_SPACE
 70
     0
 10
0.0
 20
0.0
 30
0.0
  3
*PAPER_SPACE
  1

  0
ENDBLK
  5
22
330
14
100
AcDbEntity
 67
     1
  8
0
100
AcDbBlockEnd
  0
BLOCK
  5
389
330
386
100
AcDbEntity
  8
0
100
AcDbBlockBegin
  2
TICK
 70
     0
 10
0.0
 20
0.0
 30
0.0
  3
TICK
  1

  0
LINE
  5
387
330
386
100
AcDbEntity
  8
0
  6
ByBlock
 62
     6
100
AcDbLine
 10
-1.0
 20
-1.0
 30
0.0
 11
1.0
 21
1.0
 31
0.0
  0
LINE
  5
388
330
386
100
AcDbEntity
  8
0
  6
ByBlock
 62
    71
100
AcDbLine
 10
0.0
 20
0.0
 30
0.0
 11
-1.0
 21
0.0
 31
0.0
  0
ENDBLK
  5
38A
330
386
100
AcDbEntity
  8
0
100
AcDbBlockEnd
  0
BLOCK
  5
11DD
330
11DB
100
AcDbEntity
  8
0
100
AcDbBlockBegin
  2
_OBLIQUE
 70
     0
 10
0.0
 20
0.0
 30
0.0
  3
_OBLIQUE
  1

  0
LINE
  5
11DC
330
11DB
100
AcDbEntity
  8
0
 62
     0
100
AcDbLine
 10
-0.5
 20
-0.5
 30
0.0
 11
0.5
 21
0.5
 31
0.0
  0
ENDBLK
  5
11DE
330
11DB
100
AcDbEntity
  8
0
100
AcDbBlockEnd
  0
BLOCK
  5
132D
330
1321
100
AcDbEntity
  8
0
100
AcDbBlockBegin
  2
*D2
 70
     1
 10
0.0
 20
0.0
 30
0.0
  3
*D2
  1

  0
LINE
  5
1322
330
1321
100
AcDbEntity
  8
0
 62
     0
100
AcDbLine
 10
323.6822021656935
 20
37.06962121076326
 30
0.0
 11
323.8171638942673
 21
37.06962121076326
 31
0.0
  0
LINE
  5
1323
330
1321
100
AcDbEntity
  8
0
 62
     0
100
AcDbLine
 10
323.6822021656935
 20
37.08962121076326
 30
0.0
 11
323.8171638942673
 21
37.08962121076326
 31
0.0
  0
LINE
  5
1324
330
1321
100
AcDbEntity
  8
0
 62
     0
100
AcDbLine
 10
323.8021638942673
 20
37.06962121076326
 30
0.0
 11
323.8021638942673
 21
36.99462121076324
 31
0.0
  0
LINE
  5
1325
330
1321
100
AcDbEntity
  8
0
 62
     0
100
AcDbLine
 10
323.8021638942673
 20
37.08962121076326
 30
0.0
 11
323.8021638942673
 21
37.16462121076325
 31
0.0
  0
LINE
  5
1326
330
1321
100
AcDbEntity
  8
0
 62
     0
100
AcDbLine
 10
323.8021638942673
 20
37.06962121076326
 30
0.0
 11
323.8021638942673
 21
37.08962121076326
 31
0.0
  0
INSERT
  5
1327
330
1321
100
AcDbEntity
  8
0
 62
     0
100
AcDbBlockReference
  2
_OBLIQUE
 10
323.8021638942673
 20
37.06962121076326
 30
0.0
 41
0.075
 42
0.075
 43
0.075
 50
90.0
  0
INSERT
  5
1328
330
1321
100
AcDbEntity
  8
0
 62
     0
100
AcDbBlockReference
  2
_OBLIQUE
 10
323.8021638942673
 20
37.08962121076326
 30
0.0
 41
0.075
 42
0.075
 43
0.075
 50
270.0
  0
MTEXT
  5
1329
330
1321
100
AcDbEntity
  8
0
 62
     0
100
AcDbMText
 10
323.7271638942674
 20
37.07962121076331
 30
0.0
 40
0.075
 41
0.0
 71
     5
 72
     1
  1
\A1;0.02
  7
ROMANC
 11
0.0000000000000001
 21
1.0
 31
0.0
 73
     1
 44
1.0
1001
ACAD
1000
MTEXTBEGIN
1070
    73
1070
     1
1070
    44
1040
1.0
1070
    74
1070
     0
1000
MTEXTEND
1000
MTEXTBEGIN
1070
    73
1070
     1
1070
    44
1040
1.0
1070
    74
1070
     0
1000
MTEXTEND
1000
MTEXTBEGIN
1070
    73
1070
     1
1070
    44
1040
1.0
1070
    74
1070
     0
1000
MTEXTEND
1000
MTEXTBEGIN
1070
    73
1070
     1
1070
    44
1040
1.0
1070
    74
1070
     0
1000
MTEXTEND
  0
POINT
  5
132A
330
1321
100
AcDbEntity
  8
DEFPOINTS
 62
     0
100
AcDbPoint
 10
323.6672021656935
 20
37.06962121076326
 30
0.0
  0
POINT
  5
132B
330
1321
100
AcDbEntity
  8
DEFPOINTS
 62
     0
100
AcDbPoint
 10
323.6672021656935
 20
37.08962121076326
 30
0.0
  0
POINT
  5
132C
330
1321
100
AcDbEntity
  8
DEFPOINTS
 62
     0
100
AcDbPoint
 10
323.8021638942673
 20
37.08962121076326
 30
0.0
  0
ENDBLK
  5
132E
330
1321
100
AcDbEntity
  8
0
100
AcDbBlockEnd
  0
BLOCK
  5
133A
330
1330
100
AcDbEntity
  8
0
100
AcDbBlockBegin
  2
*D3
 70
     1
 10
0.0
 20
0.0
 30
0.0
  3
*D3
  1

  0
LINE
  5
1331
330
1330
100
AcDbEntity
  8
0
 62
     0
100
AcDbLine
 10
323.1672021656935
 20
37.07462121076326
 30
0.0
 11
323.1672021656935
 21
36.84526002936314
 31
0.0
  0
LINE
  5
1332
330
1330
100
AcDbEntity
  8
0
 62
     0
100
AcDbLine
 10
323.6672021656935
 20
37.07462121076326
 30
0.0
 11
323.6672021656935
 21
36.84526002936314
 31
0.0
  0
LINE
  5
1333
330
1330
100
AcDbEntity
  8
0
 62
     0
100
AcDbLine
 10
323.1672021656935
 20
36.86026002936314
 30
0.0
 11
323.6672021656935
 21
36.86026002936314
 31
0.0
  0
INSERT
  5
1334
330
1330
100
AcDbEntity
  8
0
 62
     0
100
AcDbBlockReference
  2
_OBLIQUE
 10
323.1672021656935
 20
36.86026002936314
 30
0.0
 41
0.075
 42
0.075
 43
0.075
 50
180.0
  0
INSERT
  5
1335
330
1330
100
AcDbEntity
  8
0
 62
     0
100
AcDbBlockReference
  2
_OBLIQUE
 10
323.6672021656935
 20
36.86026002936314
 30
0.0
 41
0.075
 42
0.075
 43
0.075
  0
MTEXT
  5
1336
330
1330
100
AcDbEntity
  8
0
 62
     0
100
AcDbMText
 10
323.4172021656935
 20
36.93526002936315
 30
0.0
 40
0.075
 41
0.0
 71
     5
 72
     1
  1
\A1;0.50
  7
ROMANC
 73
     1
 44
1.0
1001
ACAD
1000
MTEXTBEGIN
1070
    73
1070
     1
1070
    44
1040
1.0
1070
    74
1070
     0
1000
MTEXTEND
1000
MTEXTBEGIN
1070
    73
1070
     1
1070
    44
1040
1.0
1070
    74
1070
     0
1000
MTEXTEND
1000
MTEXTBEGIN
1070
    73
1070
     1
1070
    44
1040
1.0
1070
    74
1070
     0
1000
MTEXTEND
1000
MTEXTBEGIN
1070
    73
1070
     1
1070
    44
1040
1.0
1070
    74
1070
     0
1000
MTEXTEND
  0
POINT
  5
1337
330
1330
100
AcDbEntity
  8
DEFPOINTS
 62
     0
100
AcDbPoint
 10
323.1672021656935
 20
37.08962121076326
 30
0.0
  0
POINT
  5
1338
330
1330
100
AcDbEntity
  8
DEFPOINTS
 62
     0
100
AcDbPoint
 10
323.6672021656935
 20
37.08962121076326
 30
0.0
  0
POINT
  5
1339
330
1330
100
AcDbEntity
  8
DEFPOINTS
 62
     0
100
AcDbPoint
 10
323.6672021656935
 20
36.86026002936314
 30
0.0
  0
ENDBLK
  5
133B
330
1330
100
AcDbEntity
  8
0
100
AcDbBlockEnd
  0
BLOCK
  5
1472
330
1468
100
AcDbEntity
  8
0
100
AcDbBlockBegin
  2
*D4
 70
     1
 10
0.0
 20
0.0
 30
0.0
  3
*D4
  1

  0
LINE
  5
1469
330
1468
100
AcDbEntity
  8
0
 62
     0
100
AcDbLine
 10
322.4369251598333
 20
37.63550933443507
 30
0.0
 11
322.4369251598333
 21
37.74750426807303
 31
0.0
  0
LINE
  5
146A
330
1468
100
AcDbEntity
  8
0
 62
     0
100
AcDbLine
 10
324.0369251598333
 20
37.63550933443507
 30
0.0
 11
324.0369251598333
 21
37.74750426807303
 31
0.0
  0
LINE
  5
146B
330
1468
100
AcDbEntity
  8
0
 62
     0
100
AcDbLine
 10
322.4369251598333
 20
37.73250426807303
 30
0.0
 11
324.0369251598333
 21
37.73250426807303
 31
0.0
  0
INSERT
  5
146C
330
1468
100
AcDbEntity
  8
0
 62
     0
100
AcDbBlockReference
  2
_OBLIQUE
 10
322.4369251598333
 20
37.73250426807303
 30
0.0
 41
0.075
 42
0.075
 43
0.075
 50
180.0
  0
INSERT
  5
146D
330
1468
100
AcDbEntity
  8
0
 62
     0
100
AcDbBlockReference
  2
_OBLIQUE
 10
324.0369251598333
 20
37.73250426807303
 30
0.0
 41
0.075
 42
0.075
 43
0.075
  0
MTEXT
  5
146E
330
1468
100
AcDbEntity
  8
0
 62
     0
100
AcDbMText
 10
323.2369251598331
 20
37.80750426807303
 30
0.0
 40
0.075
 41
0.0
 71
     5
 72
     1
  1
\A1;1.60
  7
ROMANC
 73
     1
 44
1.0
1001
ACAD
1000
MTEXTBEGIN
1070
    73
1070
     1
1070
    44
1040
1.0
1070
    74
1070
     0
1000
MTEXTEND
1000
MTEXTBEGIN
1070
    73
1070
     1
1070
    44
1040
1.0
1070
    74
1070
     0
1000
MTEXTEND
  0
POINT
  5
146F
330
1468
100
AcDbEntity
  8
DEFPOINTS
 62
     0
100
AcDbPoint
 10
322.4369251598333
 20
37.62050933443507
 30
0.0
  0
POINT
  5
1470
330
1468
100
AcDbEntity
  8
DEFPOINTS
 62
     0
100
AcDbPoint
 10
324.0369251598333
 20
37.62050933443507
 30
0.0
  0
POINT
  5
1471
330
1468
100
AcDbEntity
  8
DEFPOINTS
 62
     0
100
AcDbPoint
 10
324.0369251598333
 20
37.73250426807303
 30
0.0
  0
ENDBLK
  5
1473
330
1468
100
AcDbEntity
  8
0
100
AcDbBlockEnd
  0
BLOCK
  5
147F
330
1475
100
AcDbEntity
  8
0
100
AcDbBlockBegin
  2
*D5
 70
     1
 10
0.0
 20
0.0
 30
0.0
  3
*D5
  1

  0
LINE
  5
1476
330
1475
100
AcDbEntity
  8
0
 62
     0
100
AcDbLine
 10
324.0519251598331
 20
37.62050933443507
 30
0.0
 11
324.2319159206328
 21
37.62050933443507
 31
0.0
  0
LINE
  5
1477
330
1475
100
AcDbEntity
  8
0
 62
     0
100
AcDbLine
 10
323.2519251598333
 20
37.27050933443507
 30
0.0
 11
324.2319159206328
 21
37.27050933443507
 31
0.0
  0
LINE
  5
1478
330
1475
100
AcDbEntity
  8
0
 62
     0
100
AcDbLine
 10
324.2169159206328
 20
37.62050933443507
 30
0.0
 11
324.2169159206328
 21
37.27050933443507
 31
0.0
  0
INSERT
  5
1479
330
1475
100
AcDbEntity
  8
0
 62
     0
100
AcDbBlockReference
  2
_OBLIQUE
 10
324.2169159206328
 20
37.62050933443507
 30
0.0
 41
0.075
 42
0.075
 43
0.075
 50
90.0
  0
INSERT
  5
147A
330
1475
100
AcDbEntity
  8
0
 62
     0
100
AcDbBlockReference
  2
_OBLIQUE
 10
324.2169159206328
 20
37.27050933443507
 30
0.0
 41
0.075
 42
0.075
 43
0.075
 50
270.0
  0
MTEXT
  5
147B
330
1475
100
AcDbEntity
  8
0
 62
     0
100
AcDbMText
 10
324.1419159206328
 20
37.44550933443511
 30
0.0
 40
0.075
 41
0.0
 71
     5
 72
     1
  1
\A1;0.35
  7
ROMANC
 11
0.0000000000000001
 21
1.0
 31
0.0
 73
     1
 44
1.0
1001
ACAD
1000
MTEXTBEGIN
1070
    73
1070
     1
1070
    44
1040
1.0
1070
    74
1070
     0
1000
MTEXTEND
1000
MTEXTBEGIN
1070
    73
1070
     1
1070
    44
1040
1.0
1070
    74
1070
     0
1000
MTEXTEND
  0
POINT
  5
147C
330
1475
100
AcDbEntity
  8
DEFPOINTS
 62
     0
100
AcDbPoint
 10
324.0369251598333
 20
37.62050933443507
 30
0.0
  0
POINT
  5
147D
330
1475
100
AcDbEntity
  8
DEFPOINTS
 62
     0
100
AcDbPoint
 10
323.2369251598331
 20
37.27050933443507
 30
0.0
  0
POINT
  5
147E
330
1475
100
AcDbEntity
  8
DEFPOINTS
 62
     0
100
AcDbPoint
 10
324.2169159206328
 20
37.27050933443507
 30
0.0
  0
ENDBLK
  5
1480
330
1475
100
AcDbEntity
  8
0
100
AcDbBlockEnd
  0
BLOCK
  5
1527
330
151D
100
AcDbEntity
  8
0
100
AcDbBlockBegin
  2
*D6
 70
     1
 10
0.0
 20
0.0
 30
0.0
  3
*D6
  1

  0
LINE
  5
154A
330
151D
100
AcDbEntity
  8
0
 62
     0
100
AcDbLine
 10
322.8659196865076
 20
37.36982286387076
 30
0.0
 11
322.8659196865076
 21
37.00666838947521
 31
0.0
  0
LINE
  5
154B
330
151D
100
AcDbEntity
  8
0
 62
     0
100
AcDbLine
 10
323.3659196865076
 20
37.36982286387076
 30
0.0
 11
323.3659196865076
 21
37.00666838947521
 31
0.0
  0
LINE
  5
154C
330
151D
100
AcDbEntity
  8
0
 62
     0
100
AcDbLine
 10
322.8659196865076
 20
37.02166838947521
 30
0.0
 11
323.3659196865076
 21
37.02166838947521
 31
0.0
  0
INSERT
  5
154D
330
151D
100
AcDbEntity
  8
0
 62
     0
100
AcDbBlockReference
  2
_OBLIQUE
 10
322.8659196865076
 20
37.02166838947521
 30
0.0
 41
0.075
 42
0.075
 43
0.075
 50
180.0
  0
INSERT
  5
154E
330
151D
100
AcDbEntity
  8
0
 62
     0
100
AcDbBlockReference
  2
_OBLIQUE
 10
323.3659196865076
 20
37.02166838947521
 30
0.0
 41
0.075
 42
0.075
 43
0.075
  0
MTEXT
  5
154F
330
151D
100
AcDbEntity
  8
0
 62
     0
100
AcDbMText
 10
323.103317718939
 20
37.09666838947522
 30
0.0
 40
0.075
 41
0.0
 71
     5
 72
     1
  1
\A1;0.50
  7
ROMANC
 73
     1
 44
1.0
1001
ACAD
1000
MTEXTBEGIN
1070
    73
1070
     1
1070
    44
1040
1.0
1070
    74
1070
     0
1000
MTEXTEND
1000
MTEXTBEGIN
1070
    73
1070
     1
1070
    44
1040
1.0
1070
    74
1070
     0
1000
MTEXTEND
  0
POINT
  5
1550
330
151D
100
AcDbEntity
  8
DEFPOINTS
 62
     0
100
AcDbPoint
 10
322.8659196865076
 20
37.38482286387077
 30
0.0
  0
POINT
  5
1551
330
151D
100
AcDbEntity
  8
DEFPOINTS
 62
     0
100
AcDbPoint
 10
323.3659196865076
 20
37.38482286387077
 30
0.0
  0
POINT
  5
1552
330
151D
100
AcDbEntity
  8
DEFPOINTS
 62
     0
100
AcDbPoint
 10
323.3659196865076
 20
37.02166838947521
 30
0.0
  0
ENDBLK
  5
1528
330
151D
100
AcDbEntity
  8
0
100
AcDbBlockEnd
  0
BLOCK
  5
1536
330
152A
100
AcDbEntity
  8
0
100
AcDbBlockBegin
  2
*D7
 70
     1
 10
0.0
 20
0.0
 30
0.0
  3
*D7
  1

  0
LINE
  5
155E
330
152A
100
AcDbEntity
  8
0
 62
     0
100
AcDbLine
 10
323.4375549149111
 20
37.61982286387075
 30
0.0
 11
323.5993606282083
 21
37.61982286387075
 31
0.0
  0
LINE
  5
155F
330
152A
100
AcDbEntity
  8
0
 62
     0
100
AcDbLine
 10
323.4225549149111
 20
37.38482286387077
 30
0.0
 11
323.5993606282083
 21
37.38482286387077
 31
0.0
  0
LINE
  5
1560
330
152A
100
AcDbEntity
  8
0
 62
     0
100
AcDbLine
 10
323.5843606282081
 20
37.61982286387075
 30
0.0
 11
323.5843606282081
 21
37.69482286387077
 31
0.0
  0
LINE
  5
1561
330
152A
100
AcDbEntity
  8
0
 62
     0
100
AcDbLine
 10
323.5843606282081
 20
37.38482286387077
 30
0.0
 11
323.5843606282081
 21
37.30982286387074
 31
0.0
  0
LINE
  5
1562
330
152A
100
AcDbEntity
  8
0
 62
     0
100
AcDbLine
 10
323.5843606282081
 20
37.61982286387075
 30
0.0
 11
323.5843606282081
 21
37.38482286387077
 31
0.0
  0
INSERT
  5
1563
330
152A
100
AcDbEntity
  8
0
 62
     0
100
AcDbBlockReference
  2
_OBLIQUE
 10
323.5843606282081
 20
37.61982286387075
 30
0.0
 41
0.075
 42
0.075
 43
0.075
 50
270.0
  0
INSERT
  5
1564
330
152A
100
AcDbEntity
  8
0
 62
     0
100
AcDbBlockReference
  2
_OBLIQUE
 10
323.5843606282081
 20
37.38482286387077
 30
0.0
 41
0.075
 42
0.075
 43
0.075
 50
90.0
  0
MTEXT
  5
1565
330
152A
100
AcDbEntity
  8
0
 62
     0
100
AcDbMText
 10
323.5093606282083
 20
37.50232286387081
 30
0.0
 40
0.075
 41
0.0
 71
     5
 72
     1
  1
\A1;0.24
  7
ROMANC
 11
0.0000000000000001
 21
1.0
 31
0.0
 73
     1
 44
1.0
1001
ACAD
1000
MTEXTBEGIN
1070
    73
1070
     1
1070
    44
1040
1.0
1070
    74
1070
     0
1000
MTEXTEND
1000
MTEXTBEGIN
1070
    73
1070
     1
1070
    44
1040
1.0
1070
    74
1070
     0
1000
MTEXTEND
  0
POINT
  5
1566
330
152A
100
AcDbEntity
  8
DEFPOINTS
 62
     0
100
AcDbPoint
 10
323.4225549149113
 20
37.61982286387075
 30
0.0
  0
POINT
  5
1567
330
152A
100
AcDbEntity
  8
DEFPOINTS
 62
     0
100
AcDbPoint
 10
323.4075549149112
 20
37.38482286387077
 30
0.0
  0
POINT
  5
1568
330
152A
100
AcDbEntity
  8
DEFPOINTS
 62
     0
100
AcDbPoint
 10
323.5843606282081
 20
37.38482286387077
 30
0.0
  0
ENDBLK
  5
1537
330
152A
100
AcDbEntity
  8
0
100
AcDbBlockEnd
  0
BLOCK
  5
159D
330
1593
100
AcDbEntity
  8
0
100
AcDbBlockBegin
  2
*D8
 70
     1
 10
0.0
 20
0.0
 30
0.0
  3
*D8
  1

  0
LINE
  5
15E3
330
1593
100
AcDbEntity
  8
0
 62
     0
100
AcDbLine
 10
322.5884071683493
 20
37.31604892494427
 30
0.0
 11
322.5884071683493
 21
37.04006825967393
 31
0.0
  0
LINE
  5
15E4
330
1593
100
AcDbEntity
  8
0
 62
     0
100
AcDbLine
 10
323.5884071683493
 20
37.31604892494428
 30
0.0
 11
323.5884071683493
 21
37.04006825967393
 31
0.0
  0
LINE
  5
15E5
330
1593
100
AcDbEntity
  8
0
 62
     0
100
AcDbLine
 10
322.5884071683493
 20
37.05506825967393
 30
0.0
 11
323.5884071683493
 21
37.05506825967393
 31
0.0
  0
INSERT
  5
15E6
330
1593
100
AcDbEntity
  8
0
 62
     0
100
AcDbBlockReference
  2
_OBLIQUE
 10
322.5884071683493
 20
37.05506825967393
 30
0.0
 41
0.075
 42
0.075
 43
0.075
 50
180.0
  0
INSERT
  5
15E7
330
1593
100
AcDbEntity
  8
0
 62
     0
100
AcDbBlockReference
  2
_OBLIQUE
 10
323.5884071683493
 20
37.05506825967393
 30
0.0
 41
0.075
 42
0.075
 43
0.075
  0
MTEXT
  5
15E8
330
1593
100
AcDbEntity
  8
0
 62
     0
100
AcDbMText
 10
323.0884071683493
 20
37.13006825967392
 30
0.0
 40
0.075
 41
0.0
 71
     5
 72
     1
  1
\A1;1.00
  7
ROMANC
 73
     1
 44
1.0
1001
ACAD
1000
MTEXTBEGIN
1070
    73
1070
     1
1070
    44
1040
1.0
1070
    74
1070
     0
1000
MTEXTEND
1000
MTEXTBEGIN
1070
    73
1070
     1
1070
    44
1040
1.0
1070
    74
1070
     0
1000
MTEXTEND
  0
POINT
  5
15E9
330
1593
100
AcDbEntity
  8
DEFPOINTS
 62
     0
100
AcDbPoint
 10
322.5884071683493
 20
37.33104892494427
 30
0.0
  0
POINT
  5
15EA
330
1593
100
AcDbEntity
  8
DEFPOINTS
 62
     0
100
AcDbPoint
 10
323.5884071683493
 20
37.33104892494428
 30
0.0
  0
POINT
  5
15EB
330
1593
100
AcDbEntity
  8
DEFPOINTS
 62
     0
100
AcDbPoint
 10
323.5884071683493
 20
37.05506825967393
 30
0.0
  0
ENDBLK
  5
159E
330
1593
100
AcDbEntity
  8
0
100
AcDbBlockEnd
  0
BLOCK
  5
15AC
330
15A0
100
AcDbEntity
  8
0
100
AcDbBlockBegin
  2
*D9
 70
     1
 10
0.0
 20
0.0
 30
0.0
  3
*D9
  1

  0
LINE
  5
15EC
330
15A0
100
AcDbEntity
  8
0
 62
     0
100
AcDbLine
 10
323.7186543308248
 20
37.63104892494424
 30
0.0
 11
324.0822564980478
 21
37.63104892494424
 31
0.0
  0
LINE
  5
15ED
330
15A0
100
AcDbEntity
  8
0
 62
     0
100
AcDbLine
 10
323.7036543308249
 20
37.33104892494427
 30
0.0
 11
324.0822564980478
 21
37.33104892494427
 31
0.0
  0
LINE
  5
15EE
330
15A0
100
AcDbEntity
  8
0
 62
     0
100
AcDbLine
 10
324.0672564980478
 20
37.63104892494424
 30
0.0
 11
324.0672564980478
 21
37.70604892494425
 31
0.0
  0
LINE
  5
15EF
330
15A0
100
AcDbEntity
  8
0
 62
     0
100
AcDbLine
 10
324.0672564980478
 20
37.33104892494427
 30
0.0
 11
324.0672564980478
 21
37.25604892494427
 31
0.0
  0
LINE
  5
15F0
330
15A0
100
AcDbEntity
  8
0
 62
     0
100
AcDbLine
 10
324.0672564980478
 20
37.63104892494424
 30
0.0
 11
324.0672564980478
 21
37.33104892494427
 31
0.0
  0
INSERT
  5
15F1
330
15A0
100
AcDbEntity
  8
0
 62
     0
100
AcDbBlockReference
  2
_OBLIQUE
 10
324.0672564980478
 20
37.63104892494424
 30
0.0
 41
0.075
 42
0.075
 43
0.075
 50
270.0
  0
INSERT
  5
15F2
330
15A0
100
AcDbEntity
  8
0
 62
     0
100
AcDbBlockReference
  2
_OBLIQUE
 10
324.0672564980478
 20
37.33104892494427
 30
0.0
 41
0.075
 42
0.075
 43
0.075
 50
90.0
  0
MTEXT
  5
15F3
330
15A0
100
AcDbEntity
  8
0
 62
     0
100
AcDbMText
 10
323.992256498048
 20
37.48104892494431
 30
0.0
 40
0.075
 41
0.0
 71
     5
 72
     1
  1
\A1;0.30
  7
ROMANC
 11
0.0000000000000001
 21
1.0
 31
0.0
 73
     1
 44
1.0
1001
ACAD
1000
MTEXTBEGIN
1070
    73
1070
     1
1070
    44
1040
1.0
1070
    74
1070
     0
1000
MTEXTEND
1000
MTEXTBEGIN
1070
    73
1070
     1
1070
    44
1040
1.0
1070
    74
1070
     0
1000
MTEXTEND
  0
POINT
  5
15F4
330
15A0
100
AcDbEntity
  8
DEFPOINTS
 62
     0
100
AcDbPoint
 10
323.7036543308249
 20
37.63104892494424
 30
0.0
  0
POINT
  5
15F5
330
15A0
100
AcDbEntity
  8
DEFPOINTS
 62
     0
100
AcDbPoint
 10
323.688654330825
 20
37.33104892494427
 30
0.0
  0
POINT
  5
15F6
330
15A0
100
AcDbEntity
  8
DEFPOINTS
 62
     0
100
AcDbPoint
 10
324.0672564980478
 20
37.33104892494427
 30
0.0
  0
ENDBLK
  5
15AD
330
15A0
100
AcDbEntity
  8
0
100
AcDbBlockEnd
  0
BLOCK
  5
16AB
330
169F
100
AcDbEntity
  8
0
100
AcDbBlockBegin
  2
*D10
 70
     1
 10
0.0
 20
0.0
 30
0.0
  3
*D10
  1

  0
LINE
  5
16A0
330
169F
100
AcDbEntity
  8
0
 62
     0
100
AcDbLine
 10
322.9993518032058
 20
37.36970238373853
 30
0.0
 11
322.9993518032058
 21
37.13003450447557
 31
0.0
  0
LINE
  5
16A1
330
169F
100
AcDbEntity
  8
0
 62
     0
100
AcDbLine
 10
323.2493518032058
 20
37.36970238373853
 30
0.0
 11
323.2493518032058
 21
37.13003450447557
 31
0.0
  0
LINE
  5
16A2
330
169F
100
AcDbEntity
  8
0
 62
     0
100
AcDbLine
 10
322.9993518032058
 20
37.14503450447557
 30
0.0
 11
322.9243518032058
 21
37.14503450447557
 31
0.0
  0
LINE
  5
16A3
330
169F
100
AcDbEntity
  8
0
 62
     0
100
AcDbLine
 10
323.2493518032058
 20
37.14503450447557
 30
0.0
 11
323.3243518032058
 21
37.14503450447557
 31
0.0
  0
LINE
  5
16A4
330
169F
100
AcDbEntity
  8
0
 62
     0
100
AcDbLine
 10
322.9993518032058
 20
37.14503450447557
 30
0.0
 11
323.2493518032058
 21
37.14503450447557
 31
0.0
  0
INSERT
  5
16A5
330
169F
100
AcDbEntity
  8
0
 62
     0
100
AcDbBlockReference
  2
_OBLIQUE
 10
322.9993518032058
 20
37.14503450447557
 30
0.0
 41
0.075
 42
0.075
 43
0.075
  0
INSERT
  5
16A6
330
169F
100
AcDbEntity
  8
0
 62
     0
100
AcDbBlockReference
  2
_OBLIQUE
 10
323.2493518032058
 20
37.14503450447557
 30
0.0
 41
0.075
 42
0.075
 43
0.075
 50
180.0
  0
MTEXT
  5
16A7
330
169F
100
AcDbEntity
  8
0
 62
     0
100
AcDbMText
 10
323.1243518032058
 20
37.22003450447557
 30
0.0
 40
0.075
 41
0.0
 71
     5
 72
     1
  1
\A1;0.25
  7
ROMANC
 73
     1
 44
1.0
1001
ACAD
1000
MTEXTBEGIN
1070
    73
1070
     1
1070
    44
1040
1.0
1070
    74
1070
     0
1000
MTEXTEND
  0
POINT
  5
16A8
330
169F
100
AcDbEntity
  8
DEFPOINTS
 62
     0
100
AcDbPoint
 10
322.9993518032058
 20
37.38470238373853
 30
0.0
  0
POINT
  5
16A9
330
169F
100
AcDbEntity
  8
DEFPOINTS
 62
     0
100
AcDbPoint
 10
323.2493518032058
 20
37.38470238373853
 30
0.0
  0
POINT
  5
16AA
330
169F
100
AcDbEntity
  8
DEFPOINTS
 62
     0
100
AcDbPoint
 10
323.2493518032058
 20
37.14503450447557
 30
0.0
  0
ENDBLK
  5
16AC
330
169F
100
AcDbEntity
  8
0
100
AcDbBlockEnd
  0
BLOCK
  5
16BA
330
16AE
100
AcDbEntity
  8
0
100
AcDbBlockBegin
  2
*D11
 70
     1
 10
0.0
 20
0.0
 30
0.0
  3
*D11
  1

  0
LINE
  5
16AF
330
16AE
100
AcDbEntity
  8
0
 62
     0
100
AcDbLine
 10
323.2643518032058
 20
37.38470238373853
 30
0.0
 11
323.488767897485
 21
37.38470238373853
 31
0.0
  0
LINE
  5
16B0
330
16AE
100
AcDbEntity
  8
0
 62
     0
100
AcDbLine
 10
323.2643518032058
 20
37.53470238373852
 30
0.0
 11
323.488767897485
 21
37.53470238373852
 31
0.0
  0
LINE
  5
16B1
330
16AE
100
AcDbEntity
  8
0
 62
     0
100
AcDbLine
 10
323.473767897485
 20
37.38470238373853
 30
0.0
 11
323.473767897485
 21
37.30970238373852
 31
0.0
  0
LINE
  5
16B2
330
16AE
100
AcDbEntity
  8
0
 62
     0
100
AcDbLine
 10
323.473767897485
 20
37.53470238373852
 30
0.0
 11
323.473767897485
 21
37.60970238373853
 31
0.0
  0
LINE
  5
16B3
330
16AE
100
AcDbEntity
  8
0
 62
     0
100
AcDbLine
 10
323.473767897485
 20
37.38470238373853
 30
0.0
 11
323.473767897485
 21
37.53470238373852
 31
0.0
  0
INSERT
  5
16B4
330
16AE
100
AcDbEntity
  8
0
 62
     0
100
AcDbBlockReference
  2
_OBLIQUE
 10
323.473767897485
 20
37.38470238373853
 30
0.0
 41
0.075
 42
0.075
 43
0.075
 50
90.0
  0
INSERT
  5
16B5
330
16AE
100
AcDbEntity
  8
0
 62
     0
100
AcDbBlockReference
  2
_OBLIQUE
 10
323.473767897485
 20
37.53470238373852
 30
0.0
 41
0.075
 42
0.075
 43
0.075
 50
270.0
  0
MTEXT
  5
16B6
330
16AE
100
AcDbEntity
  8
0
 62
     0
100
AcDbMText
 10
323.398767897485
 20
37.45970238373858
 30
0.0
 40
0.075
 41
0.0
 71
     5
 72
     1
  1
\A1;0.15
  7
ROMANC
 11
0.0000000000000001
 21
1.0
 31
0.0
 73
     1
 44
1.0
1001
ACAD
1000
MTEXTBEGIN
1070
    73
1070
     1
1070
    44
1040
1.0
1070
    74
1070
     0
1000
MTEXTEND
  0
POINT
  5
16B7
330
16AE
100
AcDbEntity
  8
DEFPOINTS
 62
     0
100
AcDbPoint
 10
323.2493518032058
 20
37.38470238373853
 30
0.0
  0
POINT
  5
16B8
330
16AE
100
AcDbEntity
  8
DEFPOINTS
 62
     0
100
AcDbPoint
 10
323.2493518032058
 20
37.53470238373852
 30
0.0
  0
POINT
  5
16B9
330
16AE
100
AcDbEntity
  8
DEFPOINTS
 62
     0
100
AcDbPoint
 10
323.473767897485
 20
37.53470238373852
 30
0.0
  0
ENDBLK
  5
16BB
330
16AE
100
AcDbEntity
  8
0
100
AcDbBlockEnd
  0
BLOCK
  5
173F
330
1735
100
AcDbEntity
  8
0
100
AcDbBlockBegin
  2
*D12
 70
     1
 10
0.0
 20
0.0
 30
0.0
  3
*D12
  1

  0
LINE
  5
17FB
330
1735
100
AcDbEntity
  8
0
 62
     0
370
    -2
100
AcDbLine
 10
323.4529051630243
 20
37.41684977898831
 30
0.0
 11
324.4240580774418
 21
37.41684977898831
 31
0.0
  0
LINE
  5
17FC
330
1735
100
AcDbEntity
  8
0
 62
     0
370
    -2
100
AcDbLine
 10
323.4529051630243
 20
36.16684977898831
 30
0.0
 11
324.4240580774418
 21
36.16684977898831
 31
0.0
  0
LINE
  5
17FD
330
1735
100
AcDbEntity
  8
0
 62
     0
370
    -2
100
AcDbLine
 10
324.4090580774418
 20
37.41684977898831
 30
0.0
 11
324.4090580774418
 21
36.16684977898831
 31
0.0
  0
INSERT
  5
17FE
330
1735
100
AcDbEntity
  8
0
 62
     0
370
    -2
100
AcDbBlockReference
  2
_OBLIQUE
 10
324.4090580774418
 20
37.41684977898831
 30
0.0
 41
0.075
 42
0.075
 43
0.075
 50
90.0
  0
INSERT
  5
17FF
330
1735
100
AcDbEntity
  8
0
 62
     0
370
    -2
100
AcDbBlockReference
  2
_OBLIQUE
 10
324.4090580774418
 20
36.16684977898831
 30
0.0
 41
0.075
 42
0.075
 43
0.075
 50
270.0
  0
MTEXT
  5
1800
330
1735
100
AcDbEntity
  8
0
 62
     0
100
AcDbMText
 10
324.3340580774418
 20
36.79184977898835
 30
0.0
 40
0.075
 41
0.0
 71
     5
 72
     1
  1
\A1;1.25
  7
ROMANC
 11
0.0000000000000001
 21
1.0
 31
0.0
 73
     1
 44
1.0
  0
POINT
  5
1801
330
1735
100
AcDbEntity
  8
DEFPOINTS
 62
     0
100
AcDbPoint
 10
323.4379051630243
 20
37.41684977898831
 30
0.0
  0
POINT
  5
1802
330
1735
100
AcDbEntity
  8
DEFPOINTS
 62
     0
100
AcDbPoint
 10
323.4379051630243
 20
36.16684977898831
 30
0.0
  0
POINT
  5
1803
330
1735
100
AcDbEntity
  8
DEFPOINTS
 62
     0
100
AcDbPoint
 10
324.4090580774418
 20
36.16684977898831
 30
0.0
  0
ENDBLK
  5
1740
330
1735
100
AcDbEntity
  8
0
100
AcDbBlockEnd
  0
BLOCK
  5
174C
330
1742
100
AcDbEntity
  8
0
100
AcDbBlockBegin
  2
*D13
 70
     1
 10
0.0
 20
0.0
 30
0.0
  3
*D13
  1

  0
LINE
  5
1804
330
1742
100
AcDbEntity
  8
0
 62
     0
370
    -2
100
AcDbLine
 10
322.5379051630243
 20
36.1518497789883
 30
0.0
 11
322.5379051630243
 21
35.37937704791598
 31
0.0
  0
LINE
  5
1805
330
1742
100
AcDbEntity
  8
0
 62
     0
370
    -2
100
AcDbLine
 10
323.4379051630243
 20
36.1518497789883
 30
0.0
 11
323.4379051630243
 21
35.37937704791598
 31
0.0
  0
LINE
  5
1806
330
1742
100
AcDbEntity
  8
0
 62
     0
370
    -2
100
AcDbLine
 10
322.5379051630243
 20
35.39437704791598
 30
0.0
 11
323.4379051630243
 21
35.39437704791598
 31
0.0
  0
INSERT
  5
1807
330
1742
100
AcDbEntity
  8
0
 62
     0
370
    -2
100
AcDbBlockReference
  2
_OBLIQUE
 10
322.5379051630243
 20
35.39437704791598
 30
0.0
 41
0.075
 42
0.075
 43
0.075
 50
180.0
  0
INSERT
  5
1808
330
1742
100
AcDbEntity
  8
0
 62
     0
370
    -2
100
AcDbBlockReference
  2
_OBLIQUE
 10
323.4379051630243
 20
35.39437704791598
 30
0.0
 41
0.075
 42
0.075
 43
0.075
  0
MTEXT
  5
1809
330
1742
100
AcDbEntity
  8
0
 62
     0
100
AcDbMText
 10
322.9879051630244
 20
35.46937704791598
 30
0.0
 40
0.075
 41
0.0
 71
     5
 72
     1
  1
\A1;0.90
  7
ROMANC
 73
     1
 44
1.0
  0
POINT
  5
180A
330
1742
100
AcDbEntity
  8
DEFPOINTS
 62
     0
100
AcDbPoint
 10
322.5379051630243
 20
36.16684977898831
 30
0.0
  0
POINT
  5
180B
330
1742
100
AcDbEntity
  8
DEFPOINTS
 62
     0
100
AcDbPoint
 10
323.4379051630243
 20
36.16684977898831
 30
0.0
  0
POINT
  5
180C
330
1742
100
AcDbEntity
  8
DEFPOINTS
 62
     0
100
AcDbPoint
 10
323.4379051630243
 20
35.39437704791598
 30
0.0
  0
ENDBLK
  5
174D
330
1742
100
AcDbEntity
  8
0
100
AcDbBlockEnd
  0
ENDSEC
  0
SECTION
  2
ENTITIES
  0
LWPOLYLINE
  5
117D
330
17
100
AcDbEntity
  8
NO_PRINT
100
AcDbPolyline
 90
        4
 70
     1
 43
0.0
 10
320.7538766547918
 20
33.8600391273392
 10
326.0038766547919
 20
33.8600391273392
 10
326.0038766547919
 20
41.28503912733918
 10
320.7538766547918
 20
41.28503912733918
  0
LWPOLYLINE
  5
1733
330
17
100
AcDbEntity
  8
0
100
AcDbPolyline
 90
        4
 70
     0
 43
0.0
 10
322.5379051630243
 20
37.41684977898831
 10
322.5379051630243
 20
36.16684977898831
 10
323.4379051630243
 20
36.16684977898831
 10
323.4379051630243
 20
37.41684977898831
  0
DIMENSION
  5
1734
330
17
100
AcDbEntity
  8
0
100
AcDbDimension
  2
*D12
 10
324.4090580774418
 20
36.16684977898831
 30
0.0
 11
324.3340580774418
 21
36.79184977898835
 31
0.0
 70
    32
 71
     5
 42
1.25
  3
MERITXELL
100
AcDbAlignedDimension
 13
323.4379051630243
 23
37.41684977898831
 33
0.0
 14
323.4379051630243
 24
36.16684977898831
 34
0.0
 50
90.0
100
AcDbRotatedDimension
1001
ACAD
1000
DSTYLE
1002
{
1070
   141
1040
0.0
1070
   147
1040
0.025
1002
}
  0
DIMENSION
  5
1741
330
17
100
AcDbEntity
  8
0
100
AcDbDimension
  2
*D13
 10
323.4379051630243
 20
35.39437704791598
 30
0.0
 11
322.9879051630244
 21
35.46937704791598
 31
0.0
 70
    32
 71
     5
 42
0.8999999999999772
  3
MERITXELL
100
AcDbAlignedDimension
 13
322.5379051630243
 23
36.16684977898831
 33
0.0
 14
323.4379051630243
 24
36.16684977898831
 34
0.0
100
AcDbRotatedDimension
1001
ACAD
1000
DSTYLE
1002
{
1070
   141
1040
0.0
1070
   147
1040
0.025
1002
}
  0
MTEXT
  5
174E
330
17
100
AcDbEntity
  8
0
 48
2.0
100
AcDbMText
 10
322.418567234212
 20
40.51704983689872
 30
0.0
 40
0.17504472416665
 41
4.06103760066628
 71
     1
 72
     5
  1
TIPUS   C112\PESCALA  1:25\PS = 112.5 dm2\PP = 34 dm
  7
ROMANC
 73
     1
 44
1.0
  0
LWPOLYLINE
  5
1816
330
17
100
AcDbEntity
  8
0
100
AcDbPolyline
 90
        4
 70
     0
 43
0.0
 10
322.5461735613254
 20
37.41544669609366
 10
322.5461735613254
 20
36.17544669609365
 10
323.4261735613254
 20
36.17544669609365
 10
323.4261735613254
 20
37.41544669609366
  0
LWPOLYLINE
  5
1818
330
17
100
AcDbEntity
  8
0
100
AcDbPolyline
 90
        4
 70
     0
 43
0.0
 10
322.527212831178
 20
37.41544669609366
 10
322.527212831178
 20
36.15544669609366
 10
323.447212831178
 20
36.15544669609366
 10
323.447212831178
 20
37.41544669609366
  0
VIEWPORT
  5
FCA
330
14
100
AcDbEntity
 67
     1
  8
0
100
AcDbViewport
 10
8.052072844465962
 20
11.50380524305526
 30
0.0
 40
35.17270632360808
 41
24.74662075252982
 68
     1
 69
     1
 12
8.052072844465962
 22
11.50380524305526
 13
0.0
 23
0.0
 14
10.0
 24
10.0
 15
10.0
 25
10.0
 16
0.0
 26
0.0
 36
1.0
 17
0.0
 27
0.0
 37
0.0
 42
50.0
 43
0.0
 44
0.0
 45
24.74662075252982
 50
0.0
 51
0.0
 72
   100
 90
    32800
  1

281
     0
 71
     1
 74
     0
110
0.0
120
0.0
130
0.0
111
1.0
121
0.0
131
0.0
112
0.0
122
1.0
132
0.0
 79
     0
146
0.0
  0
VIEWPORT
  5
FCC
330
14
100
AcDbEntity
 67
     1
  8
FINESTRA
100
AcDbViewport
 10
8.045876423917942
 20
11.49693433107352
 30
0.0
 40
15.66853654318931
 41
22.52459118038126
 68
     2
 69
     2
 12
323.9754497015097
 22
37.68582970763765
 13
0.0
 23
0.0
 14
1.0
 24
1.0
 15
10.0
 25
10.0
 16
0.0
 26
0.0
 36
1.0
 17
0.0
 27
0.0
 37
0.0
 42
50.0
 43
0.0
 44
0.0
 45
16.93578284239193
 50
0.0
 51
0.0
 72
   100
 90
    36864
  1

281
     0
 71
     1
 74
     0
110
0.0
120
0.0
130
0.0
111
1.0
121
0.0
131
0.0
112
0.0
122
1.0
132
0.0
 79
     0
146
0.0
  0
ENDSEC
  0
SECTION
  2
OBJECTS
  0
DICTIONARY
  5
C
330
0
100
AcDbDictionary
281
     1
  3
ACAD_GROUP
350
D
  3
ACAD_LAYOUT
350
FC0
  3
ACAD_MLINESTYLE
350
1A
  3
ACAD_PLOTSETTINGS
350
FC1
  3
ACAD_PLOTSTYLENAME
350
FBE
  3
ACDBVARIABLEDICTIONARY
350
25
  0
DICTIONARY
  5
11AB
330
17
100
AcDbDictionary
280
     1
281
     1
  3
ACAD_LAYOUTSELFREF
360
1728
  0
DICTIONARY
  5
11A9
330
14
100
AcDbDictionary
280
     1
281
     1
  3
ACAD_LAYOUTSELFREF
360
1727
  0
DICTIONARY
  5
D
102
{ACAD_REACTORS
330
C
102
}
330
C
100
AcDbDictionary
281
     1
  0
DICTIONARY
  5
FC0
102
{ACAD_REACTORS
330
C
102
}
330
C
100
AcDbDictionary
281
     1
  3
Model
350
172F
  3
Presentación1
350
1730
  0
DICTIONARY
  5
1A
102
{ACAD_REACTORS
330
C
102
}
330
C
100
AcDbDictionary
281
     1
  3
STANDARD
350
1B
  0
DICTIONARY
  5
FC1
102
{ACAD_REACTORS
330
C
102
}
330
C
100
AcDbDictionary
281
     1
  0
ACDBDICTIONARYWDFLT
  5
FBE
102
{ACAD_REACTORS
330
C
102
}
330
C
100
AcDbDictionary
281
     1
  3
Normal
350
FBF
100
AcDbDictionaryWithDefault
340
FBF
  0
DICTIONARY
  5
25
102
{ACAD_REACTORS
330
C
102
}
330
C
100
AcDbDictionary
281
     1
  3
DIMADEC
350
26
  3
DIMASSOC
350
1649
  0
XRECORD
  5
1728
102
{ACAD_REACTORS
330
11AB
102
}
330
11AB
100
AcDbXrecord
280
     1
340
17
  0
XRECORD
  5
1727
102
{ACAD_REACTORS
330
11A9
102
}
330
11A9
100
AcDbXrecord
280
     1
340
14
  0
LAYOUT
  5
172F
102
{ACAD_REACTORS
330
FC0
102
}
330
FC0
100
AcDbPlotSettings
  1

  2
\\Servidor1w\LS8100
  4
A4
  6

 40
7.143749713897705
 41
6.170062541961669
 42
7.736404418945312
 43
7.14373779296875
 44
209.9733276367187
 45
296.9683227539062
 46
0.0
 47
0.0
 48
320.9598635419037
 49
34.07366151760649
140
325.7794227862466
141
41.11969550647853
142
1.0
143
0.025
 70
 11936
 72
     1
 73
     0
 74
     4
  7

 75
     0
147
40.0
148
-320.9598635419037
149
-34.07366151760649
100
AcDbLayout
  1
Model
 70
     1
 71
     0
 10
0.0
 20
0.0
 11
12.0
 21
9.0
 12
0.0
 22
0.0
 32
0.0
 14
0.0
 24
0.0
 34
0.0
 15
0.0
 25
0.0
 35
0.0
146
0.0
 13
0.0
 23
0.0
 33
0.0
 16
1.0
 26
0.0
 36
0.0
 17
0.0
 27
1.0
 37
0.0
 76
     0
330
17
  0
LAYOUT
  5
1730
102
{ACAD_REACTORS
330
FC0
102
}
330
FC0
100
AcDbPlotSettings
  1

  2
Acrobat PDFWriter
  4

  6

 40
0.0
 41
0.0
 42
0.0
 43
0.0
 44
0.0
 45
0.0
 46
0.0
 47
0.0
 48
0.0
 49
0.0
140
0.0
141
0.0
142
1.0
143
1.0
 70
   688
 72
     0
 73
     0
 74
     5
  7

 75
    16
147
1.0
148
0.0
149
0.0
100
AcDbLayout
  1
Presentación1
 70
     0
 71
     1
 10
-0.211260093180138
 20
-0.1911951125826537
 11
16.31540578211206
 21
23.19880559869317
 12
0.0
 22
0.0
 32
0.0
 14
0.2116081523232864
 24
0.2346387408828896
 34
0.0
 15
15.88014469551259
 25
22.75922992126416
 35
0.0
146
0.0
 13
0.0
 23
0.0
 33
0.0
 16
1.0
 26
0.0
 36
0.0
 17
0.0
 27
1.0
 37
0.0
 76
     0
330
14
331
FCA
  0
MLINESTYLE
  5
1B
102
{ACAD_REACTORS
330
1A
102
}
330
1A
100
AcDbMlineStyle
  2
STANDARD
 70
     0
  3

 62
   256
 51
90.0
 52
90.0
 71
     2
 49
0.5
 62
   256
  6
BYLAYER
 49
-0.5
 62
   256
  6
BYLAYER
  0
ACDBPLACEHOLDER
  5
FBF
102
{ACAD_REACTORS
330
FBE
102
}
330
FBE
  0
DICTIONARYVAR
  5
26
102
{ACAD_REACTORS
330
25
102
}
330
25
100
DictionaryVariables
280
     0
  1
0
  0
DICTIONARYVAR
  5
1649
102
{ACAD_REACTORS
330
25
102
}
330
25
100
DictionaryVariables
280
     0
  1
1
  0
ENDSEC
  0
EOF
